999
DXF file: 20006692_-.dxf
999
Pro/ENGINEER 2023424 by Parametric Technology Corporation
  0
SECTION
  2
HEADER
  9
$ACADVER
  1
AC1032
  9
$DWGCODEPAGE
  3
ANSI_1252
  9
$EXTMAX
 10
210.0
 20
297.0
 30
0.0
  9
$EXTMIN
 10
0.0
 20
0.0
 30
0.0
  9
$LIMMIN
 10
0.0
 20
0.0
  9
$LIMMAX
 10
210.0
 20
297.0
  9
$VIEWCTR
 10
105.0
 20
148.5
  9
$VIEWSIZE
 40
297.0
  9
$CLAYER
  8
0
  9
$LTSCALE
 40
19.36
  9
$CELTYPE
  6
BYLAYER
  9
$DIMSCALE
 40
1.0
  9
$DIMASZ
 40
3.5
  9
$DIMEXO
 40
1.0
  9
$DIMDLI
 40
13.376
  9
$DIMEXE
 40
1.5
  9
$DIMCEN
 40
3.168
  9
$DIMLFAC
 40
1.0
  9
$DIMBLK
  1
_FILLED
  9
$DIMALT
 70
0
  9
$DIMALTF
 40
0.0393700787
  9
$DIMTXT
 40
3.5
  9
$DIMTOL
 70
1
  9
$DIMLIM
 70
0
  9
$DIMTFAC
 40
1.0
  9
$DIMTP
 40
0.05
  9
$DIMTM
 40
0.05
  9
$DIMGAP
 40
0.625
  9
$DIMDSEP
 70
46
  9
$AUNITS
 70
0
  9
$PDMODE
 70
3
  9
$PDSIZE
 40
0.3125
  9
$HANDSEED
  5
721
  9
$TILEMODE
 70
1
  9
$MEASUREMENT
 70
1
  9
$INSUNITS
 70
4
  0
ENDSEC
  0
SECTION
  2
CLASSES
  0
CLASS
  1
ACDBDICTIONARYWDFLT
  2
AcDbDictionaryWithDefault
  3
AutoCAD 2000
 90
0
 91
1
280
0
281
0
  0
CLASS
  1
ACDBPLACEHOLDER
  2
AcDbPlaceHolder
  3
AutoCAD 2000
 90
0
 91
1
280
0
281
0
  0
CLASS
  1
LAYOUT
  2
AcDbLayout
  3
AutoCAD 2000
 90
0
 91
0
280
0
281
0
  0
CLASS
  1
RASTERVARIABLES
  2
AcDbRasterVariables
  3
ISM
 90
0
 91
1
280
0
281
0
  0
CLASS
  1
IMAGEDEF
  2
AcDbRasterImageDef
  3
ISM
 90
0
 91
1
280
0
281
0
  0
CLASS
  1
IMAGEDEF_REACTOR
  2
AcDbRasterImageDefReactor
  3
ISM
 90
0
 91
1
280
0
281
0
  0
CLASS
  1
IMAGE
  2
AcDbRasterImage
  3
ISM
 90
127
 91
1
280
0
281
1
  0
CLASS
  1
TABLESTYLE
  2
AcDbTableStyle
  3
ObjectDBX Classes
 90
2047
 91
1
280
0
281
0
  0
CLASS
  1
ACAD_TABLE
  2
AcDbTable
  3
ObjectDBX Classes
 90
1025
 91
1
280
0
281
1
  0
ENDSEC
  0
SECTION
  2
TABLES
  0
TABLE
  2
VPORT
  5
8
100
AcDbSymbolTable
 70
2
  0
VPORT
  5
1F4
100
AcDbSymbolTableRecord
100
AcDbViewportTableRecord
  2
*ACTIVE
 70
0
 10
0.0
 20
0.0
 11
1.0
 21
1.0
 12
105.0
 22
148.5
 13
0.0
 23
0.0
 14
1.0
 24
1.0
 15
0.0
 25
0.0
 16
0.0
 26
0.0
 36
1.0
 17
0.0
 27
0.0
 37
0.0
 40
297.0
 41
0.7070707071
 42
50.0
 43
0.0
 44
0.0
 50
0.0
 51
0.0
 71
0
 72
100
 73
1
 74
1
 75
0
 76
0
 77
0
 78
0
  0
ENDTAB
  0
TABLE
  2
LTYPE
  5
5
100
AcDbSymbolTable
 70
6
  0
LTYPE
  5
14
100
AcDbSymbolTableRecord
100
AcDbLinetypeTableRecord
  2
BYBLOCK
 70
0
  3

 72
65
 73
0
 40
0.0
  0
LTYPE
  5
15
100
AcDbSymbolTableRecord
100
AcDbLinetypeTableRecord
  2
BYLAYER
 70
0
  3

 72
65
 73
0
 40
0.0
  0
LTYPE
  5
16
100
AcDbSymbolTableRecord
100
AcDbLinetypeTableRecord
  2
CONTINUOUS
 70
64
  3
Solid line
 72
65
 73
0
 40
0.0
  0
LTYPE
  5
1F5
100
AcDbSymbolTableRecord
100
AcDbLinetypeTableRecord
  2
CENTER
 70
64
  3
____ _ ____ _ ____ _ ____ _ ____ _ ____ _ ____
 72
65
 73
4
 40
0.6
 49
0.375
 74
0
 49
-0.075
 74
0
 49
0.075
 74
0
 49
-0.075
 74
0
  0
LTYPE
  5
1F6
100
AcDbSymbolTableRecord
100
AcDbLinetypeTableRecord
  2
HIDDEN
 70
64
  3
- - - - - - - - - - - - - - - - - - - -
 72
65
 73
2
 40
0.2
 49
0.1
 74
0
 49
-0.1
 74
0
  0
LTYPE
  5
1F7
100
AcDbSymbolTableRecord
100
AcDbLinetypeTableRecord
  2
PHANTOM
 70
64
  3
_____ _ _ _____ _ _ _____ _ _ _____
 72
65
 73
6
 40
0.8
 49
0.45
 74
0
 49
-0.05
 74
0
 49
0.1
 74
0
 49
-0.05
 74
0
 49
0.1
 74
0
 49
-0.05
 74
0
  0
LTYPE
  5
1F8
100
AcDbSymbolTableRecord
100
AcDbLinetypeTableRecord
  2
DOT
 70
64
  3
. . . . . . . . . . . . . . . . . . . .
 72
65
 73
2
 40
0.2
 49
0.1
 74
0
 49
-0.1
 74
0
  0
LTYPE
  5
1F9
100
AcDbSymbolTableRecord
100
AcDbLinetypeTableRecord
  2
DASHED
 70
64
  3
- - - - - - - - - - - - - - - - - - - -
 72
65
 73
2
 40
0.2
 49
0.1
 74
0
 49
-0.1
 74
0
  0
ENDTAB
  0
TABLE
  2
LAYER
  5
2
100
AcDbSymbolTable
 70
36
  0
LAYER
  5
10
100
AcDbSymbolTableRecord
100
AcDbLayerTableRecord
  2
0
 70
0
 62
7
  6
CONTINUOUS
370
-3
390
F
  0
LAYER
  5
1FA
100
AcDbSymbolTableRecord
100
AcDbLayerTableRecord
  2
DEFAULT_1
 70
0
 62
7
  6
CENTER
370
-3
390
F
  0
LAYER
  5
1FB
100
AcDbSymbolTableRecord
100
AcDbLayerTableRecord
  2
DEFAULT_2
 70
0
 62
6
  6
HIDDEN
370
-3
390
F
  0
LAYER
  5
1FC
100
AcDbSymbolTableRecord
100
AcDbLayerTableRecord
  2
DEFAULT_3
 70
0
 62
7
  6
PHANTOM
370
-3
390
F
  0
LAYER
  5
1FD
100
AcDbSymbolTableRecord
100
AcDbLayerTableRecord
  2
3D_NOTIZEN
 70
0
 62
7
  6
CONTINUOUS
370
-3
390
F
  0
LAYER
  5
1FE
100
AcDbSymbolTableRecord
100
AcDbLayerTableRecord
  2
PRT_STARTDATUMS
 70
0
 62
7
  6
CONTINUOUS
370
-3
390
F
  0
LAYER
  5
1FF
100
AcDbSymbolTableRecord
100
AcDbLayerTableRecord
  2
_01_3D_MODEL_DIMENSION
 70
0
 62
7
  6
CONTINUOUS
370
-3
390
F
  0
LAYER
  5
200
100
AcDbSymbolTableRecord
100
AcDbLayerTableRecord
  2
_02_2D_MODEL_DIMENSION
 70
0
 62
7
  6
CONTINUOUS
370
-3
390
F
  0
LAYER
  5
201
100
AcDbSymbolTableRecord
100
AcDbLayerTableRecord
  2
_03_2D_DRAWING_DIMENSION
 70
0
 62
7
  6
CONTINUOUS
370
-3
390
F
  0
LAYER
  5
202
100
AcDbSymbolTableRecord
100
AcDbLayerTableRecord
  2
_04_NOTES
 70
0
 62
7
  6
CONTINUOUS
370
-3
390
F
  0
LAYER
  5
203
100
AcDbSymbolTableRecord
100
AcDbLayerTableRecord
  2
_05_DRAFT_ENTITIES
 70
0
 62
7
  6
CONTINUOUS
370
-3
390
F
  0
LAYER
  5
204
100
AcDbSymbolTableRecord
100
AcDbLayerTableRecord
  2
_06_SYMBOLS
 70
0
 62
7
  6
CONTINUOUS
370
-3
390
F
  0
LAYER
  5
205
100
AcDbSymbolTableRecord
100
AcDbLayerTableRecord
  2
_21_CURVES
 70
0
 62
7
  6
CONTINUOUS
370
-3
390
F
  0
LAYER
  5
206
100
AcDbSymbolTableRecord
100
AcDbLayerTableRecord
  2
_22_SURFACES
 70
0
 62
7
  6
CONTINUOUS
370
-3
390
F
  0
LAYER
  5
207
100
AcDbSymbolTableRecord
100
AcDbLayerTableRecord
  2
_24_IMPORT
 70
0
 62
7
  6
CONTINUOUS
370
-3
390
F
  0
LAYER
  5
208
100
AcDbSymbolTableRecord
100
AcDbLayerTableRecord
  2
_26_DATUM_AXIS
 70
0
 62
7
  6
CONTINUOUS
370
-3
390
F
  0
LAYER
  5
209
100
AcDbSymbolTableRecord
100
AcDbLayerTableRecord
  2
_27_DATUM_PLANES
 70
0
 62
7
  6
CONTINUOUS
370
-3
390
F
  0
LAYER
  5
20A
100
AcDbSymbolTableRecord
100
AcDbLayerTableRecord
  2
_28_DATUM_POINTS
 70
0
 62
7
  6
CONTINUOUS
370
-3
390
F
  0
LAYER
  5
20B
100
AcDbSymbolTableRecord
100
AcDbLayerTableRecord
  2
_29_COORDINATE_SYSTEMS
 70
0
 62
7
  6
CONTINUOUS
370
-3
390
F
  0
LAYER
  5
20C
100
AcDbSymbolTableRecord
100
AcDbLayerTableRecord
  2
_30_SOLID_GEOMETRY
 70
0
 62
7
  6
CONTINUOUS
370
-3
390
F
  0
LAYER
  5
20D
100
AcDbSymbolTableRecord
100
AcDbLayerTableRecord
  2
_31_COSMETIC
 70
0
 62
7
  6
CONTINUOUS
370
-3
390
F
  0
LAYER
  5
20E
100
AcDbSymbolTableRecord
100
AcDbLayerTableRecord
  2
_33_THREADS
 70
0
 62
7
  6
CONTINUOUS
370
-3
390
F
  0
LAYER
  5
20F
100
AcDbSymbolTableRecord
100
AcDbLayerTableRecord
  2
_34_HOLES
 70
0
 62
7
  6
CONTINUOUS
370
-3
390
F
  0
LAYER
  5
210
100
AcDbSymbolTableRecord
100
AcDbLayerTableRecord
  2
_35_WELDING_SEAMS
 70
0
 62
7
  6
CONTINUOUS
370
-3
390
F
  0
LAYER
  5
211
100
AcDbSymbolTableRecord
100
AcDbLayerTableRecord
  2
_36_HOLE_NOTES
 70
0
 62
7
  6
CONTINUOUS
370
-3
390
F
  0
LAYER
  5
212
100
AcDbSymbolTableRecord
100
AcDbLayerTableRecord
  2
_50_PIPING_CSYS
 70
0
 62
7
  6
CONTINUOUS
370
-3
390
F
  0
LAYER
  5
213
100
AcDbSymbolTableRecord
100
AcDbLayerTableRecord
  2
_51_PIPING_REFERENCE
 70
0
 62
7
  6
CONTINUOUS
370
-3
390
F
  0
LAYER
  5
214
100
AcDbSymbolTableRecord
100
AcDbLayerTableRecord
  2
_VISIBLE_SURFACE_1
 70
0
 62
7
  6
CONTINUOUS
370
-3
390
F
  0
LAYER
  5
215
100
AcDbSymbolTableRecord
100
AcDbLayerTableRecord
  2
_VISIBLE_SURFACE_2
 70
0
 62
7
  6
CONTINUOUS
370
-3
390
F
  0
LAYER
  5
216
100
AcDbSymbolTableRecord
100
AcDbLayerTableRecord
  2
_VISIBLE_SURFACE_3
 70
0
 62
7
  6
CONTINUOUS
370
-3
390
F
  0
ENDTAB
  0
TABLE
  2
STYLE
  5
3
100
AcDbSymbolTable
 70
1
  0
STYLE
  5
11
100
AcDbSymbolTableRecord
100
AcDbTextStyleTableRecord
  2
STANDARD
 70
0
 40
0.0
 41
1.0
 50
0.0
 71
0
 42
0.2
  3
arialn.ttf
  4

1001
ACAD
1000
Arial Narrow
1071
34
  0
STYLE
  5
217
100
AcDbSymbolTableRecord
100
AcDbTextStyleTableRecord
  2
TEXTSTYLE_1
 70
0
 40
0.0
 41
0.8
 50
0.0
 71
0
 42
0.2
  3
gdt
  4

  0
STYLE
  5
218
100
AcDbSymbolTableRecord
100
AcDbTextStyleTableRecord
  2
TEXTSTYLE_2
 70
0
 40
0.0
 41
1.0
 50
0.0
 71
0
 42
0.2
  3
symbol_iso.ttf
  4

1001
ACAD
1000
Symbol_ISO
1071
34
  0
ENDTAB
  0
TABLE
  2
VIEW
  5
6
100
AcDbSymbolTable
 70
0
  0
ENDTAB
  0
TABLE
  2
UCS
  5
7
100
AcDbSymbolTable
 70
0
  0
ENDTAB
  0
TABLE
  2
APPID
  5
9
100
AcDbSymbolTable
 70
1
  0
APPID
  5
219
100
AcDbSymbolTableRecord
100
AcDbRegAppTableRecord
  2
ACAD
 70
0
  0
ENDTAB
  0
TABLE
  2
BLOCK_RECORD
  5
1
100
AcDbSymbolTable
 70
0
  0
BLOCK_RECORD
  5
21A
100
AcDbSymbolTableRecord
100
AcDbBlockTableRecord
  2
*Model_Space
  0
BLOCK_RECORD
  5
21B
100
AcDbSymbolTableRecord
100
AcDbBlockTableRecord
  2
*Paper_Space
  0
BLOCK_RECORD
  5
21C
100
AcDbSymbolTableRecord
100
AcDbBlockTableRecord
  2
_FILLED
  0
BLOCK_RECORD
  5
21D
100
AcDbSymbolTableRecord
100
AcDbBlockTableRecord
  2
*D0
  0
BLOCK_RECORD
  5
21E
100
AcDbSymbolTableRecord
100
AcDbBlockTableRecord
  2
*D1
  0
BLOCK_RECORD
  5
21F
100
AcDbSymbolTableRecord
100
AcDbBlockTableRecord
  2
*D2
  0
BLOCK_RECORD
  5
220
100
AcDbSymbolTableRecord
100
AcDbBlockTableRecord
  2
*D3
  0
BLOCK_RECORD
  5
221
100
AcDbSymbolTableRecord
100
AcDbBlockTableRecord
  2
PROJEKTION_BL0
  0
BLOCK_RECORD
  5
222
100
AcDbSymbolTableRecord
100
AcDbBlockTableRecord
  2
*T1
  0
ENDTAB
  0
TABLE
  2
DIMSTYLE
  5
A
100
AcDbSymbolTable
 70
1
100
AcDbDimStyleTable
 71
0
  0
DIMSTYLE
105
223
100
AcDbSymbolTableRecord
100
AcDbDimStyleTableRecord
  2
STANDARD
 70
0
  3

  4

 40
1.0
 41
3.5
 42
1.0
 43
0.38
 44
1.5
 45
0.0
 46
0.0
 47
0.05
 48
0.05
140
3.5
141
0.09
142
0.0
143
25.4
144
1.0
145
0.0
146
1.0
147
0.625
 71
1
 72
0
 73
0
 74
0
 75
0
 76
0
 77
1
 78
8
 79
2
170
0
171
1
172
0
173
0
174
0
175
0
176
0
177
0
178
7
270
2
179
2
271
2
272
2
273
2
274
2
275
0
280
0
281
0
282
0
283
1
284
8
285
0
286
0
287
3
288
0
340
11
278
46
341
21C
342
21C
343
21C
344
21C
  0
DIMSTYLE
105
224
100
AcDbSymbolTableRecord
100
AcDbDimStyleTableRecord
  2
DIMSTYLE_1
 70
0
  3

  4

 40
1.0
 41
3.5
 42
1.0
 43
0.38
 44
1.5
 45
0.0
 46
0.0
 47
0.3
 48
0.3
140
3.5
141
0.09
142
0.0
143
25.4
144
1.0
145
0.0
146
1.0
147
0.875
 71
0
 72
0
 73
0
 74
0
 75
0
 76
0
 77
1
 78
8
 79
2
170
0
171
1
172
0
173
0
174
0
175
0
176
0
177
0
178
7
270
2
179
2
271
1
272
1
273
2
274
2
275
0
280
0
281
0
282
0
283
1
284
8
285
0
286
0
287
3
288
0
340
11
278
46
341
21C
342
21C
343
21C
344
21C
  0
DIMSTYLE
105
225
100
AcDbSymbolTableRecord
100
AcDbDimStyleTableRecord
  2
DIMSTYLE_2
 70
0
  3

  4

 40
1.0
 41
3.5
 42
1.0
 43
0.38
 44
1.5
 45
0.0
 46
0.0
 47
0.2
 48
0.2
140
3.5
141
0.09
142
0.0
143
25.4
144
1.0
145
0.0
146
1.0
147
0.875
 71
0
 72
0
 73
0
 74
0
 75
0
 76
0
 77
1
 78
8
 79
2
170
0
171
1
172
0
173
0
174
0
175
0
176
0
177
0
178
7
270
2
179
2
271
2
272
2
273
2
274
2
275
0
280
0
281
0
282
0
283
1
284
8
285
0
286
0
287
3
288
0
340
11
278
46
341
21C
342
21C
343
21C
344
21C
  0
DIMSTYLE
105
226
100
AcDbSymbolTableRecord
100
AcDbDimStyleTableRecord
  2
DIMSTYLE_3
 70
0
  3
<>
  4

 40
1.0
 41
3.5
 42
1.0
 43
0.38
 44
1.5
 45
0.0
 46
0.0
 47
0.1
 48
0.1
140
3.5
141
0.09
142
0.0
143
25.4
144
1.0
145
0.0
146
1.0
147
0.625
 71
0
 72
0
 73
0
 74
0
 75
0
 76
0
 77
1
 78
8
 79
2
170
0
171
1
172
0
173
0
174
0
175
0
176
0
177
0
178
7
270
2
179
2
271
0
272
0
273
2
274
2
275
0
280
0
281
0
282
0
283
1
284
8
285
0
286
0
287
3
288
1
340
11
278
46
289
1
341
21C
342
21C
343
21C
344
21C
  0
ENDTAB
  0
ENDSEC
  0
SECTION
  2
BLOCKS
  0
BLOCK
  5
20
100
AcDbEntity
  8
0
100
AcDbBlockBegin
  2
*Model_Space
 70
0
 10
0.0
 20
0.0
 30
0.0
  3
*Model_Space
  1

  0
ENDBLK
  5
21
100
AcDbEntity
  8
0
100
AcDbBlockEnd
  0
BLOCK
  5
1C
100
AcDbEntity
  8
0
100
AcDbBlockBegin
  2
*Paper_Space
 70
0
 10
0.0
 20
0.0
 30
0.0
  3
*Paper_Space
  1

  0
ENDBLK
  5
1D
100
AcDbEntity
  8
0
100
AcDbBlockEnd
  0
BLOCK
  5
227
100
AcDbEntity
  8
0
100
AcDbBlockBegin
 62
7
  6
BYLAYER
  2
PROJEKTION_BL0
 70
64
 10
90.4716081857
 20
43.6502049924
 30
0.0
  3
PROJEKTION_BL0
  1

  0
LINE
  5
228
100
AcDbEntity
  8
DEFAULT_1
100
AcDbLine
 62
7
  6
BYLAYER
 10
93.2850441197
 20
41.4002049924
 30
0.0
 11
93.2850441197
 21
45.9002049924
 31
0.0
  0
LINE
  5
229
100
AcDbEntity
  8
DEFAULT_1
100
AcDbLine
 62
7
  6
BYLAYER
 10
91.0350441197
 20
43.6502049924
 30
0.0
 11
95.5350441197
 21
43.6502049924
 31
0.0
  0
LINE
  5
22A
100
AcDbEntity
  8
DEFAULT_1
100
AcDbLine
 62
7
  6
BYLAYER
 10
85.4081722517
 20
43.6713569706
 30
0.0
 11
90.410698356
 21
43.6713569706
 31
0.0
  0
LINE
  5
22B
100
AcDbEntity
  8
0
100
AcDbLine
 62
7
  6
BYLAYER
 10
93.2850441197
 20
43.6502049924
 30
0.0
 11
93.2850441197
 21
43.673308923
 31
0.0
  0
LINE
  5
22C
100
AcDbEntity
  8
0
100
AcDbLine
 62
7
  6
BYLAYER
 10
90.1206661469
 20
41.6814549924
 30
0.0
 11
90.1206661469
 21
45.6189549924
 31
0.0
  0
CIRCLE
  5
22D
100
AcDbEntity
  8
0
100
AcDbCircle
 62
7
  6
BYLAYER
 10
93.2850441197
 20
43.6502049924
 30
0.0
 40
1.125
  0
LINE
  5
22E
100
AcDbEntity
  8
0
100
AcDbLine
 62
7
  6
BYLAYER
 10
85.8312881741
 20
42.5252049924
 30
0.0
 11
85.8312881741
 21
44.7752049924
 31
0.0
  0
CIRCLE
  5
22F
100
AcDbEntity
  8
0
100
AcDbCircle
 62
7
  6
BYLAYER
 10
93.2850441197
 20
43.6502049924
 30
0.0
 40
1.96875
  0
LINE
  5
230
100
AcDbEntity
  8
0
100
AcDbLine
 62
7
  6
BYLAYER
 10
85.8312881741
 20
44.7752049924
 30
0.0
 11
90.1206661469
 21
45.6189549924
 31
0.0
  0
LINE
  5
231
100
AcDbEntity
  8
0
100
AcDbLine
 62
7
  6
BYLAYER
 10
85.8312881741
 20
42.5252049924
 30
0.0
 11
90.1206661469
 21
41.6814549924
 31
0.0
  0
ENDBLK
  5
232
100
AcDbEntity
  8
0
  6
BYBLOCK
 62
0
100
AcDbBlockEnd
  0
BLOCK
  5
233
100
AcDbEntity
  8
0
100
AcDbBlockBegin
  2
_FILLED
 70
64
 10
0.0
 20
0.0
 30
0.0
  3
_FILLED
  1

  0
SOLID
  5
234
100
AcDbEntity
  8
0
  6
BYBLOCK
 62
0
100
AcDbTrace
 10
0.0
 20
0.0
 30
0.0
 11
-1.0
 21
0.125
 31
0.0
 12
-1.0
 22
-0.125
 32
0.0
 13
-1.0
 23
-0.125
 33
0.0
  0
ENDBLK
  5
235
100
AcDbEntity
  8
0
  6
BYBLOCK
 62
0
100
AcDbBlockEnd
  0
BLOCK
  5
236
100
AcDbEntity
  8
_03_2D_DRAWING_DIMENSION
100
AcDbBlockBegin
 62
7
  6
BYLAYER
  2
*D0
 70
65
 10
0.0
 20
0.0
 30
0.0
  3
*D0
  1

  0
MTEXT
  5
237
100
AcDbEntity
  8
_03_2D_DRAWING_DIMENSION
100
AcDbMText
 62
7
  6
BYLAYER
  7
STANDARD
 71
2
 72
1
 10
103.6709069203
 20
268.7730691469
 30
0.0
 11
1.0
 21
0.0
 31
0.0
 73
2
 44
0.9
  1
69
 40
3.5
 41
4.704
  0
LINE
  5
238
100
AcDbEntity
  8
_03_2D_DRAWING_DIMENSION
100
AcDbLine
 62
7
  6
BYLAYER
 10
69.1773975048
 20
242.485023815
 30
0.0
 11
69.1773975048
 21
265.8980691469
 31
0.0
  0
LINE
  5
239
100
AcDbEntity
  8
_03_2D_DRAWING_DIMENSION
100
AcDbLine
 62
7
  6
BYLAYER
 10
138.1644163357
 20
242.485023815
 30
0.0
 11
138.1644163357
 21
265.8980691469
 31
0.0
  0
LINE
  5
23A
100
AcDbEntity
  8
_03_2D_DRAWING_DIMENSION
100
AcDbLine
 62
7
  6
BYLAYER
 10
69.1773975048
 20
264.3980691469
 30
0.0
 11
103.6709069203
 21
264.3980691469
 31
0.0
  0
LINE
  5
23B
100
AcDbEntity
  8
_03_2D_DRAWING_DIMENSION
100
AcDbLine
 62
7
  6
BYLAYER
 10
138.1644163357
 20
264.3980691469
 30
0.0
 11
103.6709069203
 21
264.3980691469
 31
0.0
  0
INSERT
  5
23C
100
AcDbEntity
  8
_03_2D_DRAWING_DIMENSION
100
AcDbBlockReference
 62
7
  6
BYLAYER
  2
_FILLED
 10
69.1773975048
 20
264.3980691469
 30
0.0
 41
3.5
 42
3.5
 43
3.5
 50
180.0
  0
INSERT
  5
23D
100
AcDbEntity
  8
_03_2D_DRAWING_DIMENSION
100
AcDbBlockReference
 62
7
  6
BYLAYER
  2
_FILLED
 10
138.1644163357
 20
264.3980691469
 30
0.0
 41
3.5
 42
3.5
 43
3.5
  0
ENDBLK
  5
23E
100
AcDbEntity
  8
0
  6
BYBLOCK
 62
0
100
AcDbBlockEnd
  0
BLOCK
  5
23F
100
AcDbEntity
  8
_03_2D_DRAWING_DIMENSION
100
AcDbBlockBegin
 62
7
  6
BYLAYER
  2
*D1
 70
65
 10
0.0
 20
0.0
 30
0.0
  3
*D1
  1

  0
MTEXT
  5
240
100
AcDbEntity
  8
_03_2D_DRAWING_DIMENSION
100
AcDbMText
 62
7
  6
BYLAYER
  7
STANDARD
 71
2
 72
1
 10
144.0995993759
 20
224.5795744231
 30
0.0
 11
0.0
 21
1.0
 31
0.0
 73
2
 44
0.9
  1
62.2
 40
3.5
 41
8.008
  0
LINE
  5
241
100
AcDbEntity
  8
_03_2D_DRAWING_DIMENSION
100
AcDbLine
 62
7
  6
BYLAYER
 10
134.8711536553
 20
255.6701053839
 30
0.0
 11
149.9745993759
 21
255.6701053839
 31
0.0
  0
LINE
  5
242
100
AcDbEntity
  8
_03_2D_DRAWING_DIMENSION
100
AcDbLine
 62
7
  6
BYLAYER
 10
124.3447215859
 20
193.4890434622
 30
0.0
 11
149.9745993759
 21
193.4890434622
 31
0.0
  0
LINE
  5
243
100
AcDbEntity
  8
_03_2D_DRAWING_DIMENSION
100
AcDbLine
 62
7
  6
BYLAYER
 10
148.4745993759
 20
255.6701053839
 30
0.0
 11
148.4745993759
 21
224.5795744231
 31
0.0
  0
LINE
  5
244
100
AcDbEntity
  8
_03_2D_DRAWING_DIMENSION
100
AcDbLine
 62
7
  6
BYLAYER
 10
148.4745993759
 20
193.4890434622
 30
0.0
 11
148.4745993759
 21
224.5795744231
 31
0.0
  0
INSERT
  5
245
100
AcDbEntity
  8
_03_2D_DRAWING_DIMENSION
100
AcDbBlockReference
 62
7
  6
BYLAYER
  2
_FILLED
 10
148.4745993759
 20
255.6701053839
 30
0.0
 41
3.5
 42
3.5
 43
3.5
 50
90.0
  0
INSERT
  5
246
100
AcDbEntity
  8
_03_2D_DRAWING_DIMENSION
100
AcDbBlockReference
 62
7
  6
BYLAYER
  2
_FILLED
 10
148.4745993759
 20
193.4890434622
 30
0.0
 41
3.5
 42
3.5
 43
3.5
 50
270.0
  0
ENDBLK
  5
247
100
AcDbEntity
  8
0
  6
BYBLOCK
 62
0
100
AcDbBlockEnd
  0
BLOCK
  5
248
100
AcDbEntity
  8
_03_2D_DRAWING_DIMENSION
100
AcDbBlockBegin
 62
7
  6
BYLAYER
  2
*D2
 70
65
 10
0.0
 20
0.0
 30
0.0
  3
*D2
  1

  0
MTEXT
  5
249
100
AcDbEntity
  8
_03_2D_DRAWING_DIMENSION
100
AcDbMText
 62
7
  6
BYLAYER
  7
STANDARD
 71
2
 72
1
 10
140.9837090156
 20
153.3693327935
 30
0.0
 11
0.0
 21
1.0
 31
0.0
 73
2
 44
0.9
  1
15
 40
3.5
 41
4.704
  0
LINE
  5
24A
100
AcDbEntity
  8
_03_2D_DRAWING_DIMENSION
100
AcDbLine
 62
7
  6
BYLAYER
 10
136.2451151545
 20
160.8693327935
 30
0.0
 11
146.8587090156
 21
160.8693327935
 31
0.0
  0
LINE
  5
24B
100
AcDbEntity
  8
_03_2D_DRAWING_DIMENSION
100
AcDbLine
 62
7
  6
BYLAYER
 10
136.2451711863
 20
145.8693327935
 30
0.0
 11
146.8587090156
 21
145.8693327935
 31
0.0
  0
LINE
  5
24C
100
AcDbEntity
  8
_03_2D_DRAWING_DIMENSION
100
AcDbLine
 62
7
  6
BYLAYER
 10
145.3587090156
 20
160.8693327935
 30
0.0
 11
145.3587090156
 21
153.3693327935
 31
0.0
  0
LINE
  5
24D
100
AcDbEntity
  8
_03_2D_DRAWING_DIMENSION
100
AcDbLine
 62
7
  6
BYLAYER
 10
145.3587090156
 20
145.8693327935
 30
0.0
 11
145.3587090156
 21
153.3693327935
 31
0.0
  0
INSERT
  5
24E
100
AcDbEntity
  8
_03_2D_DRAWING_DIMENSION
100
AcDbBlockReference
 62
7
  6
BYLAYER
  2
_FILLED
 10
145.3587090156
 20
160.8693327935
 30
0.0
 41
3.5
 42
3.5
 43
3.5
 50
90.0
  0
INSERT
  5
24F
100
AcDbEntity
  8
_03_2D_DRAWING_DIMENSION
100
AcDbBlockReference
 62
7
  6
BYLAYER
  2
_FILLED
 10
145.3587090156
 20
145.8693327935
 30
0.0
 41
3.5
 42
3.5
 43
3.5
 50
270.0
  0
ENDBLK
  5
250
100
AcDbEntity
  8
0
  6
BYBLOCK
 62
0
100
AcDbBlockEnd
  0
BLOCK
  5
251
100
AcDbEntity
  8
_03_2D_DRAWING_DIMENSION
100
AcDbBlockBegin
 62
7
  6
BYLAYER
  2
*D3
 70
65
 10
0.0
 20
0.0
 30
0.0
  3
*D3
  1

  0
MTEXT
  5
252
100
AcDbEntity
  8
_03_2D_DRAWING_DIMENSION
100
AcDbMText
 62
7
  6
BYLAYER
  7
TEXTSTYLE_2
 71
1
 72
1
 10
88.4000689524
 20
230.1228645738
 30
0.0
 11
0.7875248794
 21
-0.6162828607
 31
0.0
 73
2
 44
0.9
  1
{\ftxt;\W0.0001;\H0.0001;\~}{\ftxt;\W0.8995983936;\H3.5; }{\ftxt;\W0.0001;\H0.0001;\~}\fArial Narrow;{\W0.7;3}
 40
3.5
 41
8.2508915663
  0
LINE
  5
253
100
AcDbEntity
  8
_03_2D_DRAWING_DIMENSION
100
AcDbLine
 62
7
  6
BYLAYER
 10
81.571978874
 20
229.9108520802
 30
0.0
 11
90.0356863605
 21
223.2875211881
 31
0.0
  0
INSERT
  5
254
100
AcDbEntity
  8
_03_2D_DRAWING_DIMENSION
100
AcDbBlockReference
 62
7
  6
BYLAYER
  2
_FILLED
 10
81.571978874
 20
229.9108520802
 30
0.0
 41
3.5
 42
3.5
 43
3.5
 50
141.9548055197
  0
ENDBLK
  5
255
100
AcDbEntity
  8
0
  6
BYBLOCK
 62
0
100
AcDbBlockEnd
  0
BLOCK
  5
256
100
AcDbEntity
  8
0
100
AcDbBlockBegin
  2
*T1
 70
1
 10
0.0
 20
0.0
 30
0.0
  3
*T1
  1

  0
LINE
  5
257
100
AcDbEntity
  8
0
100
AcDbLine
 62
7
  6
BYLAYER
 10
0.0
 20
0.0
 30
0.0
 11
138.6
 21
0.0
 31
0.0
  0
LINE
  5
258
100
AcDbEntity
  8
0
100
AcDbLine
 62
7
  6
BYLAYER
 10
0.0
 20
0.0
 30
0.0
 11
0.0
 21
-38.85
 31
0.0
  0
LINE
  5
259
100
AcDbEntity
  8
0
100
AcDbLine
 62
7
  6
BYLAYER
 10
0.0
 20
-8.0
 30
0.0
 11
138.6
 21
-8.0
 31
0.0
  0
LINE
  5
25A
100
AcDbEntity
  8
0
100
AcDbLine
 62
7
  6
BYLAYER
 10
0.0
 20
-14.0
 30
0.0
 11
138.6
 21
-14.0
 31
0.0
  0
LINE
  5
25B
100
AcDbEntity
  8
0
100
AcDbLine
 62
7
  6
BYLAYER
 10
69.3
 20
-20.0
 30
0.0
 11
138.6
 21
-20.0
 31
0.0
  0
LINE
  5
25C
100
AcDbEntity
  8
0
100
AcDbLine
 62
7
  6
BYLAYER
 10
69.3
 20
-23.0
 30
0.0
 11
138.6
 21
-23.0
 31
0.0
  0
LINE
  5
25D
100
AcDbEntity
  8
0
100
AcDbLine
 62
7
  6
BYLAYER
 10
0.0
 20
-29.0
 30
0.0
 11
138.6
 21
-29.0
 31
0.0
  0
LINE
  5
25E
100
AcDbEntity
  8
0
100
AcDbLine
 62
7
  6
BYLAYER
 10
0.0
 20
-32.0
 30
0.0
 11
115.5
 21
-32.0
 31
0.0
  0
LINE
  5
25F
100
AcDbEntity
  8
0
100
AcDbLine
 62
7
  6
BYLAYER
 10
0.0
 20
-38.85
 30
0.0
 11
138.6
 21
-38.85
 31
0.0
  0
LINE
  5
260
100
AcDbEntity
  8
0
100
AcDbLine
 62
7
  6
BYLAYER
 10
23.1
 20
0.0
 30
0.0
 11
23.1
 21
-8.0
 31
0.0
  0
LINE
  5
261
100
AcDbEntity
  8
0
100
AcDbLine
 62
7
  6
BYLAYER
 10
46.2
 20
0.0
 30
0.0
 11
46.2
 21
-8.0
 31
0.0
  0
LINE
  5
262
100
AcDbEntity
  8
0
100
AcDbLine
 62
7
  6
BYLAYER
 10
69.3
 20
0.0
 30
0.0
 11
69.3
 21
-38.85
 31
0.0
  0
LINE
  5
263
100
AcDbEntity
  8
0
100
AcDbLine
 62
7
  6
BYLAYER
 10
92.4
 20
0.0
 30
0.0
 11
92.4
 21
-38.85
 31
0.0
  0
LINE
  5
264
100
AcDbEntity
  8
0
100
AcDbLine
 62
7
  6
BYLAYER
 10
115.5
 20
-8.0
 30
0.0
 11
115.5
 21
-38.85
 31
0.0
  0
LINE
  5
265
100
AcDbEntity
  8
0
100
AcDbLine
 62
7
  6
BYLAYER
 10
138.6
 20
0.0
 30
0.0
 11
138.6
 21
-38.85
 31
0.0
  0
MTEXT
  5
266
100
AcDbEntity
  8
_04_NOTES
100
AcDbMText
 62
7
  6
BYLAYER
  7
STANDARD
 71
1
 72
1
 10
1.05
 20
-0.6
 30
0.0
 11
1.0
 21
0.0
 31
0.0
 73
2
 44
0.9
  1
Sheet Number
 40
1.8
 41
28.08
  0
MTEXT
  5
267
100
AcDbEntity
  8
_04_NOTES
100
AcDbMText
 62
7
  6
BYLAYER
  7
STANDARD
 71
1
 72
1
 10
24.15
 20
-0.6
 30
0.0
 11
1.0
 21
0.0
 31
0.0
 73
2
 44
0.9
  1
Projection
 40
1.8
 41
20.2608
  0
MTEXT
  5
268
100
AcDbEntity
  8
_04_NOTES
100
AcDbMText
 62
7
  6
BYLAYER
  7
STANDARD
 71
1
 72
1
 10
47.25
 20
-0.6
 30
0.0
 11
1.0
 21
0.0
 31
0.0
 73
2
 44
0.9
  1
Scale
 40
1.8
 41
10.296
  0
MTEXT
  5
269
100
AcDbEntity
  8
_04_NOTES
100
AcDbMText
 62
7
  6
BYLAYER
  7
STANDARD
 71
1
 72
1
 10
70.35
 20
-0.6
 30
0.0
 11
1.0
 21
0.0
 31
0.0
 73
2
 44
0.9
  1
Format
 40
1.8
 41
13.9248
  0
MTEXT
  5
26A
100
AcDbEntity
  8
_04_NOTES
100
AcDbMText
 62
7
  6
BYLAYER
  7
STANDARD
 71
1
 72
1
 10
93.45
 20
-0.6
 30
0.0
 11
1.0
 21
0.0
 31
0.0
 73
2
 44
0.9
  1
General Tolerancing
 40
1.8
 41
39.8016
  0
MTEXT
  5
26B
100
AcDbEntity
  8
_04_NOTES
100
AcDbMText
 62
7
  6
BYLAYER
  7
STANDARD
 71
1
 72
1
 10
1.05
 20
-4.5
 30
0.0
 11
1.0
 21
0.0
 31
0.0
 73
2
 44
0.9
  1
1/1
 40
2.0
 41
8.192
  0
MTEXT
  5
26C
100
AcDbEntity
  8
_04_NOTES
100
AcDbMText
 62
7
  6
BYLAYER
  7
STANDARD
 71
1
 72
1
 10
47.25
 20
-4.5
 30
0.0
 11
1.0
 21
0.0
 31
0.0
 73
2
 44
0.9
  1
1:1
 40
2.0
 41
6.464
  0
MTEXT
  5
26D
100
AcDbEntity
  8
_04_NOTES
100
AcDbMText
 62
7
  6
BYLAYER
  7
STANDARD
 71
1
 72
1
 10
70.35
 20
-4.5
 30
0.0
 11
1.0
 21
0.0
 31
0.0
 73
2
 44
0.9
  1
A4
 40
2.0
 41
5.744
  0
MTEXT
  5
26E
100
AcDbEntity
  8
_04_NOTES
100
AcDbMText
 62
7
  6
BYLAYER
  7
STANDARD
 71
1
 72
1
 10
93.45
 20
-4.5
 30
0.0
 11
1.0
 21
0.0
 31
0.0
 73
2
 44
0.9
  1
ISO 2768 mK 
 40
2.0
 41
28.384
  0
MTEXT
  5
26F
100
AcDbEntity
  8
_04_NOTES
100
AcDbMText
 62
7
  6
BYLAYER
  7
STANDARD
 71
1
 72
1
 10
1.05
 20
-10.0
 30
0.0
 11
1.0
 21
0.0
 31
0.0
 73
2
 44
0.9
  1
Description
 40
2.0
 41
25.232
  0
MTEXT
  5
270
100
AcDbEntity
  8
_04_NOTES
100
AcDbMText
 62
7
  6
BYLAYER
  7
STANDARD
 71
1
 72
1
 10
70.35
 20
-10.1
 30
0.0
 11
1.0
 21
0.0
 31
0.0
 73
2
 44
0.9
  1
Created on/by
 40
1.8
 41
28.368
  0
MTEXT
  5
271
100
AcDbEntity
  8
_04_NOTES
100
AcDbMText
 62
7
  6
BYLAYER
  7
STANDARD
 71
1
 72
1
 10
93.45
 20
-10.0
 30
0.0
 11
1.0
 21
0.0
 31
0.0
 73
2
 44
0.9
  1
10.03.2025
 40
2.0
 41
23.68
  0
MTEXT
  5
272
100
AcDbEntity
  8
_04_NOTES
100
AcDbMText
 62
7
  6
BYLAYER
  7
STANDARD
 71
1
 72
1
 10
116.55
 20
-10.0
 30
0.0
 11
1.0
 21
0.0
 31
0.0
 73
2
 44
0.9
  1
Schmiedl T.
 40
2.0
 41
24.224
  0
MTEXT
  5
273
100
AcDbEntity
  8
_04_NOTES
100
AcDbMText
 62
7
  6
BYLAYER
  7
STANDARD
 71
1
 72
1
 10
1.05
 20
-20.5
 30
0.0
 11
1.0
 21
0.0
 31
0.0
 73
2
 44
0.9
  1
TRUSSCLIP CPB*
 40
2.0
 41
36.896
  0
MTEXT
  5
274
100
AcDbEntity
  8
_04_NOTES
100
AcDbMText
 62
7
  6
BYLAYER
  7
STANDARD
 71
1
 72
1
 10
70.35
 20
-16.1
 30
0.0
 11
1.0
 21
0.0
 31
0.0
 73
2
 44
0.9
  1
Approved on/by
 40
1.8
 41
32.0544
  0
MTEXT
  5
275
100
AcDbEntity
  8
_04_NOTES
100
AcDbMText
 62
7
  6
BYLAYER
  7
STANDARD
 71
1
 72
1
 10
93.45
 20
-16.0
 30
0.0
 11
1.0
 21
0.0
 31
0.0
 73
2
 44
0.9
  1
13.08.2025
 40
2.0
 41
23.68
  0
MTEXT
  5
276
100
AcDbEntity
  8
_04_NOTES
100
AcDbMText
 62
7
  6
BYLAYER
  7
STANDARD
 71
1
 72
1
 10
116.55
 20
-16.0
 30
0.0
 11
1.0
 21
0.0
 31
0.0
 73
2
 44
0.9
  1
Schuster R.
 40
2.0
 41
24.96
  0
MTEXT
  5
277
100
AcDbEntity
  8
_04_NOTES
100
AcDbMText
 62
7
  6
BYLAYER
  7
STANDARD
 71
1
 72
1
 10
70.35
 20
-20.6
 30
0.0
 11
1.0
 21
0.0
 31
0.0
 73
2
 44
0.9
  1
Article ID
 40
1.8
 41
18.2304
  0
MTEXT
  5
278
100
AcDbEntity
  8
_04_NOTES
100
AcDbMText
 62
7
  6
BYLAYER
  7
STANDARD
 71
1
 72
1
 10
93.45
 20
-20.6
 30
0.0
 11
1.0
 21
0.0
 31
0.0
 73
2
 44
0.9
  1
Model ID
 40
1.8
 41
17.424
  0
MTEXT
  5
279
100
AcDbEntity
  8
_04_NOTES
100
AcDbMText
 62
7
  6
BYLAYER
  7
STANDARD
 71
1
 72
1
 10
116.55
 20
-20.6
 30
0.0
 11
1.0
 21
0.0
 31
0.0
 73
2
 44
0.9
  1
Drawing ID
 40
1.8
 41
21.8304
  0
MTEXT
  5
27A
100
AcDbEntity
  8
_04_NOTES
100
AcDbMText
 62
7
  6
BYLAYER
  7
STANDARD
 71
1
 72
1
 10
93.45
 20
-25.0
 30
0.0
 11
1.0
 21
0.0
 31
0.0
 73
2
 44
0.9
  1
30012346
 40
2.0
 41
21.504
  0
MTEXT
  5
27B
100
AcDbEntity
  8
_04_NOTES
100
AcDbMText
 62
7
  6
BYLAYER
  7
STANDARD
 71
1
 72
1
 10
116.55
 20
-25.0
 30
0.0
 11
1.0
 21
0.0
 31
0.0
 73
2
 44
0.9
  1
20006692
 40
2.0
 41
21.504
  0
MTEXT
  5
27C
100
AcDbEntity
  8
_04_NOTES
100
AcDbMText
 62
7
  6
BYLAYER
  7
STANDARD
 71
1
 72
1
 10
1.05
 20
-29.6
 30
0.0
 11
1.0
 21
0.0
 31
0.0
 73
2
 44
0.9
  1
Status
 40
1.8
 41
12.8736
  0
MTEXT
  5
27D
100
AcDbEntity
  8
_04_NOTES
100
AcDbMText
 62
7
  6
BYLAYER
  7
STANDARD
 71
1
 72
1
 10
70.35
 20
-29.6
 30
0.0
 11
1.0
 21
0.0
 31
0.0
 73
2
 44
0.9
  1
Revision
 40
1.8
 41
16.7616
  0
MTEXT
  5
27E
100
AcDbEntity
  8
_04_NOTES
100
AcDbMText
 62
7
  6
BYLAYER
  7
STANDARD
 71
1
 72
1
 10
93.45
 20
-29.6
 30
0.0
 11
1.0
 21
0.0
 31
0.0
 73
2
 44
0.9
  1
ECN Number
 40
1.8
 41
24.624
  0
MTEXT
  5
27F
100
AcDbEntity
  8
_04_NOTES
100
AcDbMText
 62
7
  6
BYLAYER
  7
STANDARD
 71
1
 72
1
 10
1.05
 20
-34.425
 30
0.0
 11
1.0
 21
0.0
 31
0.0
 73
2
 44
0.9
  1
Released
 40
2.0
 41
20.128
  0
MTEXT
  5
280
100
AcDbEntity
  8
_04_NOTES
100
AcDbMText
 62
7
  6
BYLAYER
  7
STANDARD
 71
1
 72
1
 10
70.35
 20
-34.425
 30
0.0
 11
1.0
 21
0.0
 31
0.0
 73
2
 44
0.9
  1
-
 40
2.0
 41
1.616
  0
MTEXT
  5
281
100
AcDbEntity
  8
_04_NOTES
100
AcDbMText
 62
7
  6
BYLAYER
  7
STANDARD
 71
1
 72
1
 10
93.45
 20
-34.425
 30
0.0
 11
1.0
 21
0.0
 31
0.0
 73
2
 44
0.9
  1
-
 40
2.0
 41
1.616
  0
ENDBLK
  5
282
100
AcDbEntity
  8
0
  6
BYBLOCK
 62
0
100
AcDbBlockEnd
  0
ENDSEC
  0
SECTION
  2
ENTITIES
  0
MTEXT
  5
283
100
AcDbEntity
  8
0
100
AcDbMText
 62
7
  6
BYLAYER
  7
STANDARD
 71
1
 72
1
 10
202.3
 20
10.65
 30
0.0
 11
0.0
 21
1.0
 31
0.0
 73
2
 44
0.9
  1
Copyright © Neutrik AG / Im alten Riet 143 / 9494 Schaan / Liechtenstein
 40
1.7
 41
68.8296
  0
INSERT
  5
284
100
AcDbEntity
  8
0
100
AcDbBlockReference
 62
7
  6
BYLAYER
  2
PROJEKTION_BL0
 10
90.4716081857
 20
43.6502049924
 30
0.0
  0
IMAGE
  5
285
100
AcDbEntity
  8
0
100
AcDbRasterImage
 62
7
  6
BYLAYER
 10
29.484099992
 20
54.3776874715
 30
0.0
 11
0.1693333333
 21
0.0
 31
0.0
 12
0.0
 22
0.1693333333
 32
0.0
 13
362.0
 23
408.0
340
       71E
 70
11
280
0
281
50
282
50
283
0
360
       718
 71
1
 91
2
 14
-0.5
 24
-0.5
 14
361.5
 24
407.5
  0
DIMENSION
  5
286
100
AcDbEntity
  8
_03_2D_DRAWING_DIMENSION
100
AcDbDimension
 62
7
  6
BYLAYER
  2
*D0
 10
138.1644163357
 20
264.3980691469
 30
0.0
 11
103.6682856445
 21
264.3980691469
 31
0.0
 70
160
 71
2
 72
2
 41
0.9
 42
68.9870188309
  3
DIMSTYLE_1
100
AcDbAlignedDimension
 13
69.1773975048
 23
241.485023815
 33
0.0
 14
138.1644163357
 24
241.485023815
 34
0.0
100
AcDbRotatedDimension
  0
DIMENSION
  5
287
100
AcDbEntity
  8
_03_2D_DRAWING_DIMENSION
100
AcDbDimension
 62
7
  6
BYLAYER
  2
*D1
 10
148.4745993759
 20
193.4890434622
 30
0.0
 11
148.4745993759
 21
224.5944477034
 31
0.0
 70
160
 71
2
 72
2
 41
0.9
 42
62.1810619217
  3
DIMSTYLE_1
100
AcDbAlignedDimension
 13
133.8711536553
 23
255.6701053839
 33
0.0
 14
123.3447215859
 24
193.4890434622
 34
0.0
 50
270.0
100
AcDbRotatedDimension
  0
DIMENSION
  5
288
100
AcDbEntity
  8
_03_2D_DRAWING_DIMENSION
100
AcDbDimension
 62
7
  6
BYLAYER
  2
*D2
 10
145.3587090156
 20
145.8693327935
 30
0.0
 11
145.3587090156
 21
153.4367058092
 31
0.0
 70
160
 71
2
 72
2
 41
0.9
 42
15.0
  3
DIMSTYLE_2
100
AcDbAlignedDimension
 13
135.2451151545
 23
160.8693327935
 33
0.0
 14
135.2451711863
 24
145.8693327935
 34
0.0
 50
270.0
100
AcDbRotatedDimension
  0
SOLID
  5
289
100
AcDbEntity
  8
_03_2D_DRAWING_DIMENSION
100
AcDbTrace
 62
7
  6
BYLAYER
 10
89.9704631891
 20
228.85838763
 30
0.0
 11
90.0318205025
 21
228.8459264864
 31
0.0
 12
90.0586659756
 22
228.7893639496
 32
0.0
 13
90.0586659756
 23
228.7893639496
 33
0.0
  0
SOLID
  5
28A
100
AcDbEntity
  8
_03_2D_DRAWING_DIMENSION
100
AcDbTrace
 62
7
  6
BYLAYER
 10
90.0586659756
 20
228.7893639496
 30
0.0
 11
89.9311565724
 21
228.8535928535
 31
0.0
 12
89.9704631891
 22
228.85838763
 32
0.0
 13
89.9704631891
 23
228.85838763
 33
0.0
  0
SOLID
  5
28B
100
AcDbEntity
  8
_03_2D_DRAWING_DIMENSION
100
AcDbTrace
 62
7
  6
BYLAYER
 10
89.9311565724
 20
228.8535928535
 30
0.0
 11
90.0586659756
 21
228.7893639496
 31
0.0
 12
90.0855114487
 22
228.7328014128
 32
0.0
 13
90.0855114487
 23
228.7328014128
 33
0.0
  0
SOLID
  5
28C
100
AcDbEntity
  8
_03_2D_DRAWING_DIMENSION
100
AcDbTrace
 62
7
  6
BYLAYER
 10
90.0855114487
 20
228.7328014128
 30
0.0
 11
89.869799259
 21
228.866053997
 31
0.0
 12
89.9311565724
 22
228.8535928535
 32
0.0
 13
89.9311565724
 23
228.8535928535
 33
0.0
  0
SOLID
  5
28D
100
AcDbEntity
  8
_03_2D_DRAWING_DIMENSION
100
AcDbTrace
 62
7
  6
BYLAYER
 10
89.869799259
 20
228.866053997
 30
0.0
 11
90.0855114487
 21
228.7328014128
 31
0.0
 12
90.0903062253
 22
228.693494796
 32
0.0
 13
90.0903062253
 23
228.693494796
 33
0.0
  0
SOLID
  5
28E
100
AcDbEntity
  8
_03_2D_DRAWING_DIMENSION
100
AcDbTrace
 62
7
  6
BYLAYER
 10
90.0903062253
 20
228.693494796
 30
0.0
 11
89.8132367222
 21
228.8392085239
 31
0.0
 12
89.869799259
 22
228.866053997
 32
0.0
 13
89.869799259
 23
228.866053997
 33
0.0
  0
SOLID
  5
28F
100
AcDbEntity
  8
_03_2D_DRAWING_DIMENSION
100
AcDbTrace
 62
7
  6
BYLAYER
 10
89.8132367222
 20
228.8392085239
 30
0.0
 11
90.0903062253
 21
228.693494796
 31
0.0
 12
90.0778450817
 22
228.6321374827
 32
0.0
 13
90.0778450817
 23
228.6321374827
 33
0.0
  0
SOLID
  5
290
100
AcDbEntity
  8
_03_2D_DRAWING_DIMENSION
100
AcDbTrace
 62
7
  6
BYLAYER
 10
89.1574853815
 20
228.8190546364
 30
0.0
 11
89.3070454814
 21
228.7375698124
 31
0.0
 12
89.3559416511
 22
228.6637513555
 32
0.0
 13
89.3559416511
 23
228.6637513555
 33
0.0
  0
SOLID
  5
291
100
AcDbEntity
  8
_03_2D_DRAWING_DIMENSION
100
AcDbTrace
 62
7
  6
BYLAYER
 10
90.0653839381
 20
228.5707801694
 30
0.0
 11
90.0088214013
 21
228.5439346962
 31
0.0
 12
89.4441444376
 22
228.5947276751
 32
0.0
 13
89.4441444376
 23
228.5947276751
 33
0.0
  0
SOLID
  5
292
100
AcDbEntity
  8
_03_2D_DRAWING_DIMENSION
100
AcDbTrace
 62
7
  6
BYLAYER
 10
90.0778450817
 20
228.6321374827
 30
0.0
 11
90.0653839381
 21
228.5707801694
 31
0.0
 12
89.4441444376
 22
228.5947276751
 32
0.0
 13
89.4441444376
 23
228.5947276751
 33
0.0
  0
SOLID
  5
293
100
AcDbEntity
  8
_03_2D_DRAWING_DIMENSION
100
AcDbTrace
 62
7
  6
BYLAYER
 10
90.0778450817
 20
228.6321374827
 30
0.0
 11
89.4441444376
 21
228.5947276751
 31
0.0
 12
89.8132367222
 22
228.8392085239
 32
0.0
 13
89.8132367222
 23
228.8392085239
 33
0.0
  0
SOLID
  5
294
100
AcDbEntity
  8
_03_2D_DRAWING_DIMENSION
100
AcDbTrace
 62
7
  6
BYLAYER
 10
89.3559416511
 20
228.6637513555
 30
0.0
 11
89.4441444376
 21
228.5947276751
 31
0.0
 12
89.0079252817
 22
228.9005394603
 32
0.0
 13
89.0079252817
 23
228.9005394603
 33
0.0
  0
SOLID
  5
295
100
AcDbEntity
  8
_03_2D_DRAWING_DIMENSION
100
AcDbTrace
 62
7
  6
BYLAYER
 10
89.3559416511
 20
228.6637513555
 30
0.0
 11
89.0079252817
 21
228.9005394603
 31
0.0
 12
89.1574853815
 22
228.8190546364
 32
0.0
 13
89.1574853815
 23
228.8190546364
 33
0.0
  0
SOLID
  5
296
100
AcDbEntity
  8
_03_2D_DRAWING_DIMENSION
100
AcDbTrace
 62
7
  6
BYLAYER
 10
88.8631599584
 20
228.9427176676
 30
0.0
 11
89.0079252817
 21
228.9005394603
 31
0.0
 12
89.4441444376
 22
228.5947276751
 32
0.0
 13
89.4441444376
 23
228.5947276751
 33
0.0
  0
SOLID
  5
297
100
AcDbEntity
  8
_03_2D_DRAWING_DIMENSION
100
AcDbTrace
 62
7
  6
BYLAYER
 10
89.6397291167
 20
228.2994538474
 30
0.0
 11
88.8631599584
 21
228.9427176676
 31
0.0
 12
89.4441444376
 22
228.5947276751
 32
0.0
 13
89.4441444376
 23
228.5947276751
 33
0.0
  0
SOLID
  5
298
100
AcDbEntity
  8
_03_2D_DRAWING_DIMENSION
100
AcDbTrace
 62
7
  6
BYLAYER
 10
89.4441444376
 20
228.5947276751
 30
0.0
 11
90.0088214013
 21
228.5439346962
 31
0.0
 12
89.6397291167
 22
228.2994538474
 32
0.0
 13
89.6397291167
 23
228.2994538474
 33
0.0
  0
SOLID
  5
299
100
AcDbEntity
  8
_03_2D_DRAWING_DIMENSION
100
AcDbTrace
 62
7
  6
BYLAYER
 10
89.6397291167
 20
228.2994538474
 30
0.0
 11
88.7183946351
 21
228.9848958748
 31
0.0
 12
88.8631599584
 22
228.9427176676
 32
0.0
 13
88.8631599584
 23
228.9427176676
 33
0.0
  0
SOLID
  5
29A
100
AcDbEntity
  8
_03_2D_DRAWING_DIMENSION
100
AcDbTrace
 62
7
  6
BYLAYER
 10
88.7183946351
 20
228.9848958748
 30
0.0
 11
89.6397291167
 21
228.2994538474
 31
0.0
 12
89.7250603126
 22
228.0904596202
 32
0.0
 13
89.7250603126
 23
228.0904596202
 33
0.0
  0
SOLID
  5
29B
100
AcDbEntity
  8
_03_2D_DRAWING_DIMENSION
100
AcDbTrace
 62
7
  6
BYLAYER
 10
89.7250603126
 20
228.0904596202
 30
0.0
 11
88.5391174716
 21
228.9829726888
 31
0.0
 12
88.7183946351
 22
228.9848958748
 32
0.0
 13
88.7183946351
 23
228.9848958748
 33
0.0
  0
SOLID
  5
29C
100
AcDbEntity
  8
_03_2D_DRAWING_DIMENSION
100
AcDbTrace
 62
7
  6
BYLAYER
 10
88.3991469248
 20
228.9858442794
 30
0.0
 11
88.5391174716
 21
228.9829726888
 31
0.0
 12
89.7250603126
 22
228.0904596202
 32
0.0
 13
89.7250603126
 23
228.0904596202
 33
0.0
  0
SOLID
  5
29D
100
AcDbEntity
  8
_03_2D_DRAWING_DIMENSION
100
AcDbTrace
 62
7
  6
BYLAYER
 10
88.9945157336
 20
228.5199344367
 30
0.0
 11
88.3991469248
 21
228.9858442794
 31
0.0
 12
89.7250603126
 22
228.0904596202
 32
0.0
 13
89.7250603126
 23
228.0904596202
 33
0.0
  0
SOLID
  5
29E
100
AcDbEntity
  8
_03_2D_DRAWING_DIMENSION
100
AcDbTrace
 62
7
  6
BYLAYER
 10
89.0827185201
 20
228.4509107563
 30
0.0
 11
88.9945157336
 21
228.5199344367
 31
0.0
 12
89.7250603126
 22
228.0904596202
 32
0.0
 13
89.7250603126
 23
228.0904596202
 33
0.0
  0
SOLID
  5
29F
100
AcDbEntity
  8
_03_2D_DRAWING_DIMENSION
100
AcDbTrace
 62
7
  6
BYLAYER
 10
89.1047692167
 20
228.4336548362
 30
0.0
 11
89.0827185201
 21
228.4509107563
 31
0.0
 12
89.7250603126
 22
228.0904596202
 32
0.0
 13
89.7250603126
 23
228.0904596202
 33
0.0
  0
SOLID
  5
2A0
100
AcDbEntity
  8
_03_2D_DRAWING_DIMENSION
100
AcDbTrace
 62
7
  6
BYLAYER
 10
89.1488706099
 20
228.399142996
 30
0.0
 11
89.1047692167
 21
228.4336548362
 31
0.0
 12
89.7250603126
 22
228.0904596202
 32
0.0
 13
89.7250603126
 23
228.0904596202
 33
0.0
  0
SOLID
  5
2A1
100
AcDbEntity
  8
_03_2D_DRAWING_DIMENSION
100
AcDbTrace
 62
7
  6
BYLAYER
 10
89.1488706099
 20
228.399142996
 30
0.0
 11
89.7250603126
 21
228.0904596202
 31
0.0
 12
89.7538289718
 22
227.8546199199
 32
0.0
 13
89.7538289718
 23
227.8546199199
 33
0.0
  0
SOLID
  5
2A2
100
AcDbEntity
  8
_03_2D_DRAWING_DIMENSION
100
AcDbTrace
 62
7
  6
BYLAYER
 10
88.7835983204
 20
228.6138804042
 30
0.0
 11
88.6608836937
 21
228.6388026914
 31
0.0
 12
88.2246645378
 22
228.9446144767
 32
0.0
 13
88.2246645378
 23
228.9446144767
 33
0.0
  0
SOLID
  5
2A3
100
AcDbEntity
  8
_03_2D_DRAWING_DIMENSION
100
AcDbTrace
 62
7
  6
BYLAYER
 10
88.889057027
 20
228.5669074205
 30
0.0
 11
88.7835983204
 21
228.6138804042
 31
0.0
 12
88.2246645378
 22
228.9446144767
 32
0.0
 13
88.2246645378
 23
228.9446144767
 33
0.0
  0
SOLID
  5
2A4
100
AcDbEntity
  8
_03_2D_DRAWING_DIMENSION
100
AcDbTrace
 62
7
  6
BYLAYER
 10
88.9945157336
 20
228.5199344367
 30
0.0
 11
88.889057027
 21
228.5669074205
 31
0.0
 12
88.2246645378
 22
228.9446144767
 32
0.0
 13
88.2246645378
 23
228.9446144767
 33
0.0
  0
SOLID
  5
2A5
100
AcDbEntity
  8
_03_2D_DRAWING_DIMENSION
100
AcDbTrace
 62
7
  6
BYLAYER
 10
88.9945157336
 20
228.5199344367
 30
0.0
 11
88.2246645378
 21
228.9446144767
 31
0.0
 12
88.3991469248
 22
228.9858442794
 32
0.0
 13
88.3991469248
 23
228.9858442794
 33
0.0
  0
SOLID
  5
2A6
100
AcDbEntity
  8
_03_2D_DRAWING_DIMENSION
100
AcDbTrace
 62
7
  6
BYLAYER
 10
88.2246645378
 20
228.9446144767
 30
0.0
 11
88.6608836937
 21
228.6388026914
 31
0.0
 12
88.5602197637
 22
228.6464690584
 32
0.0
 13
88.5602197637
 23
228.6464690584
 33
0.0
  0
SOLID
  5
2A7
100
AcDbEntity
  8
_03_2D_DRAWING_DIMENSION
100
AcDbTrace
 62
7
  6
BYLAYER
 10
89.3981462353
 20
227.9907440947
 30
0.0
 11
89.344455289
 21
228.1038691683
 31
0.0
 12
89.7538289718
 22
227.8546199199
 32
0.0
 13
89.7538289718
 23
227.8546199199
 33
0.0
  0
SOLID
  5
2A8
100
AcDbEntity
  8
_03_2D_DRAWING_DIMENSION
100
AcDbTrace
 62
7
  6
BYLAYER
 10
89.3981462353
 20
227.9907440947
 30
0.0
 11
89.7538289718
 21
227.8546199199
 31
0.0
 12
89.7605469343
 22
227.6360361396
 32
0.0
 13
89.7605469343
 23
227.6360361396
 33
0.0
  0
SOLID
  5
2A9
100
AcDbEntity
  8
_03_2D_DRAWING_DIMENSION
100
AcDbTrace
 62
7
  6
BYLAYER
 10
88.5602197637
 20
228.6464690584
 30
0.0
 11
88.0894887675
 21
228.9081794505
 31
0.0
 12
88.2246645378
 22
228.9446144767
 32
0.0
 13
88.2246645378
 23
228.9446144767
 33
0.0
  0
SOLID
  5
2AA
100
AcDbEntity
  8
_03_2D_DRAWING_DIMENSION
100
AcDbTrace
 62
7
  6
BYLAYER
 10
88.0894887675
 20
228.9081794505
 30
0.0
 11
88.5602197637
 21
228.6464690584
 31
0.0
 12
88.4422999135
 22
228.6320847289
 32
0.0
 13
88.4422999135
 23
228.6320847289
 33
0.0
  0
SOLID
  5
2AB
100
AcDbEntity
  8
_03_2D_DRAWING_DIMENSION
100
AcDbTrace
 62
7
  6
BYLAYER
 10
89.7605469343
 20
227.6360361396
 30
0.0
 11
89.4125305649
 21
227.8728242445
 31
0.0
 12
89.3981462353
 22
227.9907440947
 32
0.0
 13
89.3981462353
 23
227.9907440947
 33
0.0
  0
SOLID
  5
2AC
100
AcDbEntity
  8
_03_2D_DRAWING_DIMENSION
100
AcDbTrace
 62
7
  6
BYLAYER
 10
88.4422999135
 20
228.6320847289
 30
0.0
 11
88.3243800633
 21
228.6177003993
 31
0.0
 12
87.9370570772
 22
228.8496937277
 32
0.0
 13
87.9370570772
 23
228.8496937277
 33
0.0
  0
SOLID
  5
2AD
100
AcDbEntity
  8
_03_2D_DRAWING_DIMENSION
100
AcDbTrace
 62
7
  6
BYLAYER
 10
88.4422999135
 20
228.6320847289
 30
0.0
 11
87.9370570772
 21
228.8496937277
 31
0.0
 12
88.0894887675
 22
228.9081794505
 32
0.0
 13
88.0894887675
 23
228.9081794505
 33
0.0
  0
SOLID
  5
2AE
100
AcDbEntity
  8
_03_2D_DRAWING_DIMENSION
100
AcDbTrace
 62
7
  6
BYLAYER
 10
87.9370570772
 20
228.8496937277
 30
0.0
 11
88.3243800633
 21
228.6177003993
 31
0.0
 12
88.2285109098
 22
228.5860601496
 32
0.0
 13
88.2285109098
 23
228.5860601496
 33
0.0
  0
SOLID
  5
2AF
100
AcDbEntity
  8
_03_2D_DRAWING_DIMENSION
100
AcDbTrace
 62
7
  6
BYLAYER
 10
89.4048641978
 20
227.7721603144
 30
0.0
 11
89.4125305649
 21
227.8728242445
 31
0.0
 12
89.7605469343
 22
227.6360361396
 32
0.0
 13
89.7605469343
 23
227.6360361396
 33
0.0
  0
SOLID
  5
2B0
100
AcDbEntity
  8
_03_2D_DRAWING_DIMENSION
100
AcDbTrace
 62
7
  6
BYLAYER
 10
89.4192485274
 20
227.6542404643
 30
0.0
 11
89.4048641978
 21
227.7721603144
 31
0.0
 12
89.7605469343
 22
227.6360361396
 32
0.0
 13
89.7605469343
 23
227.6360361396
 33
0.0
  0
SOLID
  5
2B1
100
AcDbEntity
  8
_03_2D_DRAWING_DIMENSION
100
AcDbTrace
 62
7
  6
BYLAYER
 10
89.4192485274
 20
227.6542404643
 30
0.0
 11
89.7605469343
 21
227.6360361396
 31
0.0
 12
89.7059075835
 22
227.429913503
 32
0.0
 13
89.7059075835
 23
227.429913503
 33
0.0
  0
SOLID
  5
2B2
100
AcDbEntity
  8
_03_2D_DRAWING_DIMENSION
100
AcDbTrace
 62
7
  6
BYLAYER
 10
89.7059075835
 20
227.429913503
 30
0.0
 11
89.3943262402
 21
227.5315258376
 31
0.0
 12
89.4192485274
 22
227.6542404643
 32
0.0
 13
89.4192485274
 23
227.6542404643
 33
0.0
  0
SOLID
  5
2B3
100
AcDbEntity
  8
_03_2D_DRAWING_DIMENSION
100
AcDbTrace
 62
7
  6
BYLAYER
 10
88.2285109098
 20
228.5860601496
 30
0.0
 11
88.1153858361
 21
228.5323692033
 31
0.0
 12
87.7894201633
 22
228.7519013881
 32
0.0
 13
87.7894201633
 23
228.7519013881
 33
0.0
  0
SOLID
  5
2B4
100
AcDbEntity
  8
_03_2D_DRAWING_DIMENSION
100
AcDbTrace
 62
7
  6
BYLAYER
 10
88.2285109098
 20
228.5860601496
 30
0.0
 11
87.7894201633
 21
228.7519013881
 31
0.0
 12
87.9370570772
 22
228.8496937277
 32
0.0
 13
87.9370570772
 23
228.8496937277
 33
0.0
  0
SOLID
  5
2B5
100
AcDbEntity
  8
_03_2D_DRAWING_DIMENSION
100
AcDbTrace
 62
7
  6
BYLAYER
 10
87.7894201633
 20
228.7519013881
 30
0.0
 11
88.1153858361
 21
228.5323692033
 31
0.0
 12
88.0243114591
 22
228.461422337
 32
0.0
 13
88.0243114591
 23
228.461422337
 33
0.0
  0
SOLID
  5
2B6
100
AcDbEntity
  8
_03_2D_DRAWING_DIMENSION
100
AcDbTrace
 62
7
  6
BYLAYER
 10
89.3473532565
 20
227.426067131
 30
0.0
 11
89.3943262402
 21
227.5315258376
 31
0.0
 12
89.7059075835
 22
227.429913503
 32
0.0
 13
89.7059075835
 23
227.429913503
 33
0.0
  0
SOLID
  5
2B7
100
AcDbEntity
  8
_03_2D_DRAWING_DIMENSION
100
AcDbTrace
 62
7
  6
BYLAYER
 10
89.3473532565
 20
227.426067131
 30
0.0
 11
89.7059075835
 21
227.429913503
 31
0.0
 12
89.6340123125
 22
227.2017401697
 32
0.0
 13
89.6340123125
 23
227.2017401697
 33
0.0
  0
SOLID
  5
2B8
100
AcDbEntity
  8
_03_2D_DRAWING_DIMENSION
100
AcDbTrace
 62
7
  6
BYLAYER
 10
88.0243114591
 20
228.461422337
 30
0.0
 11
87.6810898662
 21
228.6589038251
 31
0.0
 12
87.7894201633
 22
228.7519013881
 32
0.0
 13
87.7894201633
 23
228.7519013881
 33
0.0
  0
SOLID
  5
2B9
100
AcDbEntity
  8
_03_2D_DRAWING_DIMENSION
100
AcDbTrace
 62
7
  6
BYLAYER
 10
87.6810898662
 20
228.6589038251
 30
0.0
 11
88.0243114591
 21
228.461422337
 31
0.0
 12
87.9332370821
 22
228.3904754706
 32
0.0
 13
87.9332370821
 23
228.3904754706
 33
0.0
  0
SOLID
  5
2BA
100
AcDbEntity
  8
_03_2D_DRAWING_DIMENSION
100
AcDbTrace
 62
7
  6
BYLAYER
 10
89.6340123125
 20
227.2017401697
 30
0.0
 11
89.3003802727
 21
227.3206084244
 31
0.0
 12
89.3473532565
 22
227.426067131
 32
0.0
 13
89.3473532565
 23
227.426067131
 33
0.0
  0
SOLID
  5
2BB
100
AcDbEntity
  8
_03_2D_DRAWING_DIMENSION
100
AcDbTrace
 62
7
  6
BYLAYER
 10
87.9332370821
 20
228.3904754706
 30
0.0
 11
87.5775543456
 21
228.5265996454
 31
0.0
 12
87.6810898662
 22
228.6589038251
 32
0.0
 13
87.6810898662
 23
228.6589038251
 33
0.0
  0
SOLID
  5
2BC
100
AcDbEntity
  8
_03_2D_DRAWING_DIMENSION
100
AcDbTrace
 62
7
  6
BYLAYER
 10
87.5775543456
 20
228.5265996454
 30
0.0
 11
87.9332370821
 21
228.3904754706
 31
0.0
 12
87.8421627051
 22
228.3195286042
 32
0.0
 13
87.8421627051
 23
228.3195286042
 33
0.0
  0
SOLID
  5
2BD
100
AcDbEntity
  8
_03_2D_DRAWING_DIMENSION
100
AcDbTrace
 62
7
  6
BYLAYER
 10
89.2313565923
 20
227.2324056379
 30
0.0
 11
89.3003802727
 21
227.3206084244
 31
0.0
 12
89.6340123125
 22
227.2017401697
 32
0.0
 13
89.6340123125
 23
227.2017401697
 33
0.0
  0
SOLID
  5
2BE
100
AcDbEntity
  8
_03_2D_DRAWING_DIMENSION
100
AcDbTrace
 62
7
  6
BYLAYER
 10
89.2313565923
 20
227.2324056379
 30
0.0
 11
89.6340123125
 21
227.2017401697
 31
0.0
 12
89.4959649517
 22
227.0253345967
 32
0.0
 13
89.4959649517
 23
227.0253345967
 33
0.0
  0
SOLID
  5
2BF
100
AcDbEntity
  8
_03_2D_DRAWING_DIMENSION
100
AcDbTrace
 62
7
  6
BYLAYER
 10
89.4959649517
 20
227.0253345967
 30
0.0
 11
89.1623329119
 21
227.1442028514
 31
0.0
 12
89.2313565923
 22
227.2324056379
 32
0.0
 13
89.2313565923
 23
227.2324056379
 33
0.0
  0
SOLID
  5
2C0
100
AcDbEntity
  8
_03_2D_DRAWING_DIMENSION
100
AcDbTrace
 62
7
  6
BYLAYER
 10
87.8421627051
 20
228.3195286042
 30
0.0
 11
87.7951897213
 21
228.2140698976
 31
0.0
 12
87.474018825
 22
228.3942954656
 32
0.0
 13
87.474018825
 23
228.3942954656
 33
0.0
  0
SOLID
  5
2C1
100
AcDbEntity
  8
_03_2D_DRAWING_DIMENSION
100
AcDbTrace
 62
7
  6
BYLAYER
 10
87.8421627051
 20
228.3195286042
 30
0.0
 11
87.474018825
 21
228.3942954656
 31
0.0
 12
87.5775543456
 22
228.5265996454
 32
0.0
 13
87.5775543456
 23
228.5265996454
 33
0.0
  0
SOLID
  5
2C2
100
AcDbEntity
  8
_03_2D_DRAWING_DIMENSION
100
AcDbTrace
 62
7
  6
BYLAYER
 10
89.1623329119
 20
227.1442028514
 30
0.0
 11
89.4959649517
 21
227.0253345967
 31
0.0
 12
89.3924294312
 22
226.893030417
 32
0.0
 13
89.3924294312
 23
226.893030417
 33
0.0
  0
SOLID
  5
2C3
100
AcDbEntity
  8
_03_2D_DRAWING_DIMENSION
100
AcDbTrace
 62
7
  6
BYLAYER
 10
87.474018825
 20
228.3942954656
 30
0.0
 11
87.7951897213
 21
228.2140698976
 31
0.0
 12
87.7482167375
 22
228.108611191
 32
0.0
 13
87.7482167375
 23
228.108611191
 33
0.0
  0
SOLID
  5
2C4
100
AcDbEntity
  8
_03_2D_DRAWING_DIMENSION
100
AcDbTrace
 62
7
  6
BYLAYER
 10
89.3924294312
 20
226.893030417
 30
0.0
 11
89.0712585349
 21
227.073255985
 31
0.0
 12
89.1623329119
 22
227.1442028514
 32
0.0
 13
89.1623329119
 23
227.1442028514
 33
0.0
  0
SOLID
  5
2C5
100
AcDbEntity
  8
_03_2D_DRAWING_DIMENSION
100
AcDbTrace
 62
7
  6
BYLAYER
 10
89.0712585349
 20
227.073255985
 30
0.0
 11
89.3924294312
 21
226.893030417
 31
0.0
 12
89.284099134
 22
226.800032854
 32
0.0
 13
89.284099134
 23
226.800032854
 33
0.0
  0
SOLID
  5
2C6
100
AcDbEntity
  8
_03_2D_DRAWING_DIMENSION
100
AcDbTrace
 62
7
  6
BYLAYER
 10
87.7482167375
 20
228.108611191
 30
0.0
 11
87.4145846977
 21
228.2274794457
 31
0.0
 12
87.474018825
 22
228.3942954656
 32
0.0
 13
87.474018825
 23
228.3942954656
 33
0.0
  0
SOLID
  5
2C7
100
AcDbEntity
  8
_03_2D_DRAWING_DIMENSION
100
AcDbTrace
 62
7
  6
BYLAYER
 10
87.4145846977
 20
228.2274794457
 30
0.0
 11
87.7482167375
 21
228.108611191
 31
0.0
 12
87.7012437538
 22
228.0031524844
 32
0.0
 13
87.7012437538
 23
228.0031524844
 33
0.0
  0
SOLID
  5
2C8
100
AcDbEntity
  8
_03_2D_DRAWING_DIMENSION
100
AcDbTrace
 62
7
  6
BYLAYER
 10
89.284099134
 20
226.800032854
 30
0.0
 11
88.9801841578
 21
227.0023091187
 31
0.0
 12
89.0712585349
 22
227.073255985
 32
0.0
 13
89.0712585349
 23
227.073255985
 33
0.0
  0
SOLID
  5
2C9
100
AcDbEntity
  8
_03_2D_DRAWING_DIMENSION
100
AcDbTrace
 62
7
  6
BYLAYER
 10
88.8670590842
 20
226.9486181724
 30
0.0
 11
88.9801841578
 21
227.0023091187
 31
0.0
 12
89.284099134
 22
226.800032854
 32
0.0
 13
89.284099134
 23
226.800032854
 33
0.0
  0
SOLID
  5
2CA
100
AcDbEntity
  8
_03_2D_DRAWING_DIMENSION
100
AcDbTrace
 62
7
  6
BYLAYER
 10
88.8670590842
 20
226.9486181724
 30
0.0
 11
89.284099134
 21
226.800032854
 31
0.0
 12
89.1364622202
 22
226.7022405144
 32
0.0
 13
89.1364622202
 23
226.7022405144
 33
0.0
  0
SOLID
  5
2CB
100
AcDbEntity
  8
_03_2D_DRAWING_DIMENSION
100
AcDbTrace
 62
7
  6
BYLAYER
 10
87.7012437538
 20
228.0031524844
 30
0.0
 11
87.6763214666
 21
227.8804378577
 31
0.0
 12
87.3551505703
 22
228.0606634258
 32
0.0
 13
87.3551505703
 23
228.0606634258
 33
0.0
  0
SOLID
  5
2CC
100
AcDbEntity
  8
_03_2D_DRAWING_DIMENSION
100
AcDbTrace
 62
7
  6
BYLAYER
 10
87.7012437538
 20
228.0031524844
 30
0.0
 11
87.3551505703
 21
228.0606634258
 31
0.0
 12
87.4145846977
 22
228.2274794457
 32
0.0
 13
87.4145846977
 23
228.2274794457
 33
0.0
  0
SOLID
  5
2CD
100
AcDbEntity
  8
_03_2D_DRAWING_DIMENSION
100
AcDbTrace
 62
7
  6
BYLAYER
 10
87.3551505703
 20
228.0606634258
 30
0.0
 11
87.6763214666
 21
227.8804378577
 31
0.0
 12
87.6686550996
 22
227.7797739277
 32
0.0
 13
87.6686550996
 23
227.7797739277
 33
0.0
  0
SOLID
  5
2CE
100
AcDbEntity
  8
_03_2D_DRAWING_DIMENSION
100
AcDbTrace
 62
7
  6
BYLAYER
 10
89.1364622202
 20
226.7022405144
 30
0.0
 11
88.749139234
 21
226.9342338428
 31
0.0
 12
88.8670590842
 22
226.9486181724
 32
0.0
 13
88.8670590842
 23
226.9486181724
 33
0.0
  0
SOLID
  5
2CF
100
AcDbEntity
  8
_03_2D_DRAWING_DIMENSION
100
AcDbTrace
 62
7
  6
BYLAYER
 10
88.6532700805
 20
226.9025935931
 30
0.0
 11
88.749139234
 21
226.9342338428
 31
0.0
 12
89.1364622202
 22
226.7022405144
 32
0.0
 13
89.1364622202
 23
226.7022405144
 33
0.0
  0
SOLID
  5
2D0
100
AcDbEntity
  8
_03_2D_DRAWING_DIMENSION
100
AcDbTrace
 62
7
  6
BYLAYER
 10
88.6532700805
 20
226.9025935931
 30
0.0
 11
89.1364622202
 21
226.7022405144
 31
0.0
 12
89.0060812264
 22
226.6264988715
 32
0.0
 13
89.0060812264
 23
226.6264988715
 33
0.0
  0
SOLID
  5
2D1
100
AcDbEntity
  8
_03_2D_DRAWING_DIMENSION
100
AcDbTrace
 62
7
  6
BYLAYER
 10
87.6686550996
 20
227.7797739277
 30
0.0
 11
87.6830394291
 21
227.6618540775
 31
0.0
 12
87.3350230597
 22
227.8986421824
 32
0.0
 13
87.3350230597
 23
227.8986421824
 33
0.0
  0
SOLID
  5
2D2
100
AcDbEntity
  8
_03_2D_DRAWING_DIMENSION
100
AcDbTrace
 62
7
  6
BYLAYER
 10
87.6686550996
 20
227.7797739277
 30
0.0
 11
87.3350230597
 21
227.8986421824
 31
0.0
 12
87.3551505703
 22
228.0606634258
 32
0.0
 13
87.3551505703
 23
228.0606634258
 33
0.0
  0
SOLID
  5
2D3
100
AcDbEntity
  8
_03_2D_DRAWING_DIMENSION
100
AcDbTrace
 62
7
  6
BYLAYER
 10
87.3350230597
 20
227.8986421824
 30
0.0
 11
87.6830394291
 21
227.6618540775
 31
0.0
 12
87.6974237587
 22
227.5439342273
 32
0.0
 13
87.6974237587
 23
227.5439342273
 33
0.0
  0
SOLID
  5
2D4
100
AcDbEntity
  8
_03_2D_DRAWING_DIMENSION
100
AcDbTrace
 62
7
  6
BYLAYER
 10
89.0060812264
 20
226.6264988715
 30
0.0
 11
88.5353502303
 21
226.8882092636
 31
0.0
 12
88.6532700805
 22
226.9025935931
 32
0.0
 13
88.6532700805
 23
226.9025935931
 33
0.0
  0
SOLID
  5
2D5
100
AcDbEntity
  8
_03_2D_DRAWING_DIMENSION
100
AcDbTrace
 62
7
  6
BYLAYER
 10
88.5353502303
 20
226.8882092636
 30
0.0
 11
89.0060812264
 21
226.6264988715
 31
0.0
 12
88.8488547596
 22
226.6073197654
 32
0.0
 13
88.8488547596
 23
226.6073197654
 33
0.0
  0
SOLID
  5
2D6
100
AcDbEntity
  8
_03_2D_DRAWING_DIMENSION
100
AcDbTrace
 62
7
  6
BYLAYER
 10
89.1488706099
 20
228.399142996
 30
0.0
 11
89.7538289718
 21
227.8546199199
 31
0.0
 12
89.344455289
 22
228.1038691683
 32
0.0
 13
89.344455289
 23
228.1038691683
 33
0.0
  0
SOLID
  5
2D7
100
AcDbEntity
  8
_03_2D_DRAWING_DIMENSION
100
AcDbTrace
 62
7
  6
BYLAYER
 10
89.344455289
 20
228.1038691683
 30
0.0
 11
87.7290640084
 21
227.4480650738
 31
0.0
 12
89.1488706099
 22
228.399142996
 32
0.0
 13
89.1488706099
 23
228.399142996
 33
0.0
  0
SOLID
  5
2D8
100
AcDbEntity
  8
_03_2D_DRAWING_DIMENSION
100
AcDbTrace
 62
7
  6
BYLAYER
 10
88.8488547596
 20
226.6073197654
 30
0.0
 11
88.4126356036
 21
226.9131315507
 31
0.0
 12
88.5353502303
 22
226.8882092636
 32
0.0
 13
88.5353502303
 23
226.8882092636
 33
0.0
  0
SOLID
  5
2D9
100
AcDbEntity
  8
_03_2D_DRAWING_DIMENSION
100
AcDbTrace
 62
7
  6
BYLAYER
 10
87.6974237587
 20
227.5439342273
 30
0.0
 11
87.7290640084
 21
227.4480650738
 31
0.0
 12
87.3148955491
 22
227.736620939
 32
0.0
 13
87.3148955491
 23
227.736620939
 33
0.0
  0
SOLID
  5
2DA
100
AcDbEntity
  8
_03_2D_DRAWING_DIMENSION
100
AcDbTrace
 62
7
  6
BYLAYER
 10
87.6974237587
 20
227.5439342273
 30
0.0
 11
87.3148955491
 21
227.736620939
 31
0.0
 12
87.3350230597
 22
227.8986421824
 32
0.0
 13
87.3350230597
 23
227.8986421824
 33
0.0
  0
SOLID
  5
2DB
100
AcDbEntity
  8
_03_2D_DRAWING_DIMENSION
100
AcDbTrace
 62
7
  6
BYLAYER
 10
87.9246486874
 20
227.1527912461
 30
0.0
 11
87.3148955491
 21
227.736620939
 31
0.0
 12
87.7290640084
 22
227.4480650738
 32
0.0
 13
87.7290640084
 23
227.4480650738
 33
0.0
  0
SOLID
  5
2DC
100
AcDbEntity
  8
_03_2D_DRAWING_DIMENSION
100
AcDbTrace
 62
7
  6
BYLAYER
 10
87.7290640084
 20
227.4480650738
 30
0.0
 11
89.344455289
 21
228.1038691683
 31
0.0
 12
87.9246486874
 22
227.1527912461
 32
0.0
 13
87.9246486874
 23
227.1527912461
 33
0.0
  0
SOLID
  5
2DD
100
AcDbEntity
  8
_03_2D_DRAWING_DIMENSION
100
AcDbTrace
 62
7
  6
BYLAYER
 10
88.3119716736
 20
226.9207979178
 30
0.0
 11
88.4126356036
 21
226.9131315507
 31
0.0
 12
88.8488547596
 22
226.6073197654
 32
0.0
 13
88.8488547596
 23
226.6073197654
 33
0.0
  0
SOLID
  5
2DE
100
AcDbEntity
  8
_03_2D_DRAWING_DIMENSION
100
AcDbTrace
 62
7
  6
BYLAYER
 10
88.206512967
 20
226.9677709015
 30
0.0
 11
88.3119716736
 21
226.9207979178
 31
0.0
 12
88.8488547596
 22
226.6073197654
 32
0.0
 13
88.8488547596
 23
226.6073197654
 33
0.0
  0
SOLID
  5
2DF
100
AcDbEntity
  8
_03_2D_DRAWING_DIMENSION
100
AcDbTrace
 62
7
  6
BYLAYER
 10
88.1010542604
 20
227.0147438853
 30
0.0
 11
88.206512967
 21
226.9677709015
 31
0.0
 12
88.8488547596
 22
226.6073197654
 32
0.0
 13
88.8488547596
 23
226.6073197654
 33
0.0
  0
SOLID
  5
2E0
100
AcDbEntity
  8
_03_2D_DRAWING_DIMENSION
100
AcDbTrace
 62
7
  6
BYLAYER
 10
88.1010542604
 20
227.0147438853
 30
0.0
 11
88.8488547596
 21
226.6073197654
 31
0.0
 12
88.6964230692
 22
226.5488340426
 32
0.0
 13
88.6964230692
 23
226.5488340426
 33
0.0
  0
SOLID
  5
2E1
100
AcDbEntity
  8
_03_2D_DRAWING_DIMENSION
100
AcDbTrace
 62
7
  6
BYLAYER
 10
88.1010542604
 20
227.0147438853
 30
0.0
 11
88.6964230692
 21
226.5488340426
 31
0.0
 12
87.3340746551
 22
227.5793944721
 32
0.0
 13
87.3340746551
 23
227.5793944721
 33
0.0
  0
SOLID
  5
2E2
100
AcDbEntity
  8
_03_2D_DRAWING_DIMENSION
100
AcDbTrace
 62
7
  6
BYLAYER
 10
88.0128514739
 20
227.0837675657
 30
0.0
 11
88.1010542604
 21
227.0147438853
 31
0.0
 12
87.3340746551
 22
227.5793944721
 32
0.0
 13
87.3340746551
 23
227.5793944721
 33
0.0
  0
SOLID
  5
2E3
100
AcDbEntity
  8
_03_2D_DRAWING_DIMENSION
100
AcDbTrace
 62
7
  6
BYLAYER
 10
87.9687500807
 20
227.1182794059
 30
0.0
 11
88.0128514739
 21
227.0837675657
 31
0.0
 12
87.3340746551
 22
227.5793944721
 32
0.0
 13
87.3340746551
 23
227.5793944721
 33
0.0
  0
SOLID
  5
2E4
100
AcDbEntity
  8
_03_2D_DRAWING_DIMENSION
100
AcDbTrace
 62
7
  6
BYLAYER
 10
87.9246486874
 20
227.1527912461
 30
0.0
 11
87.9687500807
 21
227.1182794059
 31
0.0
 12
87.3340746551
 22
227.5793944721
 32
0.0
 13
87.3340746551
 23
227.5793944721
 33
0.0
  0
SOLID
  5
2E5
100
AcDbEntity
  8
_03_2D_DRAWING_DIMENSION
100
AcDbTrace
 62
7
  6
BYLAYER
 10
87.9246486874
 20
227.1527912461
 30
0.0
 11
87.3340746551
 21
227.5793944721
 31
0.0
 12
87.3148955491
 22
227.736620939
 32
0.0
 13
87.3148955491
 23
227.736620939
 33
0.0
  0
SOLID
  5
2E6
100
AcDbEntity
  8
_03_2D_DRAWING_DIMENSION
100
AcDbTrace
 62
7
  6
BYLAYER
 10
87.3340746551
 20
227.5793944721
 30
0.0
 11
88.6964230692
 21
226.5488340426
 31
0.0
 12
88.5344018258
 22
226.5689615533
 32
0.0
 13
88.5344018258
 23
226.5689615533
 33
0.0
  0
SOLID
  5
2E7
100
AcDbEntity
  8
_03_2D_DRAWING_DIMENSION
100
AcDbTrace
 62
7
  6
BYLAYER
 10
88.5344018258
 20
226.5689615533
 30
0.0
 11
87.3753044579
 21
227.4049120851
 31
0.0
 12
87.3340746551
 22
227.5793944721
 32
0.0
 13
87.3340746551
 23
227.5793944721
 33
0.0
  0
SOLID
  5
2E8
100
AcDbEntity
  8
_03_2D_DRAWING_DIMENSION
100
AcDbTrace
 62
7
  6
BYLAYER
 10
87.3753044579
 20
227.4049120851
 30
0.0
 11
88.5344018258
 21
226.5689615533
 31
0.0
 12
88.3771753589
 22
226.5497824472
 32
0.0
 13
88.3771753589
 23
226.5497824472
 33
0.0
  0
SOLID
  5
2E9
100
AcDbEntity
  8
_03_2D_DRAWING_DIMENSION
100
AcDbTrace
 62
7
  6
BYLAYER
 10
88.3771753589
 20
226.5497824472
 30
0.0
 11
87.4337901807
 21
227.2524803947
 31
0.0
 12
87.3753044579
 22
227.4049120851
 32
0.0
 13
87.3753044579
 23
227.4049120851
 33
0.0
  0
SOLID
  5
2EA
100
AcDbEntity
  8
_03_2D_DRAWING_DIMENSION
100
AcDbTrace
 62
7
  6
BYLAYER
 10
87.4337901807
 20
227.2524803947
 30
0.0
 11
88.3771753589
 21
226.5497824472
 31
0.0
 12
88.210359339
 22
226.6092165745
 32
0.0
 13
88.210359339
 23
226.6092165745
 33
0.0
  0
SOLID
  5
2EB
100
AcDbEntity
  8
_03_2D_DRAWING_DIMENSION
100
AcDbTrace
 62
7
  6
BYLAYER
 10
87.8057804327
 20
226.8191592062
 30
0.0
 11
87.6293748597
 21
226.957206567
 31
0.0
 12
88.0655940157
 22
226.6513947818
 32
0.0
 13
88.0655940157
 23
226.6513947818
 33
0.0
  0
SOLID
  5
2EC
100
AcDbEntity
  8
_03_2D_DRAWING_DIMENSION
100
AcDbTrace
 62
7
  6
BYLAYER
 10
87.8057804327
 20
226.8191592062
 30
0.0
 11
88.0655940157
 21
226.6513947818
 31
0.0
 12
87.9380846125
 22
226.7156236856
 32
0.0
 13
87.9380846125
 23
226.7156236856
 33
0.0
  0
SOLID
  5
2ED
100
AcDbEntity
  8
_03_2D_DRAWING_DIMENSION
100
AcDbTrace
 62
7
  6
BYLAYER
 10
88.210359339
 20
226.6092165745
 30
0.0
 11
88.0655940157
 21
226.6513947818
 31
0.0
 12
87.6293748597
 22
226.957206567
 32
0.0
 13
87.6293748597
 23
226.957206567
 33
0.0
  0
SOLID
  5
2EE
100
AcDbEntity
  8
_03_2D_DRAWING_DIMENSION
100
AcDbTrace
 62
7
  6
BYLAYER
 10
87.4337901807
 20
227.2524803947
 30
0.0
 11
88.210359339
 21
226.6092165745
 31
0.0
 12
87.6293748597
 22
226.957206567
 32
0.0
 13
87.6293748597
 23
226.957206567
 33
0.0
  0
SOLID
  5
2EF
100
AcDbEntity
  8
_03_2D_DRAWING_DIMENSION
100
AcDbTrace
 62
7
  6
BYLAYER
 10
87.6293748597
 20
226.957206567
 30
0.0
 11
87.0646978961
 21
227.0079995459
 31
0.0
 12
87.4337901807
 22
227.2524803947
 32
0.0
 13
87.4337901807
 23
227.2524803947
 33
0.0
  0
SOLID
  5
2F0
100
AcDbEntity
  8
_03_2D_DRAWING_DIMENSION
100
AcDbTrace
 62
7
  6
BYLAYER
 10
87.0301860559
 20
226.9638981526
 30
0.0
 11
87.0646978961
 21
227.0079995459
 31
0.0
 12
87.6293748597
 22
226.957206567
 32
0.0
 13
87.6293748597
 23
226.957206567
 33
0.0
  0
SOLID
  5
2F1
100
AcDbEntity
  8
_03_2D_DRAWING_DIMENSION
100
AcDbTrace
 62
7
  6
BYLAYER
 10
86.9956742157
 20
226.9197967594
 30
0.0
 11
87.0301860559
 21
226.9638981526
 31
0.0
 12
87.6293748597
 22
226.957206567
 32
0.0
 13
87.6293748597
 23
226.957206567
 33
0.0
  0
SOLID
  5
2F2
100
AcDbEntity
  8
_03_2D_DRAWING_DIMENSION
100
AcDbTrace
 62
7
  6
BYLAYER
 10
86.9956742157
 20
226.9197967594
 30
0.0
 11
87.6293748597
 21
226.957206567
 31
0.0
 12
87.2602825751
 22
226.7127257182
 32
0.0
 13
87.2602825751
 23
226.7127257182
 33
0.0
  0
SOLID
  5
2F3
100
AcDbEntity
  8
_03_2D_DRAWING_DIMENSION
100
AcDbTrace
 62
7
  6
BYLAYER
 10
87.2602825751
 20
226.7127257182
 30
0.0
 11
86.9832130721
 21
226.8584394461
 31
0.0
 12
86.9956742157
 22
226.9197967594
 32
0.0
 13
86.9956742157
 23
226.9197967594
 33
0.0
  0
SOLID
  5
2F4
100
AcDbEntity
  8
_03_2D_DRAWING_DIMENSION
100
AcDbTrace
 62
7
  6
BYLAYER
 10
86.9832130721
 20
226.8584394461
 30
0.0
 11
87.2602825751
 21
226.7127257182
 31
0.0
 12
87.2037200383
 22
226.6858802451
 32
0.0
 13
87.2037200383
 23
226.6858802451
 33
0.0
  0
SOLID
  5
2F5
100
AcDbEntity
  8
_03_2D_DRAWING_DIMENSION
100
AcDbTrace
 62
7
  6
BYLAYER
 10
87.2037200383
 20
226.6858802451
 30
0.0
 11
86.9880078486
 21
226.8191328293
 31
0.0
 12
86.9832130721
 22
226.8584394461
 32
0.0
 13
86.9832130721
 23
226.8584394461
 33
0.0
  0
SOLID
  5
2F6
100
AcDbEntity
  8
_03_2D_DRAWING_DIMENSION
100
AcDbTrace
 62
7
  6
BYLAYER
 10
86.9880078486
 20
226.8191328293
 30
0.0
 11
87.2037200383
 21
226.6858802451
 31
0.0
 12
87.1644134216
 22
226.6810854685
 32
0.0
 13
87.1644134216
 23
226.6810854685
 33
0.0
  0
SOLID
  5
2F7
100
AcDbEntity
  8
_03_2D_DRAWING_DIMENSION
100
AcDbTrace
 62
7
  6
BYLAYER
 10
87.1644134216
 20
226.6810854685
 30
0.0
 11
87.0148533218
 21
226.7625702925
 31
0.0
 12
86.9880078486
 22
226.8191328293
 32
0.0
 13
86.9880078486
 23
226.8191328293
 33
0.0
  0
SOLID
  5
2F8
100
AcDbEntity
  8
_03_2D_DRAWING_DIMENSION
100
AcDbTrace
 62
7
  6
BYLAYER
 10
87.058954715
 20
226.7280584523
 30
0.0
 11
87.0148533218
 21
226.7625702925
 31
0.0
 12
87.1644134216
 22
226.6810854685
 32
0.0
 13
87.1644134216
 23
226.6810854685
 33
0.0
  0
SOLID
  5
2F9
100
AcDbEntity
  8
_03_2D_DRAWING_DIMENSION
100
AcDbTrace
 62
7
  6
BYLAYER
 10
87.058954715
 20
226.7280584523
 30
0.0
 11
87.1644134216
 21
226.6810854685
 31
0.0
 12
87.1030561083
 22
226.6935466121
 32
0.0
 13
87.1030561083
 23
226.6935466121
 33
0.0
  0
DIMENSION
  5
2FA
100
AcDbEntity
  8
_03_2D_DRAWING_DIMENSION
100
AcDbDimension
 62
7
  6
BYLAYER
  2
*D3
 10
81.571978874
 20
229.9108520802
 30
0.0
 11
90.7272996116
 21
226.0795226406
 31
0.0
 70
163
 71
1
 72
2
 41
0.9
 42
3.1130293082
  1
{\fSymbol_ISO;\W1.0;⌀}<>
  3
DIMSTYLE_3
100
AcDbDiametricDimension
 15
79.1203908436
 25
231.8293586877
 35
0.0
  0
ACAD_TABLE
  5
2FB
100
AcDbEntity
  8
0
 62
7
  6
BYLAYER
100
AcDbBlockReference
  2
*T1
 10
61.4
 20
48.85
 30
0.0
100
AcDbTable
342
       71F
343
222
 11
1.0
 21
0.0
 31
0.0
 90
22
 91
10
 92
6
 93
16
 94
0
 95
0
 96
0
 41
0.3
141
3.0
141
5.0
141
6.0
141
6.0
141
3.0
141
3.0
141
3.0
141
3.0
141
2.85
141
4.0
142
23.1
142
23.1
142
23.1
142
23.1
142
23.1
142
23.1
171
1
172
0
173
0
174
0
175
1
176
1
 91
41
178
0
145
0.0
301
CELL_VALUE
 90
4
  1
Sheet Number
304
ACVALUE_END
170
4
140
1.8
 64
7
171
1
172
0
173
0
174
0
175
1
176
1
 91
41
178
0
145
0.0
301
CELL_VALUE
 90
4
  1
Projection
304
ACVALUE_END
170
4
140
1.8
 64
7
171
1
172
0
173
0
174
0
175
1
176
1
 91
41
178
0
145
0.0
301
CELL_VALUE
 90
4
  1
Scale
304
ACVALUE_END
170
4
140
1.8
 64
7
171
1
172
0
173
0
174
0
175
1
176
1
 91
41
178
0
145
0.0
301
CELL_VALUE
 90
4
  1
Format
304
ACVALUE_END
170
4
140
1.8
 64
7
171
1
172
0
173
0
174
0
175
2
176
1
 91
41
178
0
145
0.0
301
CELL_VALUE
 90
4
  1
General Tolerancing
304
ACVALUE_END
170
4
140
1.8
 64
7
171
1
172
0
173
1
174
0
175
1
176
1
 91
1
178
0
145
0.0
170
1
171
1
172
0
173
0
174
0
175
1
176
1
 91
41
178
0
145
0.0
301
CELL_VALUE
 90
4
  1
1/1
304
ACVALUE_END
170
4
140
2.0
 64
7
171
1
172
0
173
0
174
0
175
1
176
1
 91
33
178
0
145
0.0
301
CELL_VALUE
 90
4
  1
 
304
ACVALUE_END
170
1
140
0.001
171
1
172
0
173
0
174
0
175
1
176
1
 91
41
178
0
145
0.0
301
CELL_VALUE
 90
4
  1
1:1
304
ACVALUE_END
170
4
140
2.0
 64
7
171
1
172
0
173
0
174
0
175
1
176
1
 91
41
178
0
145
0.0
301
CELL_VALUE
 90
4
  1
A4
304
ACVALUE_END
170
4
140
2.0
 64
7
171
1
172
0
173
0
174
0
175
2
176
1
 91
41
178
0
145
0.0
301
CELL_VALUE
 90
4
  1
ISO 2768 mK 
304
ACVALUE_END
170
4
140
2.0
 64
7
171
1
172
0
173
1
174
0
175
1
176
1
 91
1
178
0
145
0.0
170
1
171
1
172
0
173
0
174
0
175
3
176
1
 91
41
178
0
145
0.0
301
CELL_VALUE
 90
4
  1
Description
304
ACVALUE_END
170
4
140
2.0
 64
7
171
1
172
0
173
1
174
0
175
1
176
1
 91
1
178
0
145
0.0
170
1
171
1
172
0
173
1
174
0
175
1
176
1
 91
1
178
0
145
0.0
170
1
171
1
172
0
173
0
174
0
175
1
176
1
 91
41
178
0
145
0.0
301
CELL_VALUE
 90
4
  1
Created on/by
304
ACVALUE_END
170
4
140
1.8
 64
7
171
1
172
0
173
0
174
0
175
1
176
1
 91
41
178
0
145
0.0
301
CELL_VALUE
 90
4
  1
10.03.2025
304
ACVALUE_END
170
4
140
2.0
 64
7
171
1
172
0
173
0
174
0
175
1
176
1
 91
41
178
0
145
0.0
301
CELL_VALUE
 90
4
  1
Schmiedl T.
304
ACVALUE_END
170
4
140
2.0
 64
7
171
1
172
0
173
0
174
0
175
3
176
4
 91
41
178
0
145
0.0
301
CELL_VALUE
 90
4
  1
TRUSSCLIP CPB*
304
ACVALUE_END
170
4
140
2.0
 64
7
171
1
172
0
173
1
174
0
175
1
176
1
 91
1
178
0
145
0.0
170
1
171
1
172
0
173
1
174
0
175
1
176
1
 91
1
178
0
145
0.0
170
1
171
1
172
0
173
0
174
0
175
1
176
1
 91
41
178
0
145
0.0
301
CELL_VALUE
 90
4
  1
Approved on/by
304
ACVALUE_END
170
4
140
1.8
 64
7
171
1
172
0
173
0
174
0
175
1
176
1
 91
41
178
0
145
0.0
301
CELL_VALUE
 90
4
  1
13.08.2025
304
ACVALUE_END
170
4
140
2.0
 64
7
171
1
172
0
173
0
174
0
175
1
176
1
 91
41
178
0
145
0.0
301
CELL_VALUE
 90
4
  1
Schuster R.
304
ACVALUE_END
170
4
140
2.0
 64
7
171
1
172
0
173
1
174
0
175
1
176
1
 91
1
178
0
145
0.0
170
1
171
1
172
0
173
1
174
0
175
1
176
1
 91
1
178
0
145
0.0
170
1
171
1
172
0
173
1
174
0
175
1
176
1
 91
1
178
0
145
0.0
170
1
171
1
172
0
173
0
174
0
175
1
176
1
 91
41
178
0
145
0.0
301
CELL_VALUE
 90
4
  1
Article ID
304
ACVALUE_END
170
4
140
1.8
 64
7
171
1
172
0
173
0
174
0
175
1
176
1
 91
41
178
0
145
0.0
301
CELL_VALUE
 90
4
  1
Model ID
304
ACVALUE_END
170
4
140
1.8
 64
7
171
1
172
0
173
0
174
0
175
1
176
1
 91
41
178
0
145
0.0
301
CELL_VALUE
 90
4
  1
Drawing ID
304
ACVALUE_END
170
4
140
1.8
 64
7
171
1
172
0
173
1
174
0
175
1
176
1
 91
1
178
0
145
0.0
170
1
171
1
172
0
173
1
174
0
175
1
176
1
 91
1
178
0
145
0.0
170
1
171
1
172
0
173
1
174
0
175
1
176
1
 91
1
178
0
145
0.0
170
1
171
1
172
0
173
0
174
0
175
1
176
2
 91
41
178
0
145
0.0
301
CELL_VALUE
 90
4
  1
 
304
ACVALUE_END
170
4
140
0.001
 64
7
171
1
172
0
173
0
174
0
175
1
176
2
 91
41
178
0
145
0.0
301
CELL_VALUE
 90
4
  1
30012346
304
ACVALUE_END
170
4
140
2.0
 64
7
171
1
172
0
173
0
174
0
175
1
176
2
 91
41
178
0
145
0.0
301
CELL_VALUE
 90
4
  1
20006692
304
ACVALUE_END
170
4
140
2.0
 64
7
171
1
172
0
173
1
174
0
175
1
176
1
 91
1
178
0
145
0.0
170
1
171
1
172
0
173
1
174
0
175
1
176
1
 91
1
178
0
145
0.0
170
1
171
1
172
0
173
1
174
0
175
1
176
1
 91
1
178
0
145
0.0
170
1
171
1
172
0
173
1
174
0
175
1
176
1
 91
1
178
0
145
0.0
170
1
171
1
172
0
173
1
174
0
175
1
176
1
 91
1
178
0
145
0.0
170
1
171
1
172
0
173
1
174
0
175
1
176
1
 91
1
178
0
145
0.0
170
1
171
1
172
0
173
0
174
0
175
3
176
1
 91
41
178
0
145
0.0
301
CELL_VALUE
 90
4
  1
Status
304
ACVALUE_END
170
4
140
1.8
 64
7
171
1
172
0
173
1
174
0
175
1
176
1
 91
1
178
0
145
0.0
170
1
171
1
172
0
173
1
174
0
175
1
176
1
 91
1
178
0
145
0.0
170
1
171
1
172
0
173
0
174
0
175
1
176
1
 91
41
178
0
145
0.0
301
CELL_VALUE
 90
4
  1
Revision
304
ACVALUE_END
170
4
140
1.8
 64
7
171
1
172
0
173
0
174
0
175
1
176
1
 91
41
178
0
145
0.0
301
CELL_VALUE
 90
4
  1
ECN Number
304
ACVALUE_END
170
4
140
1.8
 64
7
171
1
172
0
173
0
174
0
175
1
176
2
 91
33
178
0
145
0.0
301
CELL_VALUE
 90
4
  1
 
304
ACVALUE_END
170
1
140
0.001
171
1
172
0
173
0
174
0
175
3
176
2
 91
41
178
0
145
0.0
301
CELL_VALUE
 90
4
  1
Released
304
ACVALUE_END
170
4
140
2.0
 64
7
171
1
172
0
173
1
174
0
175
1
176
1
 91
1
178
0
145
0.0
170
1
171
1
172
0
173
1
174
0
175
1
176
1
 91
1
178
0
145
0.0
170
1
171
1
172
0
173
0
174
0
175
1
176
2
 91
41
178
0
145
0.0
301
CELL_VALUE
 90
4
  1
-
304
ACVALUE_END
170
4
140
2.0
 64
7
171
1
172
0
173
0
174
0
175
1
176
2
 91
41
178
0
145
0.0
301
CELL_VALUE
 90
4
  1
-
304
ACVALUE_END
170
4
140
2.0
 64
7
171
1
172
0
173
1
174
0
175
1
176
1
 91
1
178
0
145
0.0
170
1
171
1
172
0
173
1
174
0
175
1
176
1
 91
1
178
0
145
0.0
170
1
171
1
172
0
173
1
174
0
175
1
176
1
 91
1
178
0
145
0.0
170
1
171
1
172
0
173
1
174
0
175
1
176
1
 91
1
178
0
145
0.0
170
1
171
1
172
0
173
1
174
0
175
1
176
1
 91
1
178
0
145
0.0
170
1
171
1
172
0
173
1
174
0
175
1
176
1
 91
1
178
0
145
0.0
170
1
171
1
172
0
173
0
174
0
175
1
176
1
 91
33
178
0
145
0.0
301
CELL_VALUE
 90
4
  1
 
304
ACVALUE_END
170
1
140
0.001
  0
SOLID
  5
2FC
100
AcDbEntity
  8
_04_NOTES
100
AcDbTrace
 62
7
  6
BYLAYER
 10
109.6833642878
 20
184.0476057685
 30
0.0
 11
109.7393642878
 21
184.0756057685
 31
0.0
 12
109.7953642878
 22
184.0476057685
 32
0.0
 13
109.7953642878
 23
184.0476057685
 33
0.0
  0
SOLID
  5
2FD
100
AcDbEntity
  8
_04_NOTES
100
AcDbTrace
 62
7
  6
BYLAYER
 10
109.7953642878
 20
184.0476057685
 30
0.0
 11
109.6553642878
 21
184.0196057685
 31
0.0
 12
109.6833642878
 22
184.0476057685
 32
0.0
 13
109.6833642878
 23
184.0476057685
 33
0.0
  0
SOLID
  5
2FE
100
AcDbEntity
  8
_04_NOTES
100
AcDbTrace
 62
7
  6
BYLAYER
 10
109.6553642878
 20
184.0196057685
 30
0.0
 11
109.7953642878
 21
184.0476057685
 31
0.0
 12
109.8513642878
 22
184.0196057685
 32
0.0
 13
109.8513642878
 23
184.0196057685
 33
0.0
  0
SOLID
  5
2FF
100
AcDbEntity
  8
_04_NOTES
100
AcDbTrace
 62
7
  6
BYLAYER
 10
109.8513642878
 20
184.0196057685
 30
0.0
 11
109.5993642878
 21
183.9916057685
 31
0.0
 12
109.6553642878
 22
184.0196057685
 32
0.0
 13
109.6553642878
 23
184.0196057685
 33
0.0
  0
SOLID
  5
300
100
AcDbEntity
  8
_04_NOTES
100
AcDbTrace
 62
7
  6
BYLAYER
 10
109.5993642878
 20
183.9916057685
 30
0.0
 11
109.8513642878
 21
184.0196057685
 31
0.0
 12
109.8793642878
 22
183.9916057685
 32
0.0
 13
109.8793642878
 23
183.9916057685
 33
0.0
  0
SOLID
  5
301
100
AcDbEntity
  8
_04_NOTES
100
AcDbTrace
 62
7
  6
BYLAYER
 10
109.8793642878
 20
183.9916057685
 30
0.0
 11
109.5713642878
 21
183.9356057685
 31
0.0
 12
109.5993642878
 22
183.9916057685
 32
0.0
 13
109.5993642878
 23
183.9916057685
 33
0.0
  0
SOLID
  5
302
100
AcDbEntity
  8
_04_NOTES
100
AcDbTrace
 62
7
  6
BYLAYER
 10
109.5713642878
 20
183.9356057685
 30
0.0
 11
109.8793642878
 21
183.9916057685
 31
0.0
 12
109.9073642878
 22
183.9356057685
 32
0.0
 13
109.9073642878
 23
183.9356057685
 33
0.0
  0
SOLID
  5
303
100
AcDbEntity
  8
_04_NOTES
100
AcDbTrace
 62
7
  6
BYLAYER
 10
109.0673642878
 20
183.5156057685
 30
0.0
 11
109.2353642878
 21
183.5436057685
 31
0.0
 12
109.3193642878
 22
183.5156057685
 32
0.0
 13
109.3193642878
 23
183.5156057685
 33
0.0
  0
SOLID
  5
304
100
AcDbEntity
  8
_04_NOTES
100
AcDbTrace
 62
7
  6
BYLAYER
 10
109.9353642878
 20
183.8796057685
 30
0.0
 11
109.9073642878
 21
183.8236057685
 31
0.0
 12
109.4313642878
 22
183.5156057685
 32
0.0
 13
109.4313642878
 23
183.5156057685
 33
0.0
  0
SOLID
  5
305
100
AcDbEntity
  8
_04_NOTES
100
AcDbTrace
 62
7
  6
BYLAYER
 10
109.9073642878
 20
183.9356057685
 30
0.0
 11
109.9353642878
 21
183.8796057685
 31
0.0
 12
109.4313642878
 22
183.5156057685
 32
0.0
 13
109.4313642878
 23
183.5156057685
 33
0.0
  0
SOLID
  5
306
100
AcDbEntity
  8
_04_NOTES
100
AcDbTrace
 62
7
  6
BYLAYER
 10
109.9073642878
 20
183.9356057685
 30
0.0
 11
109.4313642878
 21
183.5156057685
 31
0.0
 12
109.5713642878
 22
183.9356057685
 32
0.0
 13
109.5713642878
 23
183.9356057685
 33
0.0
  0
SOLID
  5
307
100
AcDbEntity
  8
_04_NOTES
100
AcDbTrace
 62
7
  6
BYLAYER
 10
109.3193642878
 20
183.5156057685
 30
0.0
 11
109.4313642878
 21
183.5156057685
 31
0.0
 12
108.8993642878
 22
183.4876057685
 32
0.0
 13
108.8993642878
 23
183.4876057685
 33
0.0
  0
SOLID
  5
308
100
AcDbEntity
  8
_04_NOTES
100
AcDbTrace
 62
7
  6
BYLAYER
 10
109.3193642878
 20
183.5156057685
 30
0.0
 11
108.8993642878
 21
183.4876057685
 31
0.0
 12
109.0673642878
 22
183.5156057685
 32
0.0
 13
109.0673642878
 23
183.5156057685
 33
0.0
  0
SOLID
  5
309
100
AcDbEntity
  8
_04_NOTES
100
AcDbTrace
 62
7
  6
BYLAYER
 10
108.7593642878
 20
183.4316057685
 30
0.0
 11
108.8993642878
 21
183.4876057685
 31
0.0
 12
109.4313642878
 22
183.5156057685
 32
0.0
 13
109.4313642878
 23
183.5156057685
 33
0.0
  0
SOLID
  5
30A
100
AcDbEntity
  8
_04_NOTES
100
AcDbTrace
 62
7
  6
BYLAYER
 10
109.7673642878
 20
183.4036057685
 30
0.0
 11
108.7593642878
 21
183.4316057685
 31
0.0
 12
109.4313642878
 22
183.5156057685
 32
0.0
 13
109.4313642878
 23
183.5156057685
 33
0.0
  0
SOLID
  5
30B
100
AcDbEntity
  8
_04_NOTES
100
AcDbTrace
 62
7
  6
BYLAYER
 10
109.4313642878
 20
183.5156057685
 30
0.0
 11
109.9073642878
 21
183.8236057685
 31
0.0
 12
109.7673642878
 22
183.4036057685
 32
0.0
 13
109.7673642878
 23
183.4036057685
 33
0.0
  0
SOLID
  5
30C
100
AcDbEntity
  8
_04_NOTES
100
AcDbTrace
 62
7
  6
BYLAYER
 10
109.7673642878
 20
183.4036057685
 30
0.0
 11
108.6193642878
 21
183.3756057685
 31
0.0
 12
108.7593642878
 22
183.4316057685
 32
0.0
 13
108.7593642878
 23
183.4316057685
 33
0.0
  0
SOLID
  5
30D
100
AcDbEntity
  8
_04_NOTES
100
AcDbTrace
 62
7
  6
BYLAYER
 10
108.6193642878
 20
183.3756057685
 30
0.0
 11
109.7673642878
 21
183.4036057685
 31
0.0
 12
109.9633642878
 22
183.2916057685
 32
0.0
 13
109.9633642878
 23
183.2916057685
 33
0.0
  0
SOLID
  5
30E
100
AcDbEntity
  8
_04_NOTES
100
AcDbTrace
 62
7
  6
BYLAYER
 10
109.9633642878
 20
183.2916057685
 30
0.0
 11
108.4793642878
 21
183.2636057685
 31
0.0
 12
108.6193642878
 22
183.3756057685
 32
0.0
 13
108.6193642878
 23
183.3756057685
 33
0.0
  0
SOLID
  5
30F
100
AcDbEntity
  8
_04_NOTES
100
AcDbTrace
 62
7
  6
BYLAYER
 10
108.3673642878
 20
183.1796057685
 30
0.0
 11
108.4793642878
 21
183.2636057685
 31
0.0
 12
109.9633642878
 22
183.2916057685
 32
0.0
 13
109.9633642878
 23
183.2916057685
 33
0.0
  0
SOLID
  5
310
100
AcDbEntity
  8
_04_NOTES
100
AcDbTrace
 62
7
  6
BYLAYER
 10
109.1233642878
 20
183.1796057685
 30
0.0
 11
108.3673642878
 21
183.1796057685
 31
0.0
 12
109.9633642878
 22
183.2916057685
 32
0.0
 13
109.9633642878
 23
183.2916057685
 33
0.0
  0
SOLID
  5
311
100
AcDbEntity
  8
_04_NOTES
100
AcDbTrace
 62
7
  6
BYLAYER
 10
109.2353642878
 20
183.1796057685
 30
0.0
 11
109.1233642878
 21
183.1796057685
 31
0.0
 12
109.9633642878
 22
183.2916057685
 32
0.0
 13
109.9633642878
 23
183.2916057685
 33
0.0
  0
SOLID
  5
312
100
AcDbEntity
  8
_04_NOTES
100
AcDbTrace
 62
7
  6
BYLAYER
 10
109.2633642878
 20
183.1796057685
 30
0.0
 11
109.2353642878
 21
183.1796057685
 31
0.0
 12
109.9633642878
 22
183.2916057685
 32
0.0
 13
109.9633642878
 23
183.2916057685
 33
0.0
  0
SOLID
  5
313
100
AcDbEntity
  8
_04_NOTES
100
AcDbTrace
 62
7
  6
BYLAYER
 10
109.3193642878
 20
183.1796057685
 30
0.0
 11
109.2633642878
 21
183.1796057685
 31
0.0
 12
109.9633642878
 22
183.2916057685
 32
0.0
 13
109.9633642878
 23
183.2916057685
 33
0.0
  0
SOLID
  5
314
100
AcDbEntity
  8
_04_NOTES
100
AcDbTrace
 62
7
  6
BYLAYER
 10
109.3193642878
 20
183.1796057685
 30
0.0
 11
109.9633642878
 21
183.2916057685
 31
0.0
 12
110.1313642878
 22
183.1236057685
 32
0.0
 13
110.1313642878
 23
183.1236057685
 33
0.0
  0
SOLID
  5
315
100
AcDbEntity
  8
_04_NOTES
100
AcDbTrace
 62
7
  6
BYLAYER
 10
108.8993642878
 20
183.1236057685
 30
0.0
 11
108.7873642878
 21
183.0676057685
 31
0.0
 12
108.2553642878
 22
183.0396057685
 32
0.0
 13
108.2553642878
 23
183.0396057685
 33
0.0
  0
SOLID
  5
316
100
AcDbEntity
  8
_04_NOTES
100
AcDbTrace
 62
7
  6
BYLAYER
 10
109.0113642878
 20
183.1516057685
 30
0.0
 11
108.8993642878
 21
183.1236057685
 31
0.0
 12
108.2553642878
 22
183.0396057685
 32
0.0
 13
108.2553642878
 23
183.0396057685
 33
0.0
  0
SOLID
  5
317
100
AcDbEntity
  8
_04_NOTES
100
AcDbTrace
 62
7
  6
BYLAYER
 10
109.1233642878
 20
183.1796057685
 30
0.0
 11
109.0113642878
 21
183.1516057685
 31
0.0
 12
108.2553642878
 22
183.0396057685
 32
0.0
 13
108.2553642878
 23
183.0396057685
 33
0.0
  0
SOLID
  5
318
100
AcDbEntity
  8
_04_NOTES
100
AcDbTrace
 62
7
  6
BYLAYER
 10
109.1233642878
 20
183.1796057685
 30
0.0
 11
108.2553642878
 21
183.0396057685
 31
0.0
 12
108.3673642878
 22
183.1796057685
 32
0.0
 13
108.3673642878
 23
183.1796057685
 33
0.0
  0
SOLID
  5
319
100
AcDbEntity
  8
_04_NOTES
100
AcDbTrace
 62
7
  6
BYLAYER
 10
108.2553642878
 20
183.0396057685
 30
0.0
 11
108.7873642878
 21
183.0676057685
 31
0.0
 12
108.7033642878
 22
183.0116057685
 32
0.0
 13
108.7033642878
 23
183.0116057685
 33
0.0
  0
SOLID
  5
31A
100
AcDbEntity
  8
_04_NOTES
100
AcDbTrace
 62
7
  6
BYLAYER
 10
109.7673642878
 20
183.0116057685
 30
0.0
 11
109.6553642878
 21
183.0676057685
 31
0.0
 12
110.1313642878
 22
183.1236057685
 32
0.0
 13
110.1313642878
 23
183.1236057685
 33
0.0
  0
SOLID
  5
31B
100
AcDbEntity
  8
_04_NOTES
100
AcDbTrace
 62
7
  6
BYLAYER
 10
109.7673642878
 20
183.0116057685
 30
0.0
 11
110.1313642878
 21
183.1236057685
 31
0.0
 12
110.2713642878
 22
182.9556057685
 32
0.0
 13
110.2713642878
 23
182.9556057685
 33
0.0
  0
SOLID
  5
31C
100
AcDbEntity
  8
_04_NOTES
100
AcDbTrace
 62
7
  6
BYLAYER
 10
108.7033642878
 20
183.0116057685
 30
0.0
 11
108.1713642878
 21
182.9276057685
 31
0.0
 12
108.2553642878
 22
183.0396057685
 32
0.0
 13
108.2553642878
 23
183.0396057685
 33
0.0
  0
SOLID
  5
31D
100
AcDbEntity
  8
_04_NOTES
100
AcDbTrace
 62
7
  6
BYLAYER
 10
108.1713642878
 20
182.9276057685
 30
0.0
 11
108.7033642878
 21
183.0116057685
 31
0.0
 12
108.6193642878
 22
182.9276057685
 32
0.0
 13
108.6193642878
 23
182.9276057685
 33
0.0
  0
SOLID
  5
31E
100
AcDbEntity
  8
_04_NOTES
100
AcDbTrace
 62
7
  6
BYLAYER
 10
110.2713642878
 20
182.9556057685
 30
0.0
 11
109.8513642878
 21
182.9276057685
 31
0.0
 12
109.7673642878
 22
183.0116057685
 32
0.0
 13
109.7673642878
 23
183.0116057685
 33
0.0
  0
SOLID
  5
31F
100
AcDbEntity
  8
_04_NOTES
100
AcDbTrace
 62
7
  6
BYLAYER
 10
108.6193642878
 20
182.9276057685
 30
0.0
 11
108.5353642878
 21
182.8436057685
 31
0.0
 12
108.0873642878
 22
182.7876057685
 32
0.0
 13
108.0873642878
 23
182.7876057685
 33
0.0
  0
SOLID
  5
320
100
AcDbEntity
  8
_04_NOTES
100
AcDbTrace
 62
7
  6
BYLAYER
 10
108.6193642878
 20
182.9276057685
 30
0.0
 11
108.0873642878
 21
182.7876057685
 31
0.0
 12
108.1713642878
 22
182.9276057685
 32
0.0
 13
108.1713642878
 23
182.9276057685
 33
0.0
  0
SOLID
  5
321
100
AcDbEntity
  8
_04_NOTES
100
AcDbTrace
 62
7
  6
BYLAYER
 10
108.0873642878
 20
182.7876057685
 30
0.0
 11
108.5353642878
 21
182.8436057685
 31
0.0
 12
108.4793642878
 22
182.7596057685
 32
0.0
 13
108.4793642878
 23
182.7596057685
 33
0.0
  0
SOLID
  5
322
100
AcDbEntity
  8
_04_NOTES
100
AcDbTrace
 62
7
  6
BYLAYER
 10
109.9073642878
 20
182.8436057685
 30
0.0
 11
109.8513642878
 21
182.9276057685
 31
0.0
 12
110.2713642878
 22
182.9556057685
 32
0.0
 13
110.2713642878
 23
182.9556057685
 33
0.0
  0
SOLID
  5
323
100
AcDbEntity
  8
_04_NOTES
100
AcDbTrace
 62
7
  6
BYLAYER
 10
109.9913642878
 20
182.7596057685
 30
0.0
 11
109.9073642878
 21
182.8436057685
 31
0.0
 12
110.2713642878
 22
182.9556057685
 32
0.0
 13
110.2713642878
 23
182.9556057685
 33
0.0
  0
SOLID
  5
324
100
AcDbEntity
  8
_04_NOTES
100
AcDbTrace
 62
7
  6
BYLAYER
 10
109.9913642878
 20
182.7596057685
 30
0.0
 11
110.2713642878
 21
182.9556057685
 31
0.0
 12
110.3553642878
 22
182.7596057685
 32
0.0
 13
110.3553642878
 23
182.7596057685
 33
0.0
  0
SOLID
  5
325
100
AcDbEntity
  8
_04_NOTES
100
AcDbTrace
 62
7
  6
BYLAYER
 10
110.3553642878
 20
182.7596057685
 30
0.0
 11
110.0473642878
 21
182.6476057685
 31
0.0
 12
109.9913642878
 22
182.7596057685
 32
0.0
 13
109.9913642878
 23
182.7596057685
 33
0.0
  0
SOLID
  5
326
100
AcDbEntity
  8
_04_NOTES
100
AcDbTrace
 62
7
  6
BYLAYER
 10
108.4793642878
 20
182.7596057685
 30
0.0
 11
108.4233642878
 21
182.6476057685
 31
0.0
 12
108.0313642878
 22
182.6196057685
 32
0.0
 13
108.0313642878
 23
182.6196057685
 33
0.0
  0
SOLID
  5
327
100
AcDbEntity
  8
_04_NOTES
100
AcDbTrace
 62
7
  6
BYLAYER
 10
108.4793642878
 20
182.7596057685
 30
0.0
 11
108.0313642878
 21
182.6196057685
 31
0.0
 12
108.0873642878
 22
182.7876057685
 32
0.0
 13
108.0873642878
 23
182.7876057685
 33
0.0
  0
SOLID
  5
328
100
AcDbEntity
  8
_04_NOTES
100
AcDbTrace
 62
7
  6
BYLAYER
 10
108.0313642878
 20
182.6196057685
 30
0.0
 11
108.4233642878
 21
182.6476057685
 31
0.0
 12
108.3953642878
 22
182.5356057685
 32
0.0
 13
108.3953642878
 23
182.5356057685
 33
0.0
  0
SOLID
  5
329
100
AcDbEntity
  8
_04_NOTES
100
AcDbTrace
 62
7
  6
BYLAYER
 10
110.0753642878
 20
182.5356057685
 30
0.0
 11
110.0473642878
 21
182.6476057685
 31
0.0
 12
110.3553642878
 22
182.7596057685
 32
0.0
 13
110.3553642878
 23
182.7596057685
 33
0.0
  0
SOLID
  5
32A
100
AcDbEntity
  8
_04_NOTES
100
AcDbTrace
 62
7
  6
BYLAYER
 10
110.0753642878
 20
182.5356057685
 30
0.0
 11
110.3553642878
 21
182.7596057685
 31
0.0
 12
110.4393642878
 22
182.5356057685
 32
0.0
 13
110.4393642878
 23
182.5356057685
 33
0.0
  0
SOLID
  5
32B
100
AcDbEntity
  8
_04_NOTES
100
AcDbTrace
 62
7
  6
BYLAYER
 10
108.3953642878
 20
182.5356057685
 30
0.0
 11
108.0033642878
 21
182.4796057685
 31
0.0
 12
108.0313642878
 22
182.6196057685
 32
0.0
 13
108.0313642878
 23
182.6196057685
 33
0.0
  0
SOLID
  5
32C
100
AcDbEntity
  8
_04_NOTES
100
AcDbTrace
 62
7
  6
BYLAYER
 10
108.0033642878
 20
182.4796057685
 30
0.0
 11
108.3953642878
 21
182.5356057685
 31
0.0
 12
108.3673642878
 22
182.4236057685
 32
0.0
 13
108.3673642878
 23
182.4236057685
 33
0.0
  0
SOLID
  5
32D
100
AcDbEntity
  8
_04_NOTES
100
AcDbTrace
 62
7
  6
BYLAYER
 10
110.4393642878
 20
182.5356057685
 30
0.0
 11
110.1033642878
 21
182.4236057685
 31
0.0
 12
110.0753642878
 22
182.5356057685
 32
0.0
 13
110.0753642878
 23
182.5356057685
 33
0.0
  0
SOLID
  5
32E
100
AcDbEntity
  8
_04_NOTES
100
AcDbTrace
 62
7
  6
BYLAYER
 10
108.3673642878
 20
182.4236057685
 30
0.0
 11
108.0033642878
 21
182.3116057685
 31
0.0
 12
108.0033642878
 22
182.4796057685
 32
0.0
 13
108.0033642878
 23
182.4796057685
 33
0.0
  0
SOLID
  5
32F
100
AcDbEntity
  8
_04_NOTES
100
AcDbTrace
 62
7
  6
BYLAYER
 10
108.0033642878
 20
182.3116057685
 30
0.0
 11
108.3673642878
 21
182.4236057685
 31
0.0
 12
108.3393642878
 22
182.3116057685
 32
0.0
 13
108.3393642878
 23
182.3116057685
 33
0.0
  0
SOLID
  5
330
100
AcDbEntity
  8
_04_NOTES
100
AcDbTrace
 62
7
  6
BYLAYER
 10
110.1033642878
 20
182.3116057685
 30
0.0
 11
110.1033642878
 21
182.4236057685
 31
0.0
 12
110.4393642878
 22
182.5356057685
 32
0.0
 13
110.4393642878
 23
182.5356057685
 33
0.0
  0
SOLID
  5
331
100
AcDbEntity
  8
_04_NOTES
100
AcDbTrace
 62
7
  6
BYLAYER
 10
110.1033642878
 20
182.3116057685
 30
0.0
 11
110.4393642878
 21
182.5356057685
 31
0.0
 12
110.4393642878
 22
182.3116057685
 32
0.0
 13
110.4393642878
 23
182.3116057685
 33
0.0
  0
SOLID
  5
332
100
AcDbEntity
  8
_04_NOTES
100
AcDbTrace
 62
7
  6
BYLAYER
 10
110.4393642878
 20
182.3116057685
 30
0.0
 11
110.1033642878
 21
182.1996057685
 31
0.0
 12
110.1033642878
 22
182.3116057685
 32
0.0
 13
110.1033642878
 23
182.3116057685
 33
0.0
  0
SOLID
  5
333
100
AcDbEntity
  8
_04_NOTES
100
AcDbTrace
 62
7
  6
BYLAYER
 10
108.3393642878
 20
182.3116057685
 30
0.0
 11
108.3673642878
 21
182.1996057685
 31
0.0
 12
108.0033642878
 22
182.1436057685
 32
0.0
 13
108.0033642878
 23
182.1436057685
 33
0.0
  0
SOLID
  5
334
100
AcDbEntity
  8
_04_NOTES
100
AcDbTrace
 62
7
  6
BYLAYER
 10
108.3393642878
 20
182.3116057685
 30
0.0
 11
108.0033642878
 21
182.1436057685
 31
0.0
 12
108.0033642878
 22
182.3116057685
 32
0.0
 13
108.0033642878
 23
182.3116057685
 33
0.0
  0
SOLID
  5
335
100
AcDbEntity
  8
_04_NOTES
100
AcDbTrace
 62
7
  6
BYLAYER
 10
110.1033642878
 20
182.1996057685
 30
0.0
 11
110.4393642878
 21
182.3116057685
 31
0.0
 12
110.4393642878
 22
182.1436057685
 32
0.0
 13
110.4393642878
 23
182.1436057685
 33
0.0
  0
SOLID
  5
336
100
AcDbEntity
  8
_04_NOTES
100
AcDbTrace
 62
7
  6
BYLAYER
 10
108.0033642878
 20
182.1436057685
 30
0.0
 11
108.3673642878
 21
182.1996057685
 31
0.0
 12
108.3953642878
 22
182.0876057685
 32
0.0
 13
108.3953642878
 23
182.0876057685
 33
0.0
  0
SOLID
  5
337
100
AcDbEntity
  8
_04_NOTES
100
AcDbTrace
 62
7
  6
BYLAYER
 10
110.4393642878
 20
182.1436057685
 30
0.0
 11
110.0753642878
 21
182.0876057685
 31
0.0
 12
110.1033642878
 22
182.1996057685
 32
0.0
 13
110.1033642878
 23
182.1996057685
 33
0.0
  0
SOLID
  5
338
100
AcDbEntity
  8
_04_NOTES
100
AcDbTrace
 62
7
  6
BYLAYER
 10
110.0753642878
 20
182.0876057685
 30
0.0
 11
110.4393642878
 21
182.1436057685
 31
0.0
 12
110.4113642878
 22
182.0036057685
 32
0.0
 13
110.4113642878
 23
182.0036057685
 33
0.0
  0
SOLID
  5
339
100
AcDbEntity
  8
_04_NOTES
100
AcDbTrace
 62
7
  6
BYLAYER
 10
108.3953642878
 20
182.0876057685
 30
0.0
 11
108.0593642878
 21
181.9756057685
 31
0.0
 12
108.0033642878
 22
182.1436057685
 32
0.0
 13
108.0033642878
 23
182.1436057685
 33
0.0
  0
SOLID
  5
33A
100
AcDbEntity
  8
_04_NOTES
100
AcDbTrace
 62
7
  6
BYLAYER
 10
108.0593642878
 20
181.9756057685
 30
0.0
 11
108.3953642878
 21
182.0876057685
 31
0.0
 12
108.4233642878
 22
181.9756057685
 32
0.0
 13
108.4233642878
 23
181.9756057685
 33
0.0
  0
SOLID
  5
33B
100
AcDbEntity
  8
_04_NOTES
100
AcDbTrace
 62
7
  6
BYLAYER
 10
110.4113642878
 20
182.0036057685
 30
0.0
 11
110.0473642878
 21
181.9756057685
 31
0.0
 12
110.0753642878
 22
182.0876057685
 32
0.0
 13
110.0753642878
 23
182.0876057685
 33
0.0
  0
SOLID
  5
33C
100
AcDbEntity
  8
_04_NOTES
100
AcDbTrace
 62
7
  6
BYLAYER
 10
109.9913642878
 20
181.8636057685
 30
0.0
 11
110.0473642878
 21
181.9756057685
 31
0.0
 12
110.4113642878
 22
182.0036057685
 32
0.0
 13
110.4113642878
 23
182.0036057685
 33
0.0
  0
SOLID
  5
33D
100
AcDbEntity
  8
_04_NOTES
100
AcDbTrace
 62
7
  6
BYLAYER
 10
109.9913642878
 20
181.8636057685
 30
0.0
 11
110.4113642878
 21
182.0036057685
 31
0.0
 12
110.3553642878
 22
181.8356057685
 32
0.0
 13
110.3553642878
 23
181.8356057685
 33
0.0
  0
SOLID
  5
33E
100
AcDbEntity
  8
_04_NOTES
100
AcDbTrace
 62
7
  6
BYLAYER
 10
108.4233642878
 20
181.9756057685
 30
0.0
 11
108.4793642878
 21
181.8636057685
 31
0.0
 12
108.1153642878
 22
181.8076057685
 32
0.0
 13
108.1153642878
 23
181.8076057685
 33
0.0
  0
SOLID
  5
33F
100
AcDbEntity
  8
_04_NOTES
100
AcDbTrace
 62
7
  6
BYLAYER
 10
108.4233642878
 20
181.9756057685
 30
0.0
 11
108.1153642878
 21
181.8076057685
 31
0.0
 12
108.0593642878
 22
181.9756057685
 32
0.0
 13
108.0593642878
 23
181.9756057685
 33
0.0
  0
SOLID
  5
340
100
AcDbEntity
  8
_04_NOTES
100
AcDbTrace
 62
7
  6
BYLAYER
 10
108.1153642878
 20
181.8076057685
 30
0.0
 11
108.4793642878
 21
181.8636057685
 31
0.0
 12
108.5353642878
 22
181.7796057685
 32
0.0
 13
108.5353642878
 23
181.7796057685
 33
0.0
  0
SOLID
  5
341
100
AcDbEntity
  8
_04_NOTES
100
AcDbTrace
 62
7
  6
BYLAYER
 10
110.3553642878
 20
181.8356057685
 30
0.0
 11
109.9073642878
 21
181.7796057685
 31
0.0
 12
109.9913642878
 22
181.8636057685
 32
0.0
 13
109.9913642878
 23
181.8636057685
 33
0.0
  0
SOLID
  5
342
100
AcDbEntity
  8
_04_NOTES
100
AcDbTrace
 62
7
  6
BYLAYER
 10
109.8513642878
 20
181.6956057685
 30
0.0
 11
109.9073642878
 21
181.7796057685
 31
0.0
 12
110.3553642878
 22
181.8356057685
 32
0.0
 13
110.3553642878
 23
181.8356057685
 33
0.0
  0
SOLID
  5
343
100
AcDbEntity
  8
_04_NOTES
100
AcDbTrace
 62
7
  6
BYLAYER
 10
109.8513642878
 20
181.6956057685
 30
0.0
 11
110.3553642878
 21
181.8356057685
 31
0.0
 12
110.2993642878
 22
181.6956057685
 32
0.0
 13
110.2993642878
 23
181.6956057685
 33
0.0
  0
SOLID
  5
344
100
AcDbEntity
  8
_04_NOTES
100
AcDbTrace
 62
7
  6
BYLAYER
 10
108.5353642878
 20
181.7796057685
 30
0.0
 11
108.6193642878
 21
181.6956057685
 31
0.0
 12
108.1993642878
 22
181.6676057685
 32
0.0
 13
108.1993642878
 23
181.6676057685
 33
0.0
  0
SOLID
  5
345
100
AcDbEntity
  8
_04_NOTES
100
AcDbTrace
 62
7
  6
BYLAYER
 10
108.5353642878
 20
181.7796057685
 30
0.0
 11
108.1993642878
 21
181.6676057685
 31
0.0
 12
108.1153642878
 22
181.8076057685
 32
0.0
 13
108.1153642878
 23
181.8076057685
 33
0.0
  0
SOLID
  5
346
100
AcDbEntity
  8
_04_NOTES
100
AcDbTrace
 62
7
  6
BYLAYER
 10
108.1993642878
 20
181.6676057685
 30
0.0
 11
108.6193642878
 21
181.6956057685
 31
0.0
 12
108.7033642878
 22
181.6116057685
 32
0.0
 13
108.7033642878
 23
181.6116057685
 33
0.0
  0
SOLID
  5
347
100
AcDbEntity
  8
_04_NOTES
100
AcDbTrace
 62
7
  6
BYLAYER
 10
110.2993642878
 20
181.6956057685
 30
0.0
 11
109.7673642878
 21
181.6116057685
 31
0.0
 12
109.8513642878
 22
181.6956057685
 32
0.0
 13
109.8513642878
 23
181.6956057685
 33
0.0
  0
SOLID
  5
348
100
AcDbEntity
  8
_04_NOTES
100
AcDbTrace
 62
7
  6
BYLAYER
 10
109.7673642878
 20
181.6116057685
 30
0.0
 11
110.2993642878
 21
181.6956057685
 31
0.0
 12
110.1873642878
 22
181.5836057685
 32
0.0
 13
110.1873642878
 23
181.5836057685
 33
0.0
  0
SOLID
  5
349
100
AcDbEntity
  8
_04_NOTES
100
AcDbTrace
 62
7
  6
BYLAYER
 10
109.3193642878
 20
183.1796057685
 30
0.0
 11
110.1313642878
 21
183.1236057685
 31
0.0
 12
109.6553642878
 22
183.0676057685
 32
0.0
 13
109.6553642878
 23
183.0676057685
 33
0.0
  0
SOLID
  5
34A
100
AcDbEntity
  8
_04_NOTES
100
AcDbTrace
 62
7
  6
BYLAYER
 10
109.6553642878
 20
183.0676057685
 30
0.0
 11
108.7873642878
 21
181.5556057685
 31
0.0
 12
109.3193642878
 22
183.1796057685
 32
0.0
 13
109.3193642878
 23
183.1796057685
 33
0.0
  0
SOLID
  5
34B
100
AcDbEntity
  8
_04_NOTES
100
AcDbTrace
 62
7
  6
BYLAYER
 10
110.1873642878
 20
181.5836057685
 30
0.0
 11
109.6553642878
 21
181.5556057685
 31
0.0
 12
109.7673642878
 22
181.6116057685
 32
0.0
 13
109.7673642878
 23
181.6116057685
 33
0.0
  0
SOLID
  5
34C
100
AcDbEntity
  8
_04_NOTES
100
AcDbTrace
 62
7
  6
BYLAYER
 10
108.7033642878
 20
181.6116057685
 30
0.0
 11
108.7873642878
 21
181.5556057685
 31
0.0
 12
108.2833642878
 22
181.5276057685
 32
0.0
 13
108.2833642878
 23
181.5276057685
 33
0.0
  0
SOLID
  5
34D
100
AcDbEntity
  8
_04_NOTES
100
AcDbTrace
 62
7
  6
BYLAYER
 10
108.7033642878
 20
181.6116057685
 30
0.0
 11
108.2833642878
 21
181.5276057685
 31
0.0
 12
108.1993642878
 22
181.6676057685
 32
0.0
 13
108.1993642878
 23
181.6676057685
 33
0.0
  0
SOLID
  5
34E
100
AcDbEntity
  8
_04_NOTES
100
AcDbTrace
 62
7
  6
BYLAYER
 10
109.1233642878
 20
181.4436057685
 30
0.0
 11
108.2833642878
 21
181.5276057685
 31
0.0
 12
108.7873642878
 22
181.5556057685
 32
0.0
 13
108.7873642878
 23
181.5556057685
 33
0.0
  0
SOLID
  5
34F
100
AcDbEntity
  8
_04_NOTES
100
AcDbTrace
 62
7
  6
BYLAYER
 10
108.7873642878
 20
181.5556057685
 30
0.0
 11
109.6553642878
 21
183.0676057685
 31
0.0
 12
109.1233642878
 22
181.4436057685
 32
0.0
 13
109.1233642878
 23
181.4436057685
 33
0.0
  0
SOLID
  5
350
100
AcDbEntity
  8
_04_NOTES
100
AcDbTrace
 62
7
  6
BYLAYER
 10
109.5713642878
 20
181.4996057685
 30
0.0
 11
109.6553642878
 21
181.5556057685
 31
0.0
 12
110.1873642878
 22
181.5836057685
 32
0.0
 13
110.1873642878
 23
181.5836057685
 33
0.0
  0
SOLID
  5
351
100
AcDbEntity
  8
_04_NOTES
100
AcDbTrace
 62
7
  6
BYLAYER
 10
109.4593642878
 20
181.4716057685
 30
0.0
 11
109.5713642878
 21
181.4996057685
 31
0.0
 12
110.1873642878
 22
181.5836057685
 32
0.0
 13
110.1873642878
 23
181.5836057685
 33
0.0
  0
SOLID
  5
352
100
AcDbEntity
  8
_04_NOTES
100
AcDbTrace
 62
7
  6
BYLAYER
 10
109.3473642878
 20
181.4436057685
 30
0.0
 11
109.4593642878
 21
181.4716057685
 31
0.0
 12
110.1873642878
 22
181.5836057685
 32
0.0
 13
110.1873642878
 23
181.5836057685
 33
0.0
  0
SOLID
  5
353
100
AcDbEntity
  8
_04_NOTES
100
AcDbTrace
 62
7
  6
BYLAYER
 10
109.3473642878
 20
181.4436057685
 30
0.0
 11
110.1873642878
 21
181.5836057685
 31
0.0
 12
110.1033642878
 22
181.4436057685
 32
0.0
 13
110.1033642878
 23
181.4436057685
 33
0.0
  0
SOLID
  5
354
100
AcDbEntity
  8
_04_NOTES
100
AcDbTrace
 62
7
  6
BYLAYER
 10
109.3473642878
 20
181.4436057685
 30
0.0
 11
110.1033642878
 21
181.4436057685
 31
0.0
 12
108.3953642878
 22
181.4156057685
 32
0.0
 13
108.3953642878
 23
181.4156057685
 33
0.0
  0
SOLID
  5
355
100
AcDbEntity
  8
_04_NOTES
100
AcDbTrace
 62
7
  6
BYLAYER
 10
109.2353642878
 20
181.4436057685
 30
0.0
 11
109.3473642878
 21
181.4436057685
 31
0.0
 12
108.3953642878
 22
181.4156057685
 32
0.0
 13
108.3953642878
 23
181.4156057685
 33
0.0
  0
SOLID
  5
356
100
AcDbEntity
  8
_04_NOTES
100
AcDbTrace
 62
7
  6
BYLAYER
 10
109.1793642878
 20
181.4436057685
 30
0.0
 11
109.2353642878
 21
181.4436057685
 31
0.0
 12
108.3953642878
 22
181.4156057685
 32
0.0
 13
108.3953642878
 23
181.4156057685
 33
0.0
  0
SOLID
  5
357
100
AcDbEntity
  8
_04_NOTES
100
AcDbTrace
 62
7
  6
BYLAYER
 10
109.1233642878
 20
181.4436057685
 30
0.0
 11
109.1793642878
 21
181.4436057685
 31
0.0
 12
108.3953642878
 22
181.4156057685
 32
0.0
 13
108.3953642878
 23
181.4156057685
 33
0.0
  0
SOLID
  5
358
100
AcDbEntity
  8
_04_NOTES
100
AcDbTrace
 62
7
  6
BYLAYER
 10
109.1233642878
 20
181.4436057685
 30
0.0
 11
108.3953642878
 21
181.4156057685
 31
0.0
 12
108.2833642878
 22
181.5276057685
 32
0.0
 13
108.2833642878
 23
181.5276057685
 33
0.0
  0
SOLID
  5
359
100
AcDbEntity
  8
_04_NOTES
100
AcDbTrace
 62
7
  6
BYLAYER
 10
108.3953642878
 20
181.4156057685
 30
0.0
 11
110.1033642878
 21
181.4436057685
 31
0.0
 12
109.9633642878
 22
181.3596057685
 32
0.0
 13
109.9633642878
 23
181.3596057685
 33
0.0
  0
SOLID
  5
35A
100
AcDbEntity
  8
_04_NOTES
100
AcDbTrace
 62
7
  6
BYLAYER
 10
109.9633642878
 20
181.3596057685
 30
0.0
 11
108.5353642878
 21
181.3036057685
 31
0.0
 12
108.3953642878
 22
181.4156057685
 32
0.0
 13
108.3953642878
 23
181.4156057685
 33
0.0
  0
SOLID
  5
35B
100
AcDbEntity
  8
_04_NOTES
100
AcDbTrace
 62
7
  6
BYLAYER
 10
108.5353642878
 20
181.3036057685
 30
0.0
 11
109.9633642878
 21
181.3596057685
 31
0.0
 12
109.8513642878
 22
181.2476057685
 32
0.0
 13
109.8513642878
 23
181.2476057685
 33
0.0
  0
SOLID
  5
35C
100
AcDbEntity
  8
_04_NOTES
100
AcDbTrace
 62
7
  6
BYLAYER
 10
109.8513642878
 20
181.2476057685
 30
0.0
 11
108.6753642878
 21
181.2196057685
 31
0.0
 12
108.5353642878
 22
181.3036057685
 32
0.0
 13
108.5353642878
 23
181.3036057685
 33
0.0
  0
SOLID
  5
35D
100
AcDbEntity
  8
_04_NOTES
100
AcDbTrace
 62
7
  6
BYLAYER
 10
108.6753642878
 20
181.2196057685
 30
0.0
 11
109.8513642878
 21
181.2476057685
 31
0.0
 12
109.6833642878
 22
181.1916057685
 32
0.0
 13
109.6833642878
 23
181.1916057685
 33
0.0
  0
SOLID
  5
35E
100
AcDbEntity
  8
_04_NOTES
100
AcDbTrace
 62
7
  6
BYLAYER
 10
109.2353642878
 20
181.1076057685
 30
0.0
 11
109.0113642878
 21
181.1076057685
 31
0.0
 12
109.5433642878
 22
181.1356057685
 32
0.0
 13
109.5433642878
 23
181.1356057685
 33
0.0
  0
SOLID
  5
35F
100
AcDbEntity
  8
_04_NOTES
100
AcDbTrace
 62
7
  6
BYLAYER
 10
109.2353642878
 20
181.1076057685
 30
0.0
 11
109.5433642878
 21
181.1356057685
 31
0.0
 12
109.4033642878
 22
181.1076057685
 32
0.0
 13
109.4033642878
 23
181.1076057685
 33
0.0
  0
SOLID
  5
360
100
AcDbEntity
  8
_04_NOTES
100
AcDbTrace
 62
7
  6
BYLAYER
 10
109.6833642878
 20
181.1916057685
 30
0.0
 11
109.5433642878
 21
181.1356057685
 31
0.0
 12
109.0113642878
 22
181.1076057685
 32
0.0
 13
109.0113642878
 23
181.1076057685
 33
0.0
  0
SOLID
  5
361
100
AcDbEntity
  8
_04_NOTES
100
AcDbTrace
 62
7
  6
BYLAYER
 10
108.6753642878
 20
181.2196057685
 30
0.0
 11
109.6833642878
 21
181.1916057685
 31
0.0
 12
109.0113642878
 22
181.1076057685
 32
0.0
 13
109.0113642878
 23
181.1076057685
 33
0.0
  0
SOLID
  5
362
100
AcDbEntity
  8
_04_NOTES
100
AcDbTrace
 62
7
  6
BYLAYER
 10
109.0113642878
 20
181.1076057685
 30
0.0
 11
108.5353642878
 21
180.7996057685
 31
0.0
 12
108.6753642878
 22
181.2196057685
 32
0.0
 13
108.6753642878
 23
181.2196057685
 33
0.0
  0
SOLID
  5
363
100
AcDbEntity
  8
_04_NOTES
100
AcDbTrace
 62
7
  6
BYLAYER
 10
108.5353642878
 20
180.7436057685
 30
0.0
 11
108.5353642878
 21
180.7996057685
 31
0.0
 12
109.0113642878
 22
181.1076057685
 32
0.0
 13
109.0113642878
 23
181.1076057685
 33
0.0
  0
SOLID
  5
364
100
AcDbEntity
  8
_04_NOTES
100
AcDbTrace
 62
7
  6
BYLAYER
 10
108.5353642878
 20
180.6876057685
 30
0.0
 11
108.5353642878
 21
180.7436057685
 31
0.0
 12
109.0113642878
 22
181.1076057685
 32
0.0
 13
109.0113642878
 23
181.1076057685
 33
0.0
  0
SOLID
  5
365
100
AcDbEntity
  8
_04_NOTES
100
AcDbTrace
 62
7
  6
BYLAYER
 10
108.5353642878
 20
180.6876057685
 30
0.0
 11
109.0113642878
 21
181.1076057685
 31
0.0
 12
108.8713642878
 22
180.6876057685
 32
0.0
 13
108.8713642878
 23
180.6876057685
 33
0.0
  0
SOLID
  5
366
100
AcDbEntity
  8
_04_NOTES
100
AcDbTrace
 62
7
  6
BYLAYER
 10
108.8713642878
 20
180.6876057685
 30
0.0
 11
108.5633642878
 21
180.6316057685
 31
0.0
 12
108.5353642878
 22
180.6876057685
 32
0.0
 13
108.5353642878
 23
180.6876057685
 33
0.0
  0
SOLID
  5
367
100
AcDbEntity
  8
_04_NOTES
100
AcDbTrace
 62
7
  6
BYLAYER
 10
108.5633642878
 20
180.6316057685
 30
0.0
 11
108.8713642878
 21
180.6876057685
 31
0.0
 12
108.8433642878
 22
180.6316057685
 32
0.0
 13
108.8433642878
 23
180.6316057685
 33
0.0
  0
SOLID
  5
368
100
AcDbEntity
  8
_04_NOTES
100
AcDbTrace
 62
7
  6
BYLAYER
 10
108.8433642878
 20
180.6316057685
 30
0.0
 11
108.5913642878
 21
180.6036057685
 31
0.0
 12
108.5633642878
 22
180.6316057685
 32
0.0
 13
108.5633642878
 23
180.6316057685
 33
0.0
  0
SOLID
  5
369
100
AcDbEntity
  8
_04_NOTES
100
AcDbTrace
 62
7
  6
BYLAYER
 10
108.5913642878
 20
180.6036057685
 30
0.0
 11
108.8433642878
 21
180.6316057685
 31
0.0
 12
108.8153642878
 22
180.6036057685
 32
0.0
 13
108.8153642878
 23
180.6036057685
 33
0.0
  0
SOLID
  5
36A
100
AcDbEntity
  8
_04_NOTES
100
AcDbTrace
 62
7
  6
BYLAYER
 10
108.8153642878
 20
180.6036057685
 30
0.0
 11
108.6473642878
 21
180.5756057685
 31
0.0
 12
108.5913642878
 22
180.6036057685
 32
0.0
 13
108.5913642878
 23
180.6036057685
 33
0.0
  0
SOLID
  5
36B
100
AcDbEntity
  8
_04_NOTES
100
AcDbTrace
 62
7
  6
BYLAYER
 10
108.7033642878
 20
180.5756057685
 30
0.0
 11
108.6473642878
 21
180.5756057685
 31
0.0
 12
108.8153642878
 22
180.6036057685
 32
0.0
 13
108.8153642878
 23
180.6036057685
 33
0.0
  0
SOLID
  5
36C
100
AcDbEntity
  8
_04_NOTES
100
AcDbTrace
 62
7
  6
BYLAYER
 10
108.7033642878
 20
180.5756057685
 30
0.0
 11
108.8153642878
 21
180.6036057685
 31
0.0
 12
108.7593642878
 22
180.5756057685
 32
0.0
 13
108.7593642878
 23
180.5756057685
 33
0.0
  0
SOLID
  5
36D
100
AcDbEntity
  8
_04_NOTES
100
AcDbTrace
 62
7
  6
BYLAYER
 10
127.2939586653
 20
184.0476057685
 30
0.0
 11
127.3499586653
 21
184.0756057685
 31
0.0
 12
127.4059586653
 22
184.0476057685
 32
0.0
 13
127.4059586653
 23
184.0476057685
 33
0.0
  0
SOLID
  5
36E
100
AcDbEntity
  8
_04_NOTES
100
AcDbTrace
 62
7
  6
BYLAYER
 10
127.4059586653
 20
184.0476057685
 30
0.0
 11
127.2659586653
 21
184.0196057685
 31
0.0
 12
127.2939586653
 22
184.0476057685
 32
0.0
 13
127.2939586653
 23
184.0476057685
 33
0.0
  0
SOLID
  5
36F
100
AcDbEntity
  8
_04_NOTES
100
AcDbTrace
 62
7
  6
BYLAYER
 10
127.2659586653
 20
184.0196057685
 30
0.0
 11
127.4059586653
 21
184.0476057685
 31
0.0
 12
127.4619586653
 22
184.0196057685
 32
0.0
 13
127.4619586653
 23
184.0196057685
 33
0.0
  0
SOLID
  5
370
100
AcDbEntity
  8
_04_NOTES
100
AcDbTrace
 62
7
  6
BYLAYER
 10
127.4619586653
 20
184.0196057685
 30
0.0
 11
127.2099586653
 21
183.9916057685
 31
0.0
 12
127.2659586653
 22
184.0196057685
 32
0.0
 13
127.2659586653
 23
184.0196057685
 33
0.0
  0
SOLID
  5
371
100
AcDbEntity
  8
_04_NOTES
100
AcDbTrace
 62
7
  6
BYLAYER
 10
127.2099586653
 20
183.9916057685
 30
0.0
 11
127.4619586653
 21
184.0196057685
 31
0.0
 12
127.4899586653
 22
183.9916057685
 32
0.0
 13
127.4899586653
 23
183.9916057685
 33
0.0
  0
SOLID
  5
372
100
AcDbEntity
  8
_04_NOTES
100
AcDbTrace
 62
7
  6
BYLAYER
 10
127.4899586653
 20
183.9916057685
 30
0.0
 11
127.1819586653
 21
183.9356057685
 31
0.0
 12
127.2099586653
 22
183.9916057685
 32
0.0
 13
127.2099586653
 23
183.9916057685
 33
0.0
  0
SOLID
  5
373
100
AcDbEntity
  8
_04_NOTES
100
AcDbTrace
 62
7
  6
BYLAYER
 10
127.1819586653
 20
183.9356057685
 30
0.0
 11
127.4899586653
 21
183.9916057685
 31
0.0
 12
127.5179586653
 22
183.9356057685
 32
0.0
 13
127.5179586653
 23
183.9356057685
 33
0.0
  0
SOLID
  5
374
100
AcDbEntity
  8
_04_NOTES
100
AcDbTrace
 62
7
  6
BYLAYER
 10
126.6779586653
 20
183.5156057685
 30
0.0
 11
126.8459586653
 21
183.5436057685
 31
0.0
 12
126.9299586653
 22
183.5156057685
 32
0.0
 13
126.9299586653
 23
183.5156057685
 33
0.0
  0
SOLID
  5
375
100
AcDbEntity
  8
_04_NOTES
100
AcDbTrace
 62
7
  6
BYLAYER
 10
127.5459586653
 20
183.8796057685
 30
0.0
 11
127.5179586653
 21
183.8236057685
 31
0.0
 12
127.0419586653
 22
183.5156057685
 32
0.0
 13
127.0419586653
 23
183.5156057685
 33
0.0
  0
SOLID
  5
376
100
AcDbEntity
  8
_04_NOTES
100
AcDbTrace
 62
7
  6
BYLAYER
 10
127.5179586653
 20
183.9356057685
 30
0.0
 11
127.5459586653
 21
183.8796057685
 31
0.0
 12
127.0419586653
 22
183.5156057685
 32
0.0
 13
127.0419586653
 23
183.5156057685
 33
0.0
  0
SOLID
  5
377
100
AcDbEntity
  8
_04_NOTES
100
AcDbTrace
 62
7
  6
BYLAYER
 10
127.5179586653
 20
183.9356057685
 30
0.0
 11
127.0419586653
 21
183.5156057685
 31
0.0
 12
127.1819586653
 22
183.9356057685
 32
0.0
 13
127.1819586653
 23
183.9356057685
 33
0.0
  0
SOLID
  5
378
100
AcDbEntity
  8
_04_NOTES
100
AcDbTrace
 62
7
  6
BYLAYER
 10
126.9299586653
 20
183.5156057685
 30
0.0
 11
127.0419586653
 21
183.5156057685
 31
0.0
 12
126.5099586653
 22
183.4876057685
 32
0.0
 13
126.5099586653
 23
183.4876057685
 33
0.0
  0
SOLID
  5
379
100
AcDbEntity
  8
_04_NOTES
100
AcDbTrace
 62
7
  6
BYLAYER
 10
126.9299586653
 20
183.5156057685
 30
0.0
 11
126.5099586653
 21
183.4876057685
 31
0.0
 12
126.6779586653
 22
183.5156057685
 32
0.0
 13
126.6779586653
 23
183.5156057685
 33
0.0
  0
SOLID
  5
37A
100
AcDbEntity
  8
_04_NOTES
100
AcDbTrace
 62
7
  6
BYLAYER
 10
126.3699586653
 20
183.4316057685
 30
0.0
 11
126.5099586653
 21
183.4876057685
 31
0.0
 12
127.0419586653
 22
183.5156057685
 32
0.0
 13
127.0419586653
 23
183.5156057685
 33
0.0
  0
SOLID
  5
37B
100
AcDbEntity
  8
_04_NOTES
100
AcDbTrace
 62
7
  6
BYLAYER
 10
127.3779586653
 20
183.4036057685
 30
0.0
 11
126.3699586653
 21
183.4316057685
 31
0.0
 12
127.0419586653
 22
183.5156057685
 32
0.0
 13
127.0419586653
 23
183.5156057685
 33
0.0
  0
SOLID
  5
37C
100
AcDbEntity
  8
_04_NOTES
100
AcDbTrace
 62
7
  6
BYLAYER
 10
127.0419586653
 20
183.5156057685
 30
0.0
 11
127.5179586653
 21
183.8236057685
 31
0.0
 12
127.3779586653
 22
183.4036057685
 32
0.0
 13
127.3779586653
 23
183.4036057685
 33
0.0
  0
SOLID
  5
37D
100
AcDbEntity
  8
_04_NOTES
100
AcDbTrace
 62
7
  6
BYLAYER
 10
127.3779586653
 20
183.4036057685
 30
0.0
 11
126.2299586653
 21
183.3756057685
 31
0.0
 12
126.3699586653
 22
183.4316057685
 32
0.0
 13
126.3699586653
 23
183.4316057685
 33
0.0
  0
SOLID
  5
37E
100
AcDbEntity
  8
_04_NOTES
100
AcDbTrace
 62
7
  6
BYLAYER
 10
126.2299586653
 20
183.3756057685
 30
0.0
 11
127.3779586653
 21
183.4036057685
 31
0.0
 12
127.5739586653
 22
183.2916057685
 32
0.0
 13
127.5739586653
 23
183.2916057685
 33
0.0
  0
SOLID
  5
37F
100
AcDbEntity
  8
_04_NOTES
100
AcDbTrace
 62
7
  6
BYLAYER
 10
127.5739586653
 20
183.2916057685
 30
0.0
 11
126.0899586653
 21
183.2636057685
 31
0.0
 12
126.2299586653
 22
183.3756057685
 32
0.0
 13
126.2299586653
 23
183.3756057685
 33
0.0
  0
SOLID
  5
380
100
AcDbEntity
  8
_04_NOTES
100
AcDbTrace
 62
7
  6
BYLAYER
 10
125.9779586653
 20
183.1796057685
 30
0.0
 11
126.0899586653
 21
183.2636057685
 31
0.0
 12
127.5739586653
 22
183.2916057685
 32
0.0
 13
127.5739586653
 23
183.2916057685
 33
0.0
  0
SOLID
  5
381
100
AcDbEntity
  8
_04_NOTES
100
AcDbTrace
 62
7
  6
BYLAYER
 10
126.7339586653
 20
183.1796057685
 30
0.0
 11
125.9779586653
 21
183.1796057685
 31
0.0
 12
127.5739586653
 22
183.2916057685
 32
0.0
 13
127.5739586653
 23
183.2916057685
 33
0.0
  0
SOLID
  5
382
100
AcDbEntity
  8
_04_NOTES
100
AcDbTrace
 62
7
  6
BYLAYER
 10
126.8459586653
 20
183.1796057685
 30
0.0
 11
126.7339586653
 21
183.1796057685
 31
0.0
 12
127.5739586653
 22
183.2916057685
 32
0.0
 13
127.5739586653
 23
183.2916057685
 33
0.0
  0
SOLID
  5
383
100
AcDbEntity
  8
_04_NOTES
100
AcDbTrace
 62
7
  6
BYLAYER
 10
126.8739586653
 20
183.1796057685
 30
0.0
 11
126.8459586653
 21
183.1796057685
 31
0.0
 12
127.5739586653
 22
183.2916057685
 32
0.0
 13
127.5739586653
 23
183.2916057685
 33
0.0
  0
SOLID
  5
384
100
AcDbEntity
  8
_04_NOTES
100
AcDbTrace
 62
7
  6
BYLAYER
 10
126.9299586653
 20
183.1796057685
 30
0.0
 11
126.8739586653
 21
183.1796057685
 31
0.0
 12
127.5739586653
 22
183.2916057685
 32
0.0
 13
127.5739586653
 23
183.2916057685
 33
0.0
  0
SOLID
  5
385
100
AcDbEntity
  8
_04_NOTES
100
AcDbTrace
 62
7
  6
BYLAYER
 10
126.9299586653
 20
183.1796057685
 30
0.0
 11
127.5739586653
 21
183.2916057685
 31
0.0
 12
127.7419586653
 22
183.1236057685
 32
0.0
 13
127.7419586653
 23
183.1236057685
 33
0.0
  0
SOLID
  5
386
100
AcDbEntity
  8
_04_NOTES
100
AcDbTrace
 62
7
  6
BYLAYER
 10
126.5099586653
 20
183.1236057685
 30
0.0
 11
126.3979586653
 21
183.0676057685
 31
0.0
 12
125.8659586653
 22
183.0396057685
 32
0.0
 13
125.8659586653
 23
183.0396057685
 33
0.0
  0
SOLID
  5
387
100
AcDbEntity
  8
_04_NOTES
100
AcDbTrace
 62
7
  6
BYLAYER
 10
126.6219586653
 20
183.1516057685
 30
0.0
 11
126.5099586653
 21
183.1236057685
 31
0.0
 12
125.8659586653
 22
183.0396057685
 32
0.0
 13
125.8659586653
 23
183.0396057685
 33
0.0
  0
SOLID
  5
388
100
AcDbEntity
  8
_04_NOTES
100
AcDbTrace
 62
7
  6
BYLAYER
 10
126.7339586653
 20
183.1796057685
 30
0.0
 11
126.6219586653
 21
183.1516057685
 31
0.0
 12
125.8659586653
 22
183.0396057685
 32
0.0
 13
125.8659586653
 23
183.0396057685
 33
0.0
  0
SOLID
  5
389
100
AcDbEntity
  8
_04_NOTES
100
AcDbTrace
 62
7
  6
BYLAYER
 10
126.7339586653
 20
183.1796057685
 30
0.0
 11
125.8659586653
 21
183.0396057685
 31
0.0
 12
125.9779586653
 22
183.1796057685
 32
0.0
 13
125.9779586653
 23
183.1796057685
 33
0.0
  0
SOLID
  5
38A
100
AcDbEntity
  8
_04_NOTES
100
AcDbTrace
 62
7
  6
BYLAYER
 10
125.8659586653
 20
183.0396057685
 30
0.0
 11
126.3979586653
 21
183.0676057685
 31
0.0
 12
126.3139586653
 22
183.0116057685
 32
0.0
 13
126.3139586653
 23
183.0116057685
 33
0.0
  0
SOLID
  5
38B
100
AcDbEntity
  8
_04_NOTES
100
AcDbTrace
 62
7
  6
BYLAYER
 10
127.3779586653
 20
183.0116057685
 30
0.0
 11
127.2659586653
 21
183.0676057685
 31
0.0
 12
127.7419586653
 22
183.1236057685
 32
0.0
 13
127.7419586653
 23
183.1236057685
 33
0.0
  0
SOLID
  5
38C
100
AcDbEntity
  8
_04_NOTES
100
AcDbTrace
 62
7
  6
BYLAYER
 10
127.3779586653
 20
183.0116057685
 30
0.0
 11
127.7419586653
 21
183.1236057685
 31
0.0
 12
127.8819586653
 22
182.9556057685
 32
0.0
 13
127.8819586653
 23
182.9556057685
 33
0.0
  0
SOLID
  5
38D
100
AcDbEntity
  8
_04_NOTES
100
AcDbTrace
 62
7
  6
BYLAYER
 10
126.3139586653
 20
183.0116057685
 30
0.0
 11
125.7819586653
 21
182.9276057685
 31
0.0
 12
125.8659586653
 22
183.0396057685
 32
0.0
 13
125.8659586653
 23
183.0396057685
 33
0.0
  0
SOLID
  5
38E
100
AcDbEntity
  8
_04_NOTES
100
AcDbTrace
 62
7
  6
BYLAYER
 10
125.7819586653
 20
182.9276057685
 30
0.0
 11
126.3139586653
 21
183.0116057685
 31
0.0
 12
126.2299586653
 22
182.9276057685
 32
0.0
 13
126.2299586653
 23
182.9276057685
 33
0.0
  0
SOLID
  5
38F
100
AcDbEntity
  8
_04_NOTES
100
AcDbTrace
 62
7
  6
BYLAYER
 10
127.8819586653
 20
182.9556057685
 30
0.0
 11
127.4619586653
 21
182.9276057685
 31
0.0
 12
127.3779586653
 22
183.0116057685
 32
0.0
 13
127.3779586653
 23
183.0116057685
 33
0.0
  0
SOLID
  5
390
100
AcDbEntity
  8
_04_NOTES
100
AcDbTrace
 62
7
  6
BYLAYER
 10
126.2299586653
 20
182.9276057685
 30
0.0
 11
126.1459586653
 21
182.8436057685
 31
0.0
 12
125.6979586653
 22
182.7876057685
 32
0.0
 13
125.6979586653
 23
182.7876057685
 33
0.0
  0
SOLID
  5
391
100
AcDbEntity
  8
_04_NOTES
100
AcDbTrace
 62
7
  6
BYLAYER
 10
126.2299586653
 20
182.9276057685
 30
0.0
 11
125.6979586653
 21
182.7876057685
 31
0.0
 12
125.7819586653
 22
182.9276057685
 32
0.0
 13
125.7819586653
 23
182.9276057685
 33
0.0
  0
SOLID
  5
392
100
AcDbEntity
  8
_04_NOTES
100
AcDbTrace
 62
7
  6
BYLAYER
 10
125.6979586653
 20
182.7876057685
 30
0.0
 11
126.1459586653
 21
182.8436057685
 31
0.0
 12
126.0899586653
 22
182.7596057685
 32
0.0
 13
126.0899586653
 23
182.7596057685
 33
0.0
  0
SOLID
  5
393
100
AcDbEntity
  8
_04_NOTES
100
AcDbTrace
 62
7
  6
BYLAYER
 10
127.5179586653
 20
182.8436057685
 30
0.0
 11
127.4619586653
 21
182.9276057685
 31
0.0
 12
127.8819586653
 22
182.9556057685
 32
0.0
 13
127.8819586653
 23
182.9556057685
 33
0.0
  0
SOLID
  5
394
100
AcDbEntity
  8
_04_NOTES
100
AcDbTrace
 62
7
  6
BYLAYER
 10
127.6019586653
 20
182.7596057685
 30
0.0
 11
127.5179586653
 21
182.8436057685
 31
0.0
 12
127.8819586653
 22
182.9556057685
 32
0.0
 13
127.8819586653
 23
182.9556057685
 33
0.0
  0
SOLID
  5
395
100
AcDbEntity
  8
_04_NOTES
100
AcDbTrace
 62
7
  6
BYLAYER
 10
127.6019586653
 20
182.7596057685
 30
0.0
 11
127.8819586653
 21
182.9556057685
 31
0.0
 12
127.9659586653
 22
182.7596057685
 32
0.0
 13
127.9659586653
 23
182.7596057685
 33
0.0
  0
SOLID
  5
396
100
AcDbEntity
  8
_04_NOTES
100
AcDbTrace
 62
7
  6
BYLAYER
 10
127.9659586653
 20
182.7596057685
 30
0.0
 11
127.6579586653
 21
182.6476057685
 31
0.0
 12
127.6019586653
 22
182.7596057685
 32
0.0
 13
127.6019586653
 23
182.7596057685
 33
0.0
  0
SOLID
  5
397
100
AcDbEntity
  8
_04_NOTES
100
AcDbTrace
 62
7
  6
BYLAYER
 10
126.0899586653
 20
182.7596057685
 30
0.0
 11
126.0339586653
 21
182.6476057685
 31
0.0
 12
125.6419586653
 22
182.6196057685
 32
0.0
 13
125.6419586653
 23
182.6196057685
 33
0.0
  0
SOLID
  5
398
100
AcDbEntity
  8
_04_NOTES
100
AcDbTrace
 62
7
  6
BYLAYER
 10
126.0899586653
 20
182.7596057685
 30
0.0
 11
125.6419586653
 21
182.6196057685
 31
0.0
 12
125.6979586653
 22
182.7876057685
 32
0.0
 13
125.6979586653
 23
182.7876057685
 33
0.0
  0
SOLID
  5
399
100
AcDbEntity
  8
_04_NOTES
100
AcDbTrace
 62
7
  6
BYLAYER
 10
125.6419586653
 20
182.6196057685
 30
0.0
 11
126.0339586653
 21
182.6476057685
 31
0.0
 12
126.0059586653
 22
182.5356057685
 32
0.0
 13
126.0059586653
 23
182.5356057685
 33
0.0
  0
SOLID
  5
39A
100
AcDbEntity
  8
_04_NOTES
100
AcDbTrace
 62
7
  6
BYLAYER
 10
127.6859586653
 20
182.5356057685
 30
0.0
 11
127.6579586653
 21
182.6476057685
 31
0.0
 12
127.9659586653
 22
182.7596057685
 32
0.0
 13
127.9659586653
 23
182.7596057685
 33
0.0
  0
SOLID
  5
39B
100
AcDbEntity
  8
_04_NOTES
100
AcDbTrace
 62
7
  6
BYLAYER
 10
127.6859586653
 20
182.5356057685
 30
0.0
 11
127.9659586653
 21
182.7596057685
 31
0.0
 12
128.0499586653
 22
182.5356057685
 32
0.0
 13
128.0499586653
 23
182.5356057685
 33
0.0
  0
SOLID
  5
39C
100
AcDbEntity
  8
_04_NOTES
100
AcDbTrace
 62
7
  6
BYLAYER
 10
126.0059586653
 20
182.5356057685
 30
0.0
 11
125.6139586653
 21
182.4796057685
 31
0.0
 12
125.6419586653
 22
182.6196057685
 32
0.0
 13
125.6419586653
 23
182.6196057685
 33
0.0
  0
SOLID
  5
39D
100
AcDbEntity
  8
_04_NOTES
100
AcDbTrace
 62
7
  6
BYLAYER
 10
125.6139586653
 20
182.4796057685
 30
0.0
 11
126.0059586653
 21
182.5356057685
 31
0.0
 12
125.9779586653
 22
182.4236057685
 32
0.0
 13
125.9779586653
 23
182.4236057685
 33
0.0
  0
SOLID
  5
39E
100
AcDbEntity
  8
_04_NOTES
100
AcDbTrace
 62
7
  6
BYLAYER
 10
128.0499586653
 20
182.5356057685
 30
0.0
 11
127.7139586653
 21
182.4236057685
 31
0.0
 12
127.6859586653
 22
182.5356057685
 32
0.0
 13
127.6859586653
 23
182.5356057685
 33
0.0
  0
SOLID
  5
39F
100
AcDbEntity
  8
_04_NOTES
100
AcDbTrace
 62
7
  6
BYLAYER
 10
125.9779586653
 20
182.4236057685
 30
0.0
 11
125.6139586653
 21
182.3116057685
 31
0.0
 12
125.6139586653
 22
182.4796057685
 32
0.0
 13
125.6139586653
 23
182.4796057685
 33
0.0
  0
SOLID
  5
3A0
100
AcDbEntity
  8
_04_NOTES
100
AcDbTrace
 62
7
  6
BYLAYER
 10
125.6139586653
 20
182.3116057685
 30
0.0
 11
125.9779586653
 21
182.4236057685
 31
0.0
 12
125.9499586653
 22
182.3116057685
 32
0.0
 13
125.9499586653
 23
182.3116057685
 33
0.0
  0
SOLID
  5
3A1
100
AcDbEntity
  8
_04_NOTES
100
AcDbTrace
 62
7
  6
BYLAYER
 10
127.7139586653
 20
182.3116057685
 30
0.0
 11
127.7139586653
 21
182.4236057685
 31
0.0
 12
128.0499586653
 22
182.5356057685
 32
0.0
 13
128.0499586653
 23
182.5356057685
 33
0.0
  0
SOLID
  5
3A2
100
AcDbEntity
  8
_04_NOTES
100
AcDbTrace
 62
7
  6
BYLAYER
 10
127.7139586653
 20
182.3116057685
 30
0.0
 11
128.0499586653
 21
182.5356057685
 31
0.0
 12
128.0499586653
 22
182.3116057685
 32
0.0
 13
128.0499586653
 23
182.3116057685
 33
0.0
  0
SOLID
  5
3A3
100
AcDbEntity
  8
_04_NOTES
100
AcDbTrace
 62
7
  6
BYLAYER
 10
128.0499586653
 20
182.3116057685
 30
0.0
 11
127.7139586653
 21
182.1996057685
 31
0.0
 12
127.7139586653
 22
182.3116057685
 32
0.0
 13
127.7139586653
 23
182.3116057685
 33
0.0
  0
SOLID
  5
3A4
100
AcDbEntity
  8
_04_NOTES
100
AcDbTrace
 62
7
  6
BYLAYER
 10
125.9499586653
 20
182.3116057685
 30
0.0
 11
125.9779586653
 21
182.1996057685
 31
0.0
 12
125.6139586653
 22
182.1436057685
 32
0.0
 13
125.6139586653
 23
182.1436057685
 33
0.0
  0
SOLID
  5
3A5
100
AcDbEntity
  8
_04_NOTES
100
AcDbTrace
 62
7
  6
BYLAYER
 10
125.9499586653
 20
182.3116057685
 30
0.0
 11
125.6139586653
 21
182.1436057685
 31
0.0
 12
125.6139586653
 22
182.3116057685
 32
0.0
 13
125.6139586653
 23
182.3116057685
 33
0.0
  0
SOLID
  5
3A6
100
AcDbEntity
  8
_04_NOTES
100
AcDbTrace
 62
7
  6
BYLAYER
 10
127.7139586653
 20
182.1996057685
 30
0.0
 11
128.0499586653
 21
182.3116057685
 31
0.0
 12
128.0499586653
 22
182.1436057685
 32
0.0
 13
128.0499586653
 23
182.1436057685
 33
0.0
  0
SOLID
  5
3A7
100
AcDbEntity
  8
_04_NOTES
100
AcDbTrace
 62
7
  6
BYLAYER
 10
125.6139586653
 20
182.1436057685
 30
0.0
 11
125.9779586653
 21
182.1996057685
 31
0.0
 12
126.0059586653
 22
182.0876057685
 32
0.0
 13
126.0059586653
 23
182.0876057685
 33
0.0
  0
SOLID
  5
3A8
100
AcDbEntity
  8
_04_NOTES
100
AcDbTrace
 62
7
  6
BYLAYER
 10
128.0499586653
 20
182.1436057685
 30
0.0
 11
127.6859586653
 21
182.0876057685
 31
0.0
 12
127.7139586653
 22
182.1996057685
 32
0.0
 13
127.7139586653
 23
182.1996057685
 33
0.0
  0
SOLID
  5
3A9
100
AcDbEntity
  8
_04_NOTES
100
AcDbTrace
 62
7
  6
BYLAYER
 10
127.6859586653
 20
182.0876057685
 30
0.0
 11
128.0499586653
 21
182.1436057685
 31
0.0
 12
128.0219586653
 22
182.0036057685
 32
0.0
 13
128.0219586653
 23
182.0036057685
 33
0.0
  0
SOLID
  5
3AA
100
AcDbEntity
  8
_04_NOTES
100
AcDbTrace
 62
7
  6
BYLAYER
 10
126.0059586653
 20
182.0876057685
 30
0.0
 11
125.6699586653
 21
181.9756057685
 31
0.0
 12
125.6139586653
 22
182.1436057685
 32
0.0
 13
125.6139586653
 23
182.1436057685
 33
0.0
  0
SOLID
  5
3AB
100
AcDbEntity
  8
_04_NOTES
100
AcDbTrace
 62
7
  6
BYLAYER
 10
125.6699586653
 20
181.9756057685
 30
0.0
 11
126.0059586653
 21
182.0876057685
 31
0.0
 12
126.0339586653
 22
181.9756057685
 32
0.0
 13
126.0339586653
 23
181.9756057685
 33
0.0
  0
SOLID
  5
3AC
100
AcDbEntity
  8
_04_NOTES
100
AcDbTrace
 62
7
  6
BYLAYER
 10
128.0219586653
 20
182.0036057685
 30
0.0
 11
127.6579586653
 21
181.9756057685
 31
0.0
 12
127.6859586653
 22
182.0876057685
 32
0.0
 13
127.6859586653
 23
182.0876057685
 33
0.0
  0
SOLID
  5
3AD
100
AcDbEntity
  8
_04_NOTES
100
AcDbTrace
 62
7
  6
BYLAYER
 10
127.6019586653
 20
181.8636057685
 30
0.0
 11
127.6579586653
 21
181.9756057685
 31
0.0
 12
128.0219586653
 22
182.0036057685
 32
0.0
 13
128.0219586653
 23
182.0036057685
 33
0.0
  0
SOLID
  5
3AE
100
AcDbEntity
  8
_04_NOTES
100
AcDbTrace
 62
7
  6
BYLAYER
 10
127.6019586653
 20
181.8636057685
 30
0.0
 11
128.0219586653
 21
182.0036057685
 31
0.0
 12
127.9659586653
 22
181.8356057685
 32
0.0
 13
127.9659586653
 23
181.8356057685
 33
0.0
  0
SOLID
  5
3AF
100
AcDbEntity
  8
_04_NOTES
100
AcDbTrace
 62
7
  6
BYLAYER
 10
126.0339586653
 20
181.9756057685
 30
0.0
 11
126.0899586653
 21
181.8636057685
 31
0.0
 12
125.7259586653
 22
181.8076057685
 32
0.0
 13
125.7259586653
 23
181.8076057685
 33
0.0
  0
SOLID
  5
3B0
100
AcDbEntity
  8
_04_NOTES
100
AcDbTrace
 62
7
  6
BYLAYER
 10
126.0339586653
 20
181.9756057685
 30
0.0
 11
125.7259586653
 21
181.8076057685
 31
0.0
 12
125.6699586653
 22
181.9756057685
 32
0.0
 13
125.6699586653
 23
181.9756057685
 33
0.0
  0
SOLID
  5
3B1
100
AcDbEntity
  8
_04_NOTES
100
AcDbTrace
 62
7
  6
BYLAYER
 10
125.7259586653
 20
181.8076057685
 30
0.0
 11
126.0899586653
 21
181.8636057685
 31
0.0
 12
126.1459586653
 22
181.7796057685
 32
0.0
 13
126.1459586653
 23
181.7796057685
 33
0.0
  0
SOLID
  5
3B2
100
AcDbEntity
  8
_04_NOTES
100
AcDbTrace
 62
7
  6
BYLAYER
 10
127.9659586653
 20
181.8356057685
 30
0.0
 11
127.5179586653
 21
181.7796057685
 31
0.0
 12
127.6019586653
 22
181.8636057685
 32
0.0
 13
127.6019586653
 23
181.8636057685
 33
0.0
  0
SOLID
  5
3B3
100
AcDbEntity
  8
_04_NOTES
100
AcDbTrace
 62
7
  6
BYLAYER
 10
127.4619586653
 20
181.6956057685
 30
0.0
 11
127.5179586653
 21
181.7796057685
 31
0.0
 12
127.9659586653
 22
181.8356057685
 32
0.0
 13
127.9659586653
 23
181.8356057685
 33
0.0
  0
SOLID
  5
3B4
100
AcDbEntity
  8
_04_NOTES
100
AcDbTrace
 62
7
  6
BYLAYER
 10
127.4619586653
 20
181.6956057685
 30
0.0
 11
127.9659586653
 21
181.8356057685
 31
0.0
 12
127.9099586653
 22
181.6956057685
 32
0.0
 13
127.9099586653
 23
181.6956057685
 33
0.0
  0
SOLID
  5
3B5
100
AcDbEntity
  8
_04_NOTES
100
AcDbTrace
 62
7
  6
BYLAYER
 10
126.1459586653
 20
181.7796057685
 30
0.0
 11
126.2299586653
 21
181.6956057685
 31
0.0
 12
125.8099586653
 22
181.6676057685
 32
0.0
 13
125.8099586653
 23
181.6676057685
 33
0.0
  0
SOLID
  5
3B6
100
AcDbEntity
  8
_04_NOTES
100
AcDbTrace
 62
7
  6
BYLAYER
 10
126.1459586653
 20
181.7796057685
 30
0.0
 11
125.8099586653
 21
181.6676057685
 31
0.0
 12
125.7259586653
 22
181.8076057685
 32
0.0
 13
125.7259586653
 23
181.8076057685
 33
0.0
  0
SOLID
  5
3B7
100
AcDbEntity
  8
_04_NOTES
100
AcDbTrace
 62
7
  6
BYLAYER
 10
125.8099586653
 20
181.6676057685
 30
0.0
 11
126.2299586653
 21
181.6956057685
 31
0.0
 12
126.3139586653
 22
181.6116057685
 32
0.0
 13
126.3139586653
 23
181.6116057685
 33
0.0
  0
SOLID
  5
3B8
100
AcDbEntity
  8
_04_NOTES
100
AcDbTrace
 62
7
  6
BYLAYER
 10
127.9099586653
 20
181.6956057685
 30
0.0
 11
127.3779586653
 21
181.6116057685
 31
0.0
 12
127.4619586653
 22
181.6956057685
 32
0.0
 13
127.4619586653
 23
181.6956057685
 33
0.0
  0
SOLID
  5
3B9
100
AcDbEntity
  8
_04_NOTES
100
AcDbTrace
 62
7
  6
BYLAYER
 10
127.3779586653
 20
181.6116057685
 30
0.0
 11
127.9099586653
 21
181.6956057685
 31
0.0
 12
127.7979586653
 22
181.5836057685
 32
0.0
 13
127.7979586653
 23
181.5836057685
 33
0.0
  0
SOLID
  5
3BA
100
AcDbEntity
  8
_04_NOTES
100
AcDbTrace
 62
7
  6
BYLAYER
 10
126.9299586653
 20
183.1796057685
 30
0.0
 11
127.7419586653
 21
183.1236057685
 31
0.0
 12
127.2659586653
 22
183.0676057685
 32
0.0
 13
127.2659586653
 23
183.0676057685
 33
0.0
  0
SOLID
  5
3BB
100
AcDbEntity
  8
_04_NOTES
100
AcDbTrace
 62
7
  6
BYLAYER
 10
127.2659586653
 20
183.0676057685
 30
0.0
 11
126.3979586653
 21
181.5556057685
 31
0.0
 12
126.9299586653
 22
183.1796057685
 32
0.0
 13
126.9299586653
 23
183.1796057685
 33
0.0
  0
SOLID
  5
3BC
100
AcDbEntity
  8
_04_NOTES
100
AcDbTrace
 62
7
  6
BYLAYER
 10
127.7979586653
 20
181.5836057685
 30
0.0
 11
127.2659586653
 21
181.5556057685
 31
0.0
 12
127.3779586653
 22
181.6116057685
 32
0.0
 13
127.3779586653
 23
181.6116057685
 33
0.0
  0
SOLID
  5
3BD
100
AcDbEntity
  8
_04_NOTES
100
AcDbTrace
 62
7
  6
BYLAYER
 10
126.3139586653
 20
181.6116057685
 30
0.0
 11
126.3979586653
 21
181.5556057685
 31
0.0
 12
125.8939586653
 22
181.5276057685
 32
0.0
 13
125.8939586653
 23
181.5276057685
 33
0.0
  0
SOLID
  5
3BE
100
AcDbEntity
  8
_04_NOTES
100
AcDbTrace
 62
7
  6
BYLAYER
 10
126.3139586653
 20
181.6116057685
 30
0.0
 11
125.8939586653
 21
181.5276057685
 31
0.0
 12
125.8099586653
 22
181.6676057685
 32
0.0
 13
125.8099586653
 23
181.6676057685
 33
0.0
  0
SOLID
  5
3BF
100
AcDbEntity
  8
_04_NOTES
100
AcDbTrace
 62
7
  6
BYLAYER
 10
126.7339586653
 20
181.4436057685
 30
0.0
 11
125.8939586653
 21
181.5276057685
 31
0.0
 12
126.3979586653
 22
181.5556057685
 32
0.0
 13
126.3979586653
 23
181.5556057685
 33
0.0
  0
SOLID
  5
3C0
100
AcDbEntity
  8
_04_NOTES
100
AcDbTrace
 62
7
  6
BYLAYER
 10
126.3979586653
 20
181.5556057685
 30
0.0
 11
127.2659586653
 21
183.0676057685
 31
0.0
 12
126.7339586653
 22
181.4436057685
 32
0.0
 13
126.7339586653
 23
181.4436057685
 33
0.0
  0
SOLID
  5
3C1
100
AcDbEntity
  8
_04_NOTES
100
AcDbTrace
 62
7
  6
BYLAYER
 10
127.1819586653
 20
181.4996057685
 30
0.0
 11
127.2659586653
 21
181.5556057685
 31
0.0
 12
127.7979586653
 22
181.5836057685
 32
0.0
 13
127.7979586653
 23
181.5836057685
 33
0.0
  0
SOLID
  5
3C2
100
AcDbEntity
  8
_04_NOTES
100
AcDbTrace
 62
7
  6
BYLAYER
 10
127.0699586653
 20
181.4716057685
 30
0.0
 11
127.1819586653
 21
181.4996057685
 31
0.0
 12
127.7979586653
 22
181.5836057685
 32
0.0
 13
127.7979586653
 23
181.5836057685
 33
0.0
  0
SOLID
  5
3C3
100
AcDbEntity
  8
_04_NOTES
100
AcDbTrace
 62
7
  6
BYLAYER
 10
126.9579586653
 20
181.4436057685
 30
0.0
 11
127.0699586653
 21
181.4716057685
 31
0.0
 12
127.7979586653
 22
181.5836057685
 32
0.0
 13
127.7979586653
 23
181.5836057685
 33
0.0
  0
SOLID
  5
3C4
100
AcDbEntity
  8
_04_NOTES
100
AcDbTrace
 62
7
  6
BYLAYER
 10
126.9579586653
 20
181.4436057685
 30
0.0
 11
127.7979586653
 21
181.5836057685
 31
0.0
 12
127.7139586653
 22
181.4436057685
 32
0.0
 13
127.7139586653
 23
181.4436057685
 33
0.0
  0
SOLID
  5
3C5
100
AcDbEntity
  8
_04_NOTES
100
AcDbTrace
 62
7
  6
BYLAYER
 10
126.9579586653
 20
181.4436057685
 30
0.0
 11
127.7139586653
 21
181.4436057685
 31
0.0
 12
126.0059586653
 22
181.4156057685
 32
0.0
 13
126.0059586653
 23
181.4156057685
 33
0.0
  0
SOLID
  5
3C6
100
AcDbEntity
  8
_04_NOTES
100
AcDbTrace
 62
7
  6
BYLAYER
 10
126.8459586653
 20
181.4436057685
 30
0.0
 11
126.9579586653
 21
181.4436057685
 31
0.0
 12
126.0059586653
 22
181.4156057685
 32
0.0
 13
126.0059586653
 23
181.4156057685
 33
0.0
  0
SOLID
  5
3C7
100
AcDbEntity
  8
_04_NOTES
100
AcDbTrace
 62
7
  6
BYLAYER
 10
126.7899586653
 20
181.4436057685
 30
0.0
 11
126.8459586653
 21
181.4436057685
 31
0.0
 12
126.0059586653
 22
181.4156057685
 32
0.0
 13
126.0059586653
 23
181.4156057685
 33
0.0
  0
SOLID
  5
3C8
100
AcDbEntity
  8
_04_NOTES
100
AcDbTrace
 62
7
  6
BYLAYER
 10
126.7339586653
 20
181.4436057685
 30
0.0
 11
126.7899586653
 21
181.4436057685
 31
0.0
 12
126.0059586653
 22
181.4156057685
 32
0.0
 13
126.0059586653
 23
181.4156057685
 33
0.0
  0
SOLID
  5
3C9
100
AcDbEntity
  8
_04_NOTES
100
AcDbTrace
 62
7
  6
BYLAYER
 10
126.7339586653
 20
181.4436057685
 30
0.0
 11
126.0059586653
 21
181.4156057685
 31
0.0
 12
125.8939586653
 22
181.5276057685
 32
0.0
 13
125.8939586653
 23
181.5276057685
 33
0.0
  0
SOLID
  5
3CA
100
AcDbEntity
  8
_04_NOTES
100
AcDbTrace
 62
7
  6
BYLAYER
 10
126.0059586653
 20
181.4156057685
 30
0.0
 11
127.7139586653
 21
181.4436057685
 31
0.0
 12
127.5739586653
 22
181.3596057685
 32
0.0
 13
127.5739586653
 23
181.3596057685
 33
0.0
  0
SOLID
  5
3CB
100
AcDbEntity
  8
_04_NOTES
100
AcDbTrace
 62
7
  6
BYLAYER
 10
127.5739586653
 20
181.3596057685
 30
0.0
 11
126.1459586653
 21
181.3036057685
 31
0.0
 12
126.0059586653
 22
181.4156057685
 32
0.0
 13
126.0059586653
 23
181.4156057685
 33
0.0
  0
SOLID
  5
3CC
100
AcDbEntity
  8
_04_NOTES
100
AcDbTrace
 62
7
  6
BYLAYER
 10
126.1459586653
 20
181.3036057685
 30
0.0
 11
127.5739586653
 21
181.3596057685
 31
0.0
 12
127.4619586653
 22
181.2476057685
 32
0.0
 13
127.4619586653
 23
181.2476057685
 33
0.0
  0
SOLID
  5
3CD
100
AcDbEntity
  8
_04_NOTES
100
AcDbTrace
 62
7
  6
BYLAYER
 10
127.4619586653
 20
181.2476057685
 30
0.0
 11
126.2859586653
 21
181.2196057685
 31
0.0
 12
126.1459586653
 22
181.3036057685
 32
0.0
 13
126.1459586653
 23
181.3036057685
 33
0.0
  0
SOLID
  5
3CE
100
AcDbEntity
  8
_04_NOTES
100
AcDbTrace
 62
7
  6
BYLAYER
 10
126.2859586653
 20
181.2196057685
 30
0.0
 11
127.4619586653
 21
181.2476057685
 31
0.0
 12
127.2939586653
 22
181.1916057685
 32
0.0
 13
127.2939586653
 23
181.1916057685
 33
0.0
  0
SOLID
  5
3CF
100
AcDbEntity
  8
_04_NOTES
100
AcDbTrace
 62
7
  6
BYLAYER
 10
126.8459586653
 20
181.1076057685
 30
0.0
 11
126.6219586653
 21
181.1076057685
 31
0.0
 12
127.1539586653
 22
181.1356057685
 32
0.0
 13
127.1539586653
 23
181.1356057685
 33
0.0
  0
SOLID
  5
3D0
100
AcDbEntity
  8
_04_NOTES
100
AcDbTrace
 62
7
  6
BYLAYER
 10
126.8459586653
 20
181.1076057685
 30
0.0
 11
127.1539586653
 21
181.1356057685
 31
0.0
 12
127.0139586653
 22
181.1076057685
 32
0.0
 13
127.0139586653
 23
181.1076057685
 33
0.0
  0
SOLID
  5
3D1
100
AcDbEntity
  8
_04_NOTES
100
AcDbTrace
 62
7
  6
BYLAYER
 10
127.2939586653
 20
181.1916057685
 30
0.0
 11
127.1539586653
 21
181.1356057685
 31
0.0
 12
126.6219586653
 22
181.1076057685
 32
0.0
 13
126.6219586653
 23
181.1076057685
 33
0.0
  0
SOLID
  5
3D2
100
AcDbEntity
  8
_04_NOTES
100
AcDbTrace
 62
7
  6
BYLAYER
 10
126.2859586653
 20
181.2196057685
 30
0.0
 11
127.2939586653
 21
181.1916057685
 31
0.0
 12
126.6219586653
 22
181.1076057685
 32
0.0
 13
126.6219586653
 23
181.1076057685
 33
0.0
  0
SOLID
  5
3D3
100
AcDbEntity
  8
_04_NOTES
100
AcDbTrace
 62
7
  6
BYLAYER
 10
126.6219586653
 20
181.1076057685
 30
0.0
 11
126.1459586653
 21
180.7996057685
 31
0.0
 12
126.2859586653
 22
181.2196057685
 32
0.0
 13
126.2859586653
 23
181.2196057685
 33
0.0
  0
SOLID
  5
3D4
100
AcDbEntity
  8
_04_NOTES
100
AcDbTrace
 62
7
  6
BYLAYER
 10
126.1459586653
 20
180.7436057685
 30
0.0
 11
126.1459586653
 21
180.7996057685
 31
0.0
 12
126.6219586653
 22
181.1076057685
 32
0.0
 13
126.6219586653
 23
181.1076057685
 33
0.0
  0
SOLID
  5
3D5
100
AcDbEntity
  8
_04_NOTES
100
AcDbTrace
 62
7
  6
BYLAYER
 10
126.1459586653
 20
180.6876057685
 30
0.0
 11
126.1459586653
 21
180.7436057685
 31
0.0
 12
126.6219586653
 22
181.1076057685
 32
0.0
 13
126.6219586653
 23
181.1076057685
 33
0.0
  0
SOLID
  5
3D6
100
AcDbEntity
  8
_04_NOTES
100
AcDbTrace
 62
7
  6
BYLAYER
 10
126.1459586653
 20
180.6876057685
 30
0.0
 11
126.6219586653
 21
181.1076057685
 31
0.0
 12
126.4819586653
 22
180.6876057685
 32
0.0
 13
126.4819586653
 23
180.6876057685
 33
0.0
  0
SOLID
  5
3D7
100
AcDbEntity
  8
_04_NOTES
100
AcDbTrace
 62
7
  6
BYLAYER
 10
126.4819586653
 20
180.6876057685
 30
0.0
 11
126.1739586653
 21
180.6316057685
 31
0.0
 12
126.1459586653
 22
180.6876057685
 32
0.0
 13
126.1459586653
 23
180.6876057685
 33
0.0
  0
SOLID
  5
3D8
100
AcDbEntity
  8
_04_NOTES
100
AcDbTrace
 62
7
  6
BYLAYER
 10
126.1739586653
 20
180.6316057685
 30
0.0
 11
126.4819586653
 21
180.6876057685
 31
0.0
 12
126.4539586653
 22
180.6316057685
 32
0.0
 13
126.4539586653
 23
180.6316057685
 33
0.0
  0
SOLID
  5
3D9
100
AcDbEntity
  8
_04_NOTES
100
AcDbTrace
 62
7
  6
BYLAYER
 10
126.4539586653
 20
180.6316057685
 30
0.0
 11
126.2019586653
 21
180.6036057685
 31
0.0
 12
126.1739586653
 22
180.6316057685
 32
0.0
 13
126.1739586653
 23
180.6316057685
 33
0.0
  0
SOLID
  5
3DA
100
AcDbEntity
  8
_04_NOTES
100
AcDbTrace
 62
7
  6
BYLAYER
 10
126.2019586653
 20
180.6036057685
 30
0.0
 11
126.4539586653
 21
180.6316057685
 31
0.0
 12
126.4259586653
 22
180.6036057685
 32
0.0
 13
126.4259586653
 23
180.6036057685
 33
0.0
  0
SOLID
  5
3DB
100
AcDbEntity
  8
_04_NOTES
100
AcDbTrace
 62
7
  6
BYLAYER
 10
126.4259586653
 20
180.6036057685
 30
0.0
 11
126.2579586653
 21
180.5756057685
 31
0.0
 12
126.2019586653
 22
180.6036057685
 32
0.0
 13
126.2019586653
 23
180.6036057685
 33
0.0
  0
SOLID
  5
3DC
100
AcDbEntity
  8
_04_NOTES
100
AcDbTrace
 62
7
  6
BYLAYER
 10
126.3139586653
 20
180.5756057685
 30
0.0
 11
126.2579586653
 21
180.5756057685
 31
0.0
 12
126.4259586653
 22
180.6036057685
 32
0.0
 13
126.4259586653
 23
180.6036057685
 33
0.0
  0
SOLID
  5
3DD
100
AcDbEntity
  8
_04_NOTES
100
AcDbTrace
 62
7
  6
BYLAYER
 10
126.3139586653
 20
180.5756057685
 30
0.0
 11
126.4259586653
 21
180.6036057685
 31
0.0
 12
126.3699586653
 22
180.5756057685
 32
0.0
 13
126.3699586653
 23
180.5756057685
 33
0.0
  0
LEADER
  5
3DE
100
AcDbEntity
  8
_04_NOTES
100
AcDbLeader
 62
7
  6
BYLAYER
  3
STANDARD
 71
1
 72
0
 73
0
 75
0
 40
3.5
 41
28.504
 76
3
 10
81.9455464064
 20
202.2892888979
 30
0.0
 10
102.6673642878
 20
187.5756057685
 30
0.0
 10
107.6673642878
 20
187.5756057685
 30
0.0
340
3DF
1001
ACAD
1000
DSTYLE
1002
{
1070
77
1070
0
1002
}
  0
MTEXT
  5
3DF
102
{ACAD_REACTORS
330
3DE
102
}
100
AcDbEntity
  8
_04_NOTES
100
AcDbMText
 62
7
  6
BYLAYER
  7
STANDARD
 71
1
 72
1
 10
107.6673642878
 20
189.3256057685
 30
0.0
 11
1.0
 21
0.0
 31
0.0
 73
2
 44
0.9
  1
Clamp for pipe \P{\ftxt;\W0.0001;\H0.0001;\~}{\ftxt;\W0.8995983936;\H3.5; }{\ftxt;\W0.0001;\H0.0001;\~}48mm - {\ftxt;\W0.0001;\H0.0001;\~}{\ftxt;\W0.8995983936;\H3.5; }{\ftxt;\W0.0001;\H0.0001;\~}51mm (1½") 
 40
3.5
 41
66.3767831325
  0
LINE
  5
3E0
100
AcDbEntity
  8
0
100
AcDbLine
 62
7
  6
BYLAYER
 10
0.0
 20
0.0
 30
0.0
 11
210.0
 21
0.0
 31
0.0
  0
LINE
  5
3E1
100
AcDbEntity
  8
0
100
AcDbLine
 62
7
  6
BYLAYER
 10
12.5
 20
10.0
 30
0.0
 11
200.0
 21
10.0
 31
0.0
  0
LINE
  5
3E2
100
AcDbEntity
  8
0
100
AcDbLine
 62
7
  6
BYLAYER
 10
-0.0
 20
-0.0
 30
0.0
 11
0.0
 21
297.0
 31
0.0
  0
LINE
  5
3E3
100
AcDbEntity
  8
0
100
AcDbLine
 62
7
  6
BYLAYER
 10
12.5
 20
10.0
 30
0.0
 11
12.5
 21
287.0
 31
0.0
  0
LINE
  5
3E4
100
AcDbEntity
  8
0
100
AcDbLine
 62
7
  6
BYLAYER
 10
200.0
 20
10.0
 30
0.0
 11
200.0
 21
287.0
 31
0.0
  0
LINE
  5
3E5
100
AcDbEntity
  8
0
100
AcDbLine
 62
7
  6
BYLAYER
 10
210.0
 20
0.0
 30
0.0
 11
210.0
 21
297.0
 31
0.0
  0
LINE
  5
3E6
100
AcDbEntity
  8
0
100
AcDbLine
 62
7
  6
BYLAYER
 10
12.5
 20
287.0
 30
0.0
 11
200.0
 21
287.0
 31
0.0
  0
LINE
  5
3E7
100
AcDbEntity
  8
0
100
AcDbLine
 62
7
  6
BYLAYER
 10
0.0
 20
297.0
 30
0.0
 11
210.0
 21
297.0
 31
0.0
  0
LINE
  5
3E8
100
AcDbEntity
  8
0
100
AcDbLine
 62
9
  6
BYLAYER
 10
74.5329548052
 20
255.5443079662
 30
0.0
 11
74.613096599
 21
255.6701053839
 31
0.0
  0
LINE
  5
3E9
100
AcDbEntity
  8
0
100
AcDbLine
 62
9
  6
BYLAYER
 10
75.4391507833
 20
254.9669974581
 30
0.0
 11
75.5192925771
 21
255.0927948758
 31
0.0
  0
LINE
  5
3EA
100
AcDbEntity
  8
0
100
AcDbLine
 62
7
  6
BYLAYER
 10
71.3984653015
 20
252.9081608737
 30
0.0
 11
70.0815488832
 21
248.1462707865
 31
0.0
  0
LINE
  5
3EB
100
AcDbEntity
  8
0
100
AcDbLine
 62
9
  6
BYLAYER
 10
71.4300894224
 20
252.8247441503
 30
0.0
 11
70.1357536692
 21
248.1445043822
 31
0.0
  0
LINE
  5
3EC
100
AcDbEntity
  8
0
100
AcDbLine
 62
9
  6
BYLAYER
 10
71.0179729949
 20
249.4593645098
 30
0.0
 11
70.6174993457
 21
248.0112760255
 31
0.0
  0
LINE
  5
3ED
100
AcDbEntity
  8
0
100
AcDbLine
 62
9
  6
BYLAYER
 10
74.9860527943
 20
254.7557143959
 30
0.0
 11
75.439150826
 21
254.9669973667
 31
0.0
  0
LINE
  5
3EE
100
AcDbEntity
  8
0
100
AcDbLine
 62
9
  6
BYLAYER
 10
76.2240608138
 20
253.5814145148
 30
0.0
 11
76.1100496345
 21
253.5282502288
 31
0.0
  0
LINE
  5
3EF
100
AcDbEntity
  8
0
100
AcDbLine
 62
9
  6
BYLAYER
 10
83.9895170507
 20
194.1972736183
 30
0.0
 11
84.3990425445
 21
193.9105207805
 31
0.0
  0
LINE
  5
3F0
100
AcDbEntity
  8
0
100
AcDbLine
 62
9
  6
BYLAYER
 10
84.7811069429
 20
195.327781145
 30
0.0
 11
85.1906324367
 21
195.0410283072
 31
0.0
  0
LINE
  5
3F1
100
AcDbEntity
  8
0
100
AcDbLine
 62
9
  6
BYLAYER
 10
71.0179729949
 20
249.4593645098
 30
0.0
 11
71.0179729949
 21
242.2284278444
 31
0.0
  0
LINE
  5
3F2
100
AcDbEntity
  8
0
100
AcDbLine
 62
7
  6
BYLAYER
 10
71.4709069203
 20
253.670352119
 30
0.0
 11
71.4709069203
 21
253.4419419644
 31
0.0
  0
LINE
  5
3F3
100
AcDbEntity
  8
0
100
AcDbLine
 62
9
  6
BYLAYER
 10
71.517910124
 20
249.4862048231
 30
0.0
 11
71.5179113111
 21
242.2284278444
 31
0.0
  0
LINE
  5
3F4
100
AcDbEntity
  8
0
100
AcDbLine
 62
9
  6
BYLAYER
 10
71.596704338
 20
253.5445547012
 30
0.0
 11
71.596704338
 21
242.2365188996
 31
0.0
  0
LINE
  5
3F5
100
AcDbEntity
  8
0
100
AcDbLine
 62
9
  6
BYLAYER
 10
72.0966426542
 20
253.5445547012
 30
0.0
 11
72.0966426542
 21
242.2365188996
 31
0.0
  0
LINE
  5
3F6
100
AcDbEntity
  8
0
100
AcDbLine
 62
9
  6
BYLAYER
 10
77.2046374619
 20
240.5443079662
 30
0.0
 11
77.23833558
 21
240.62566242
 31
0.0
  0
LINE
  5
3F7
100
AcDbEntity
  8
0
100
AcDbLine
 62
9
  6
BYLAYER
 10
76.136787247
 20
237.9662605575
 30
0.0
 11
76.1005104408
 21
237.8786805999
 31
0.0
  0
LINE
  5
3F8
100
AcDbEntity
  8
0
100
AcDbLine
 62
9
  6
BYLAYER
 10
74.2238870669
 20
241.6229621631
 30
0.0
 11
74.1451095025
 21
241.5441845987
 31
0.0
  0
LINE
  5
3F9
100
AcDbEntity
  8
0
100
AcDbLine
 62
9
  6
BYLAYER
 10
75.2237636994
 20
240.6230855306
 30
0.0
 11
75.144986135
 21
240.5443079662
 31
0.0
  0
LINE
  5
3FA
100
AcDbEntity
  8
0
100
AcDbLine
 62
7
  6
BYLAYER
 10
69.6989549149
 20
236.4057969011
 30
0.0
 11
76.3227602662
 21
204.4936254696
 31
0.0
  0
LINE
  5
3FB
100
AcDbEntity
  8
0
100
AcDbLine
 62
9
  6
BYLAYER
 10
69.753159701
 20
236.4040304967
 30
0.0
 11
76.3743747234
 21
204.5043387524
 31
0.0
  0
LINE
  5
3FC
100
AcDbEntity
  8
0
100
AcDbLine
 62
9
  6
BYLAYER
 10
73.5964576029
 20
255.04436965
 30
0.0
 11
73.5964576029
 21
255.5443079662
 31
0.0
  0
LINE
  5
3FD
100
AcDbEntity
  8
0
100
AcDbLine
 62
9
  6
BYLAYER
 10
73.6451711863
 20
252.1960014957
 30
0.0
 11
73.6451711863
 21
241.5441845987
 31
0.0
  0
LINE
  5
3FE
100
AcDbEntity
  8
0
100
AcDbLine
 62
9
  6
BYLAYER
 10
74.1451095025
 20
252.1960014957
 30
0.0
 11
74.1451095025
 21
241.5441845987
 31
0.0
  0
LINE
  5
3FF
100
AcDbEntity
  8
0
100
AcDbLine
 62
9
  6
BYLAYER
 10
74.2238870669
 20
242.8631683628
 30
0.0
 11
74.2238870669
 21
241.6229621631
 31
0.0
  0
LINE
  5
400
100
AcDbEntity
  8
0
100
AcDbLine
 62
7
  6
BYLAYER
 10
74.2709069203
 20
244.4842678458
 30
0.0
 11
74.2709069203
 21
252.0702040779
 31
0.0
  0
LINE
  5
401
100
AcDbEntity
  8
0
100
AcDbLine
 62
9
  6
BYLAYER
 10
74.5329548052
 20
255.04436965
 30
0.0
 11
74.5329548052
 21
255.5443079662
 31
0.0
  0
LINE
  5
402
100
AcDbEntity
  8
0
100
AcDbLine
 62
9
  6
BYLAYER
 10
74.7248252598
 20
242.8631683628
 30
0.0
 11
74.7248252598
 21
241.6229621631
 31
0.0
  0
LINE
  5
403
100
AcDbEntity
  8
0
100
AcDbLine
 62
9
  6
BYLAYER
 10
74.9450108085
 20
252.9959028016
 30
0.0
 11
74.9450108005
 21
253.4958411162
 31
0.0
  0
LINE
  5
404
100
AcDbEntity
  8
0
100
AcDbLine
 62
9
  6
BYLAYER
 10
75.144986135
 20
240.5443079662
 30
0.0
 11
75.144986135
 21
240.04436965
 31
0.0
  0
LINE
  5
405
100
AcDbEntity
  8
0
100
AcDbLine
 62
9
  6
BYLAYER
 10
75.2237636994
 20
240.6230855306
 30
0.0
 11
75.223763652
 21
241.1240237235
 31
0.0
  0
LINE
  5
406
100
AcDbEntity
  8
0
100
AcDbLine
 62
9
  6
BYLAYER
 10
75.7709069203
 20
252.8701053839
 30
0.0
 11
75.7709069203
 21
252.9959028016
 31
0.0
  0
LINE
  5
407
100
AcDbEntity
  8
0
100
AcDbLine
 62
9
  6
BYLAYER
 10
75.9185105732
 20
238.4661844051
 30
0.0
 11
75.9185105732
 21
237.9662605575
 31
0.0
  0
LINE
  5
408
100
AcDbEntity
  8
0
100
AcDbLine
 62
9
  6
BYLAYER
 10
76.0261356373
 20
237.3787567524
 30
0.0
 11
76.0261356373
 21
237.8786805999
 31
0.0
  0
LINE
  5
409
100
AcDbEntity
  8
0
100
AcDbLine
 62
9
  6
BYLAYER
 10
76.1005104408
 20
237.3787567524
 30
0.0
 11
76.1005104408
 21
237.8786805999
 31
0.0
  0
LINE
  5
40A
100
AcDbEntity
  8
0
100
AcDbLine
 62
9
  6
BYLAYER
 10
76.136787247
 20
238.4661844051
 30
0.0
 11
76.136787247
 21
237.9662605575
 31
0.0
  0
LINE
  5
40B
100
AcDbEntity
  8
0
100
AcDbLine
 62
9
  6
BYLAYER
 10
76.8437863324
 20
237.6734119477
 30
0.0
 11
76.8075095262
 21
237.5858319902
 31
0.0
  0
LINE
  5
40C
100
AcDbEntity
  8
0
100
AcDbLine
 62
9
  6
BYLAYER
 10
77.9507053335
 20
240.3457218754
 30
0.0
 11
77.911657009
 21
240.2514508809
 31
0.0
  0
LINE
  5
40D
100
AcDbEntity
  8
0
100
AcDbLine
 62
9
  6
BYLAYER
 10
77.911657009
 20
240.2514508809
 30
0.0
 11
77.5581472355
 21
239.8979411073
 31
0.0
  0
LINE
  5
40E
100
AcDbEntity
  8
0
100
AcDbLine
 62
9
  6
BYLAYER
 10
77.1972858751
 20
238.0269114904
 30
0.0
 11
76.8437863324
 21
237.6734119477
 31
0.0
  0
LINE
  5
40F
100
AcDbEntity
  8
0
100
AcDbLine
 62
9
  6
BYLAYER
 10
76.4540099835
 20
237.2323324475
 30
0.0
 11
76.8075095262
 21
237.5858319902
 31
0.0
  0
LINE
  5
410
100
AcDbEntity
  8
0
100
AcDbLine
 62
9
  6
BYLAYER
 10
74.2709069203
 20
244.4842678458
 30
0.0
 11
74.239380497
 21
244.4712091737
 31
0.0
  0
LINE
  5
411
100
AcDbEntity
  8
0
100
AcDbLine
 62
9
  6
BYLAYER
 10
74.5639130344
 20
243.7773100284
 30
0.0
 11
74.5322375823
 21
243.7641896265
 31
0.0
  0
LINE
  5
412
100
AcDbEntity
  8
0
100
AcDbLine
 62
9
  6
BYLAYER
 10
70.2425572568
 20
236.5056116178
 30
0.0
 11
76.8637722793
 21
204.6059198734
 31
0.0
  0
LINE
  5
413
100
AcDbEntity
  8
0
100
AcDbLine
 62
9
  6
BYLAYER
 10
71.4457421909
 20
238.0626881902
 30
0.0
 11
77.0995470353
 21
210.8237854949
 31
0.0
  0
LINE
  5
414
100
AcDbEntity
  8
0
100
AcDbLine
 62
9
  6
BYLAYER
 10
71.9352471121
 20
238.1642915964
 30
0.0
 11
77.5890519566
 21
210.9253889011
 31
0.0
  0
LINE
  5
415
100
AcDbEntity
  8
0
100
AcDbLine
 62
9
  6
BYLAYER
 10
72.014040139
 20
238.1723826517
 30
0.0
 11
77.6676384831
 21
210.9344748336
 31
0.0
  0
LINE
  5
416
100
AcDbEntity
  8
0
100
AcDbLine
 62
9
  6
BYLAYER
 10
72.5035450602
 20
238.2739860579
 30
0.0
 11
78.1571434043
 21
211.0360782398
 31
0.0
  0
LINE
  5
417
100
AcDbEntity
  8
0
100
AcDbLine
 62
9
  6
BYLAYER
 10
76.4639698991
 20
241.1240237235
 30
0.0
 11
76.4639698991
 21
240.6230855306
 31
0.0
  0
LINE
  5
418
100
AcDbEntity
  8
0
100
AcDbLine
 62
9
  6
BYLAYER
 10
77.2046374619
 20
240.5443079662
 30
0.0
 11
77.2046374619
 21
240.04436965
 31
0.0
  0
LINE
  5
419
100
AcDbEntity
  8
0
100
AcDbLine
 62
9
  6
BYLAYER
 10
79.2218123066
 20
235.1715292097
 30
0.0
 11
79.2580891128
 21
235.2591091672
 31
0.0
  0
LINE
  5
41A
100
AcDbEntity
  8
0
100
AcDbLine
 62
9
  6
BYLAYER
 10
79.928811392
 20
234.8786805999
 30
0.0
 11
79.9650881982
 21
234.9662605575
 31
0.0
  0
LINE
  5
41B
100
AcDbEntity
  8
0
100
AcDbLine
 62
9
  6
BYLAYER
 10
81.0244783776
 20
237.3165339266
 30
0.0
 11
80.9723696762
 21
237.1907382137
 31
0.0
  0
LINE
  5
41C
100
AcDbEntity
  8
0
100
AcDbLine
 62
9
  6
BYLAYER
 10
81.3779881512
 20
237.1701053839
 30
0.0
 11
81.3258811547
 21
237.0443079662
 31
0.0
  0
LINE
  5
41D
100
AcDbEntity
  8
0
100
AcDbLine
 62
9
  6
BYLAYER
 10
80.9723713811
 20
237.1907365089
 30
0.0
 11
80.6188616075
 21
236.8372267353
 31
0.0
  0
LINE
  5
41E
100
AcDbEntity
  8
0
100
AcDbLine
 62
9
  6
BYLAYER
 10
79.6115886555
 20
235.6126087099
 30
0.0
 11
79.2580891128
 21
235.2591091672
 31
0.0
  0
LINE
  5
41F
100
AcDbEntity
  8
0
100
AcDbLine
 62
9
  6
BYLAYER
 10
78.8683127639
 20
234.818029667
 30
0.0
 11
79.2218123066
 21
235.1715292097
 31
0.0
  0
LINE
  5
420
100
AcDbEntity
  8
0
100
AcDbLine
 62
9
  6
BYLAYER
 10
79.8843138349
 20
210.480357191
 30
0.0
 11
74.4500383097
 21
236.6616114652
 31
0.0
  0
LINE
  5
421
100
AcDbEntity
  8
0
100
AcDbLine
 62
9
  6
BYLAYER
 10
80.3738045894
 20
210.5819576567
 30
0.0
 11
74.9395290642
 21
236.7632119309
 31
0.0
  0
LINE
  5
422
100
AcDbEntity
  8
0
100
AcDbLine
 62
9
  6
BYLAYER
 10
80.4497620121
 20
210.6469460712
 30
0.0
 11
75.0471541283
 21
236.6756319734
 31
0.0
  0
LINE
  5
423
100
AcDbEntity
  8
0
100
AcDbLine
 62
9
  6
BYLAYER
 10
80.361647315
 20
213.531334257
 30
0.0
 11
75.5366448828
 21
236.7772324391
 31
0.0
  0
LINE
  5
424
100
AcDbEntity
  8
0
100
AcDbLine
 62
9
  6
BYLAYER
 10
79.928811392
 20
234.3787567524
 30
0.0
 11
79.928811392
 21
234.8786805999
 31
0.0
  0
LINE
  5
425
100
AcDbEntity
  8
0
100
AcDbLine
 62
9
  6
BYLAYER
 10
79.9650881982
 20
235.4661844051
 30
0.0
 11
79.9650881982
 21
234.9662605575
 31
0.0
  0
LINE
  5
426
100
AcDbEntity
  8
DEFAULT_1
100
AcDbLine
 62
7
  6
BYLAYER
 10
80.3461848588
 20
230.8701053839
 30
0.0
 11
80.3461848588
 21
226.2701053839
 31
0.0
  0
LINE
  5
427
100
AcDbEntity
  8
DEFAULT_1
100
AcDbLine
 62
7
  6
BYLAYER
 10
80.3461848588
 20
230.8701053839
 30
0.0
 11
80.3461848588
 21
235.4701053839
 31
0.0
  0
LINE
  5
428
100
AcDbEntity
  8
0
100
AcDbLine
 62
9
  6
BYLAYER
 10
81.3258811547
 20
237.0443079662
 30
0.0
 11
81.3258811547
 21
236.54436965
 31
0.0
  0
LINE
  5
429
100
AcDbEntity
  8
0
100
AcDbLine
 62
9
  6
BYLAYER
 10
81.9845121462
 20
220.3704525239
 30
0.0
 11
80.9943530322
 21
225.1408414037
 31
0.0
  0
LINE
  5
42A
100
AcDbEntity
  8
0
100
AcDbLine
 62
9
  6
BYLAYER
 10
82.4740235916
 20
220.4720572843
 30
0.0
 11
81.4838644776
 21
225.2424461641
 31
0.0
  0
LINE
  5
42B
100
AcDbEntity
  8
0
100
AcDbLine
 62
7
  6
BYLAYER
 10
81.5173186704
 20
225.227816551
 30
0.0
 11
82.5056480446
 21
220.466242992
 31
0.0
  0
LINE
  5
42C
100
AcDbEntity
  8
0
100
AcDbLine
 62
9
  6
BYLAYER
 10
80.8543868371
 20
213.4440170844
 30
0.0
 11
80.857234274
 21
213.4655171916
 31
0.0
  0
LINE
  5
42D
100
AcDbEntity
  8
0
100
AcDbLine
 62
9
  6
BYLAYER
 10
71.4300894224
 20
252.8247441503
 30
0.0
 11
71.3984653015
 21
252.9081608737
 31
0.0
  0
LINE
  5
42E
100
AcDbEntity
  8
0
100
AcDbLine
 62
9
  6
BYLAYER
 10
71.502448806
 20
253.358742157
 30
0.0
 11
71.4709069203
 21
253.4419419644
 31
0.0
  0
LINE
  5
42F
100
AcDbEntity
  8
0
100
AcDbLine
 62
9
  6
BYLAYER
 10
86.0876111793
 20
231.3998331847
 30
0.0
 11
86.0876111793
 21
230.8998882052
 31
0.0
  0
LINE
  5
430
100
AcDbEntity
  8
0
100
AcDbLine
 62
9
  6
BYLAYER
 10
82.1670394914
 20
227.7990580082
 30
0.0
 11
82.4220136432
 21
227.3690194467
 31
0.0
  0
LINE
  5
431
100
AcDbEntity
  8
0
100
AcDbLine
 62
9
  6
BYLAYER
 10
91.6867374216
 20
231.3998331847
 30
0.0
 11
91.6867374216
 21
230.8998882052
 31
0.0
  0
LINE
  5
432
100
AcDbEntity
  8
0
100
AcDbLine
 62
9
  6
BYLAYER
 10
76.3227602662
 20
204.4936254696
 30
0.0
 11
76.8637722793
 21
204.6059198734
 31
0.0
  0
LINE
  5
433
100
AcDbEntity
  8
0
100
AcDbLine
 62
9
  6
BYLAYER
 10
126.9801665255
 20
213.531334257
 30
0.0
 11
126.4845795665
 21
213.4655171918
 31
0.0
  0
LINE
  5
434
100
AcDbEntity
  8
0
100
AcDbLine
 62
9
  6
BYLAYER
 10
77.753353316
 20
209.5049543938
 30
0.0
 11
77.8319825161
 21
209.5123707619
 31
0.0
  0
LINE
  5
435
100
AcDbEntity
  8
0
100
AcDbLine
 62
9
  6
BYLAYER
 10
80.0724537796
 20
208.987934198
 30
0.0
 11
80.5718598335
 21
209.0109974449
 31
0.0
  0
LINE
  5
436
100
AcDbEntity
  8
0
100
AcDbLine
 62
9
  6
BYLAYER
 10
77.2535795598
 20
209.4921281443
 30
0.0
 11
77.753353316
 21
209.5049543938
 31
0.0
  0
LINE
  5
437
100
AcDbEntity
  8
0
100
AcDbLine
 62
9
  6
BYLAYER
 10
78.3317589394
 20
209.5250926637
 30
0.0
 11
77.8319825161
 21
209.5123707619
 31
0.0
  0
LINE
  5
438
100
AcDbEntity
  8
0
100
AcDbLine
 62
9
  6
BYLAYER
 10
129.0100549012
 20
209.5250926637
 30
0.0
 11
129.5098313244
 21
209.5123707619
 31
0.0
  0
LINE
  5
439
100
AcDbEntity
  8
0
100
AcDbLine
 62
9
  6
BYLAYER
 10
130.0882342807
 20
209.4921281443
 30
0.0
 11
129.5884605245
 21
209.5049543938
 31
0.0
  0
LINE
  5
43A
100
AcDbEntity
  8
0
100
AcDbLine
 62
9
  6
BYLAYER
 10
127.2693600609
 20
208.9879341979
 30
0.0
 11
126.769954007
 21
209.0109974449
 31
0.0
  0
LINE
  5
43B
100
AcDbEntity
  8
0
100
AcDbLine
 62
9
  6
BYLAYER
 10
129.5884605245
 20
209.5049543938
 30
0.0
 11
129.5098313244
 21
209.5123707619
 31
0.0
  0
LINE
  5
43C
100
AcDbEntity
  8
0
100
AcDbLine
 62
9
  6
BYLAYER
 10
80.361647315
 20
213.531334257
 30
0.0
 11
80.857234274
 21
213.4655171918
 31
0.0
  0
LINE
  5
43D
100
AcDbEntity
  8
0
100
AcDbLine
 62
9
  6
BYLAYER
 10
130.4780415613
 20
204.6059198734
 30
0.0
 11
131.0190535743
 21
204.4936254696
 31
0.0
  0
LINE
  5
43E
100
AcDbEntity
  8
0
100
AcDbLine
 62
9
  6
BYLAYER
 10
81.9117032017
 20
219.5165870731
 30
0.0
 11
82.3769381277
 21
219.3335712714
 31
0.0
  0
LINE
  5
43F
100
AcDbEntity
  8
0
100
AcDbLine
 62
9
  6
BYLAYER
 10
127.0536551015
 20
197.8582442128
 30
0.0
 11
126.6112907499
 21
198.0911650158
 31
0.0
  0
LINE
  5
440
100
AcDbEntity
  8
0
100
AcDbLine
 62
9
  6
BYLAYER
 10
122.5607068976
 20
195.327781145
 30
0.0
 11
122.1531630312
 21
195.6173434301
 31
0.0
  0
LINE
  5
441
100
AcDbEntity
  8
0
100
AcDbLine
 62
9
  6
BYLAYER
 10
75.5735413521
 20
253.4958411179
 30
0.0
 11
74.9860527943
 21
254.7557143959
 31
0.0
  0
LINE
  5
442
100
AcDbEntity
  8
0
100
AcDbLine
 62
9
  6
BYLAYER
 10
76.1100496345
 20
253.5282502288
 30
0.0
 11
75.4391507833
 21
254.9669974581
 31
0.0
  0
LINE
  5
443
100
AcDbEntity
  8
0
100
AcDbLine
 62
7
  6
BYLAYER
 10
76.2240608138
 20
253.5814145148
 30
0.0
 11
75.5192925771
 21
255.0927948758
 31
0.0
  0
LINE
  5
444
100
AcDbEntity
  8
0
100
AcDbLine
 62
9
  6
BYLAYER
 10
79.8843138349
 20
210.480357191
 30
0.0
 11
80.3738045894
 21
210.5819576567
 31
0.0
  0
LINE
  5
445
100
AcDbEntity
  8
0
100
AcDbLine
 62
9
  6
BYLAYER
 10
80.5376365087
 20
210.6651856186
 30
0.0
 11
80.4497620121
 21
210.6469460712
 31
0.0
  0
LINE
  5
446
100
AcDbEntity
  8
0
100
AcDbLine
 62
9
  6
BYLAYER
 10
124.9648757128
 20
219.3335712714
 30
0.0
 11
124.9334207271
 21
219.3273676051
 31
0.0
  0
LINE
  5
447
100
AcDbEntity
  8
0
100
AcDbLine
 62
9
  6
BYLAYER
 10
82.4083931135
 20
219.3273676051
 30
0.0
 11
82.3769381277
 21
219.3335712714
 31
0.0
  0
LINE
  5
448
100
AcDbEntity
  8
0
100
AcDbLine
 62
9
  6
BYLAYER
 10
127.4575000057
 20
210.4803571909
 30
0.0
 11
126.9680092512
 21
210.5819576566
 31
0.0
  0
LINE
  5
449
100
AcDbEntity
  8
0
100
AcDbLine
 62
9
  6
BYLAYER
 10
126.8920518285
 20
210.6469460713
 30
0.0
 11
126.8041773318
 21
210.6651856186
 31
0.0
  0
LINE
  5
44A
100
AcDbEntity
  8
0
100
AcDbLine
 62
9
  6
BYLAYER
 10
82.422013645
 20
227.3690194477
 30
0.0
 11
82.4494942468
 21
227.3507177073
 31
0.0
  0
LINE
  5
44B
100
AcDbEntity
  8
0
100
AcDbLine
 62
9
  6
BYLAYER
 10
123.3522967898
 20
194.1972736183
 30
0.0
 11
123.7404824794
 21
193.8822336361
 31
0.0
  0
LINE
  5
44C
100
AcDbEntity
  8
0
100
AcDbLine
 62
9
  6
BYLAYER
 10
84.1960799523
 20
229.5491301186
 30
0.0
 11
84.2195846815
 21
229.5259425168
 31
0.0
  0
LINE
  5
44D
100
AcDbEntity
  8
0
100
AcDbLine
 62
9
  6
BYLAYER
 10
76.4540099835
 20
237.2323324475
 30
0.0
 11
78.8683127639
 21
234.818029667
 31
0.0
  0
LINE
  5
44E
100
AcDbEntity
  8
0
100
AcDbLine
 62
9
  6
BYLAYER
 10
76.8075095262
 20
237.5858319902
 30
0.0
 11
79.2218123066
 21
235.1715292097
 31
0.0
  0
LINE
  5
44F
100
AcDbEntity
  8
0
100
AcDbLine
 62
9
  6
BYLAYER
 10
76.8437863324
 20
237.6734119477
 30
0.0
 11
79.2580891128
 21
235.2591091672
 31
0.0
  0
LINE
  5
450
100
AcDbEntity
  8
0
100
AcDbLine
 62
9
  6
BYLAYER
 10
77.1972858751
 20
238.0269114904
 30
0.0
 11
79.6115886555
 21
235.6126087099
 31
0.0
  0
LINE
  5
451
100
AcDbEntity
  8
0
100
AcDbLine
 62
9
  6
BYLAYER
 10
78.1571434043
 20
211.0360782398
 30
0.0
 11
77.6676384831
 21
210.9344748336
 31
0.0
  0
LINE
  5
452
100
AcDbEntity
  8
0
100
AcDbLine
 62
9
  6
BYLAYER
 10
77.0995470353
 20
210.8237854949
 30
0.0
 11
77.5890519566
 21
210.9253889011
 31
0.0
  0
LINE
  5
453
100
AcDbEntity
  8
0
100
AcDbLine
 62
9
  6
BYLAYER
 10
129.1846704362
 20
211.0360782398
 30
0.0
 11
129.6741753574
 21
210.9344748336
 31
0.0
  0
LINE
  5
454
100
AcDbEntity
  8
0
100
AcDbLine
 62
9
  6
BYLAYER
 10
130.2422668052
 20
210.8237854949
 30
0.0
 11
129.752761884
 21
210.9253889011
 31
0.0
  0
LINE
  5
455
100
AcDbEntity
  8
0
100
AcDbLine
 62
9
  6
BYLAYER
 10
74.9395290642
 20
236.7632119309
 30
0.0
 11
75.0471541283
 21
236.6756319734
 31
0.0
  0
LINE
  5
456
100
AcDbEntity
  8
0
100
AcDbLine
 62
9
  6
BYLAYER
 10
75.9185105732
 20
237.9662605575
 30
0.0
 11
76.0261356373
 21
237.8786805999
 31
0.0
  0
LINE
  5
457
100
AcDbEntity
  8
0
100
AcDbLine
 62
9
  6
BYLAYER
 10
77.5581472355
 20
239.8979411073
 30
0.0
 11
80.6188616075
 21
236.8372267353
 31
0.0
  0
LINE
  5
458
100
AcDbEntity
  8
0
100
AcDbLine
 62
9
  6
BYLAYER
 10
76.4639698991
 20
241.1240237235
 30
0.0
 11
74.7248252598
 21
242.8631683628
 31
0.0
  0
LINE
  5
459
100
AcDbEntity
  8
0
100
AcDbLine
 62
9
  6
BYLAYER
 10
77.911657009
 20
240.2514508809
 30
0.0
 11
80.9723696762
 21
237.1907382137
 31
0.0
  0
LINE
  5
45A
100
AcDbEntity
  8
0
100
AcDbLine
 62
9
  6
BYLAYER
 10
77.9507053335
 20
240.3457218754
 30
0.0
 11
74.5322375823
 21
243.7641896265
 31
0.0
  0
LINE
  5
45B
100
AcDbEntity
  8
0
100
AcDbLine
 62
7
  6
BYLAYER
 10
81.0244783776
 20
237.3165339266
 30
0.0
 11
77.0607180853
 21
241.2803398403
 31
0.0
  0
LINE
  5
45C
100
AcDbEntity
  8
0
100
AcDbLine
 62
7
  6
BYLAYER
 10
76.8953094702
 20
241.4456273155
 30
0.0
 11
74.5639130344
 21
243.7773100284
 31
0.0
  0
LINE
  5
45D
100
AcDbEntity
  8
0
100
AcDbLine
 62
9
  6
BYLAYER
 10
92.3516784894
 20
231.5552872498
 30
0.0
 11
92.5733231397
 21
231.1071667649
 31
0.0
  0
LINE
  5
45E
100
AcDbEntity
  8
0
100
AcDbLine
 62
9
  6
BYLAYER
 10
92.5733231398
 20
231.1071667649
 30
0.0
 11
92.5844682028
 21
231.0774898044
 31
0.0
  0
LINE
  5
45F
100
AcDbEntity
  8
0
100
AcDbLine
 62
9
  6
BYLAYER
 10
101.8923434244
 20
234.1395614676
 30
0.0
 11
101.9271699222
 21
233.6408376612
 31
0.0
  0
LINE
  5
460
100
AcDbEntity
  8
0
100
AcDbLine
 62
9
  6
BYLAYER
 10
105.4146439183
 20
233.6408376612
 30
0.0
 11
105.4078300812
 21
233.6096943527
 31
0.0
  0
LINE
  5
461
100
AcDbEntity
  8
0
100
AcDbLine
 62
9
  6
BYLAYER
 10
104.5941881698
 20
234.3787567524
 30
0.0
 11
104.4634827299
 21
233.8962068503
 31
0.0
  0
LINE
  5
462
100
AcDbEntity
  8
0
100
AcDbLine
 62
9
  6
BYLAYER
 10
104.8055101434
 20
233.7813189531
 30
0.0
 11
104.7964783867
 21
233.7509485787
 31
0.0
  0
LINE
  5
463
100
AcDbEntity
  8
0
100
AcDbLine
 62
9
  6
BYLAYER
 10
104.9926200849
 20
234.2449224363
 30
0.0
 11
104.8055101438
 21
233.7813189529
 31
0.0
  0
LINE
  5
464
100
AcDbEntity
  8
0
100
AcDbLine
 62
9
  6
BYLAYER
 10
133.7453562376
 20
255.5443079662
 30
0.0
 11
133.8711536553
 21
255.6701053839
 31
0.0
  0
LINE
  5
465
100
AcDbEntity
  8
0
100
AcDbLine
 62
9
  6
BYLAYER
 10
132.2710056143
 20
252.8701053839
 30
0.0
 11
132.396803032
 21
252.9959028016
 31
0.0
  0
LINE
  5
466
100
AcDbEntity
  8
0
100
AcDbLine
 62
9
  6
BYLAYER
 10
81.9845121462
 20
220.3704525239
 30
0.0
 11
82.4740235916
 21
220.4720572843
 31
0.0
  0
LINE
  5
467
100
AcDbEntity
  8
0
100
AcDbLine
 62
9
  6
BYLAYER
 10
125.3573016944
 20
220.3704525239
 30
0.0
 11
124.867790249
 21
220.4720572843
 31
0.0
  0
LINE
  5
468
100
AcDbEntity
  8
0
100
AcDbLine
 62
9
  6
BYLAYER
 10
83.7231971455
 20
229.7113855765
 30
0.0
 11
84.1960799552
 21
229.549130127
 31
0.0
  0
LINE
  5
469
100
AcDbEntity
  8
0
100
AcDbLine
 62
9
  6
BYLAYER
 10
71.596704338
 20
253.5445547012
 30
0.0
 11
71.4709069203
 21
253.670352119
 31
0.0
  0
LINE
  5
46A
100
AcDbEntity
  8
0
100
AcDbLine
 62
9
  6
BYLAYER
 10
74.2709069203
 20
252.0702040779
 30
0.0
 11
74.1451095025
 21
252.1960014957
 31
0.0
  0
LINE
  5
46B
100
AcDbEntity
  8
0
100
AcDbLine
 62
9
  6
BYLAYER
 10
75.0708082263
 20
252.8701053839
 30
0.0
 11
74.9450108085
 21
252.9959028016
 31
0.0
  0
LINE
  5
46C
100
AcDbEntity
  8
0
100
AcDbLine
 62
7
  6
BYLAYER
 10
121.9971466017
 20
195.041691698
 30
0.0
 11
122.9350439938
 21
193.7022354069
 31
0.0
  0
LINE
  5
46D
100
AcDbEntity
  8
0
100
AcDbLine
 62
9
  6
BYLAYER
 10
122.1511814038
 20
195.0410283072
 30
0.0
 11
122.942771296
 21
193.9105207805
 31
0.0
  0
LINE
  5
46E
100
AcDbEntity
  8
0
100
AcDbLine
 62
9
  6
BYLAYER
 10
122.5607068976
 20
195.327781145
 30
0.0
 11
123.3522967898
 21
194.1972736183
 31
0.0
  0
LINE
  5
46F
100
AcDbEntity
  8
0
100
AcDbLine
 62
9
  6
BYLAYER
 10
101.9271699222
 20
233.6408376612
 30
0.0
 11
101.9339837594
 21
233.6096943527
 31
0.0
  0
LINE
  5
470
100
AcDbEntity
  8
0
100
AcDbLine
 62
9
  6
BYLAYER
 10
105.4494704161
 20
234.1395614674
 30
0.0
 11
105.4146439183
 21
233.6408376612
 31
0.0
  0
LINE
  5
471
100
AcDbEntity
  8
0
100
AcDbLine
 62
9
  6
BYLAYER
 10
83.9895170507
 20
194.1972736183
 30
0.0
 11
84.7811069429
 21
195.327781145
 31
0.0
  0
LINE
  5
472
100
AcDbEntity
  8
0
100
AcDbLine
 62
9
  6
BYLAYER
 10
84.3990425445
 20
193.9105207805
 30
0.0
 11
85.1906324367
 21
195.0410283072
 31
0.0
  0
LINE
  5
473
100
AcDbEntity
  8
0
100
AcDbLine
 62
7
  6
BYLAYER
 10
84.4067698467
 20
193.7022354069
 30
0.0
 11
85.3446672388
 21
195.041691698
 31
0.0
  0
LINE
  5
474
100
AcDbEntity
  8
0
100
AcDbLine
 62
9
  6
BYLAYER
 10
133.0709069203
 20
252.0702040779
 30
0.0
 11
133.196704338
 21
252.1960014957
 31
0.0
  0
LINE
  5
475
100
AcDbEntity
  8
0
100
AcDbLine
 62
9
  6
BYLAYER
 10
135.7451095025
 20
253.5445547012
 30
0.0
 11
135.8709069203
 21
253.670352119
 31
0.0
  0
LINE
  5
476
100
AcDbEntity
  8
0
100
AcDbLine
 62
9
  6
BYLAYER
 10
73.5964576029
 20
255.5443079662
 30
0.0
 11
73.4706601852
 21
255.6701053839
 31
0.0
  0
LINE
  5
477
100
AcDbEntity
  8
0
100
AcDbLine
 62
9
  6
BYLAYER
 10
102.3491937556
 20
234.2449224365
 30
0.0
 11
102.5363036969
 21
233.781318953
 31
0.0
  0
LINE
  5
478
100
AcDbEntity
  8
0
100
AcDbLine
 62
9
  6
BYLAYER
 10
102.5363036971
 20
233.7813189531
 30
0.0
 11
102.5453354539
 21
233.7509485787
 31
0.0
  0
LINE
  5
479
100
AcDbEntity
  8
0
100
AcDbLine
 62
9
  6
BYLAYER
 10
102.7476256708
 20
234.3787567524
 30
0.0
 11
102.8783311107
 21
233.8962068503
 31
0.0
  0
LINE
  5
47A
100
AcDbEntity
  8
0
100
AcDbLine
 62
9
  6
BYLAYER
 10
80.9943530322
 20
225.1408414037
 30
0.0
 11
81.4838644776
 21
225.2424461641
 31
0.0
  0
LINE
  5
47B
100
AcDbEntity
  8
0
100
AcDbLine
 62
7
  6
BYLAYER
 10
128.3709069262
 20
230.2701053839
 30
0.0
 11
128.7209069262
 21
230.2701053839
 31
0.0
  0
LINE
  5
47C
100
AcDbEntity
  8
0
100
AcDbLine
 62
7
  6
BYLAYER
 10
122.0810237181
 20
230.8701053839
 30
0.0
 11
115.6441312355
 21
230.8701053839
 31
0.0
  0
LINE
  5
47D
100
AcDbEntity
  8
0
100
AcDbLine
 62
7
  6
BYLAYER
 10
91.697682605
 20
230.8701053839
 30
0.0
 11
86.1087344403
 21
230.8701053839
 31
0.0
  0
LINE
  5
47E
100
AcDbEntity
  8
DEFAULT_1
100
AcDbLine
 62
7
  6
BYLAYER
 10
80.3461848588
 20
230.8701053839
 30
0.0
 11
75.7461848588
 21
230.8701053839
 31
0.0
  0
LINE
  5
47F
100
AcDbEntity
  8
DEFAULT_1
100
AcDbLine
 62
7
  6
BYLAYER
 10
80.3461848588
 20
230.8701053839
 30
0.0
 11
84.9461848588
 21
230.8701053839
 31
0.0
  0
LINE
  5
480
100
AcDbEntity
  8
0
100
AcDbLine
 62
9
  6
BYLAYER
 10
86.0876111793
 20
230.8998882052
 30
0.0
 11
91.6867374216
 21
230.8998882052
 31
0.0
  0
LINE
  5
481
100
AcDbEntity
  8
0
100
AcDbLine
 62
9
  6
BYLAYER
 10
115.6550764189
 20
230.8998882052
 30
0.0
 11
122.1172582042
 21
230.8998882052
 31
0.0
  0
LINE
  5
482
100
AcDbEntity
  8
0
100
AcDbLine
 62
9
  6
BYLAYER
 10
126.5228612129
 20
225.9858855258
 30
0.0
 11
126.0333497675
 21
226.0874902862
 31
0.0
  0
LINE
  5
483
100
AcDbEntity
  8
0
100
AcDbLine
 62
9
  6
BYLAYER
 10
114.7573456377
 20
231.0774898044
 30
0.0
 11
114.7684907008
 21
231.1071667649
 31
0.0
  0
LINE
  5
484
100
AcDbEntity
  8
0
100
AcDbLine
 62
9
  6
BYLAYER
 10
114.9901353511
 20
231.5552872498
 30
0.0
 11
114.7684907008
 21
231.1071667649
 31
0.0
  0
LINE
  5
485
100
AcDbEntity
  8
0
100
AcDbLine
 62
7
  6
BYLAYER
 10
132.7779008091
 20
243.7773100272
 30
0.0
 11
126.3173354629
 21
237.3165339266
 31
0.0
  0
LINE
  5
486
100
AcDbEntity
  8
0
100
AcDbLine
 62
9
  6
BYLAYER
 10
132.8095762582
 20
243.7641896265
 30
0.0
 11
130.5236271483
 21
241.4782405166
 31
0.0
  0
LINE
  5
487
100
AcDbEntity
  8
0
100
AcDbLine
 62
9
  6
BYLAYER
 10
126.3694466522
 20
237.1907407016
 30
0.0
 11
129.4301568315
 21
240.2514508809
 31
0.0
  0
LINE
  5
488
100
AcDbEntity
  8
0
100
AcDbLine
 62
9
  6
BYLAYER
 10
132.6169885807
 20
242.8631683628
 30
0.0
 11
130.8778439414
 21
241.1240237235
 31
0.0
  0
LINE
  5
489
100
AcDbEntity
  8
0
100
AcDbLine
 62
9
  6
BYLAYER
 10
126.722952233
 20
236.8372267353
 30
0.0
 11
129.7836666051
 21
239.8979411073
 31
0.0
  0
LINE
  5
48A
100
AcDbEntity
  8
0
100
AcDbLine
 62
9
  6
BYLAYER
 10
127.730225185
 20
235.6126087099
 30
0.0
 11
130.1445279655
 21
238.0269114904
 31
0.0
  0
LINE
  5
48B
100
AcDbEntity
  8
0
100
AcDbLine
 62
9
  6
BYLAYER
 10
122.1172582042
 20
230.8998882052
 30
0.0
 11
122.0806587569
 21
230.8701053839
 31
0.0
  0
LINE
  5
48C
100
AcDbEntity
  8
0
100
AcDbLine
 62
9
  6
BYLAYER
 10
131.4233032673
 20
237.9662605575
 30
0.0
 11
131.3156782033
 21
237.8786805999
 31
0.0
  0
LINE
  5
48D
100
AcDbEntity
  8
0
100
AcDbLine
 62
9
  6
BYLAYER
 10
132.4022847763
 20
236.7632119309
 30
0.0
 11
132.2946597123
 21
236.6756319734
 31
0.0
  0
LINE
  5
48E
100
AcDbEntity
  8
0
100
AcDbLine
 62
9
  6
BYLAYER
 10
86.0876111793
 20
231.3998331847
 30
0.0
 11
91.6867374216
 21
231.3998331847
 31
0.0
  0
LINE
  5
48F
100
AcDbEntity
  8
0
100
AcDbLine
 62
9
  6
BYLAYER
 10
115.6550764189
 20
231.3998331847
 30
0.0
 11
122.1172582042
 21
231.3998331847
 31
0.0
  0
LINE
  5
490
100
AcDbEntity
  8
0
100
AcDbLine
 62
7
  6
BYLAYER
 10
128.7209069262
 20
233.0701053839
 30
0.0
 11
128.3709069262
 21
233.0701053839
 31
0.0
  0
LINE
  5
491
100
AcDbEntity
  8
0
100
AcDbLine
 62
9
  6
BYLAYER
 10
115.6550764189
 20
231.3998331847
 30
0.0
 11
115.6550764189
 21
230.8998882052
 31
0.0
  0
LINE
  5
492
100
AcDbEntity
  8
0
100
AcDbLine
 62
7
  6
BYLAYER
 10
131.8225212635
 20
255.0927948758
 30
0.0
 11
131.1177530267
 21
253.5814145148
 31
0.0
  0
LINE
  5
493
100
AcDbEntity
  8
0
100
AcDbLine
 62
9
  6
BYLAYER
 10
131.9026630572
 20
254.9669974581
 30
0.0
 11
131.231764206
 21
253.5282502288
 31
0.0
  0
LINE
  5
494
100
AcDbEntity
  8
0
100
AcDbLine
 62
9
  6
BYLAYER
 10
128.0837241661
 20
235.2591086056
 30
0.0
 11
130.4980275082
 21
237.6734119477
 31
0.0
  0
LINE
  5
495
100
AcDbEntity
  8
0
100
AcDbLine
 62
9
  6
BYLAYER
 10
128.1200015339
 20
235.1715292097
 30
0.0
 11
130.5343043144
 21
237.5858319902
 31
0.0
  0
LINE
  5
496
100
AcDbEntity
  8
0
100
AcDbLine
 62
9
  6
BYLAYER
 10
128.4735010766
 20
234.818029667
 30
0.0
 11
130.8878038571
 21
237.2323324475
 31
0.0
  0
LINE
  5
497
100
AcDbEntity
  8
0
100
AcDbLine
 62
9
  6
BYLAYER
 10
83.9895170507
 20
194.1972736183
 30
0.0
 11
83.6013313612
 21
193.8822336359
 31
0.0
  0
LINE
  5
498
100
AcDbEntity
  8
0
100
AcDbLine
 62
9
  6
BYLAYER
 10
80.288158739
 20
197.8582442128
 30
0.0
 11
80.7305230906
 21
198.0911650158
 31
0.0
  0
LINE
  5
499
100
AcDbEntity
  8
0
100
AcDbLine
 62
9
  6
BYLAYER
 10
125.4301106388
 20
219.5165870731
 30
0.0
 11
124.9648757128
 21
219.3335712714
 31
0.0
  0
LINE
  5
49A
100
AcDbEntity
  8
0
100
AcDbLine
 62
9
  6
BYLAYER
 10
137.6428589256
 20
236.4057969011
 30
0.0
 11
137.5886541396
 21
236.4040304967
 31
0.0
  0
LINE
  5
49B
100
AcDbEntity
  8
0
100
AcDbLine
 62
9
  6
BYLAYER
 10
79.928811392
 20
234.3787567524
 30
0.0
 11
102.7476256708
 21
234.3787567524
 31
0.0
  0
LINE
  5
49C
100
AcDbEntity
  8
0
100
AcDbLine
 62
9
  6
BYLAYER
 10
104.5941881698
 20
234.3787567524
 30
0.0
 11
127.4130024485
 21
234.3787567524
 31
0.0
  0
LINE
  5
49D
100
AcDbEntity
  8
0
100
AcDbLine
 62
9
  6
BYLAYER
 10
79.928811392
 20
234.8786805999
 30
0.0
 11
127.4130024485
 21
234.8786805999
 31
0.0
  0
LINE
  5
49E
100
AcDbEntity
  8
0
100
AcDbLine
 62
9
  6
BYLAYER
 10
79.9650881982
 20
234.9662605575
 30
0.0
 11
127.3767256423
 21
234.9662605575
 31
0.0
  0
LINE
  5
49F
100
AcDbEntity
  8
0
100
AcDbLine
 62
9
  6
BYLAYER
 10
79.9650881982
 20
235.4661844051
 30
0.0
 11
127.3767256423
 21
235.4661844051
 31
0.0
  0
LINE
  5
4A0
100
AcDbEntity
  8
0
100
AcDbLine
 62
9
  6
BYLAYER
 10
81.3258811547
 20
236.54436965
 30
0.0
 11
126.0159326859
 21
236.54436965
 31
0.0
  0
LINE
  5
4A1
100
AcDbEntity
  8
0
100
AcDbLine
 62
9
  6
BYLAYER
 10
81.3258811547
 20
237.0443079662
 30
0.0
 11
126.0159326859
 21
237.0443079662
 31
0.0
  0
LINE
  5
4A2
100
AcDbEntity
  8
0
100
AcDbLine
 62
7
  6
BYLAYER
 10
125.9638256893
 20
237.1701053839
 30
0.0
 11
81.3779881512
 21
237.1701053839
 31
0.0
  0
LINE
  5
4A3
100
AcDbEntity
  8
0
100
AcDbLine
 62
9
  6
BYLAYER
 10
69.753159701
 20
236.4040304967
 30
0.0
 11
69.6989549149
 21
236.4057969011
 31
0.0
  0
LINE
  5
4A4
100
AcDbEntity
  8
0
100
AcDbLine
 62
9
  6
BYLAYER
 10
132.3557610462
 20
254.7557143959
 30
0.0
 11
131.7682724884
 21
253.4958411179
 31
0.0
  0
LINE
  5
4A5
100
AcDbEntity
  8
0
100
AcDbLine
 62
7
  6
BYLAYER
 10
128.3709069262
 20
233.0701053839
 30
0.0
 11
128.0209069262
 21
232.653084157
 31
0.0
  0
LINE
  5
4A6
100
AcDbEntity
  8
0
100
AcDbLine
 62
7
  6
BYLAYER
 10
128.0209069262
 20
232.1764883023
 30
0.0
 11
128.3709069262
 21
232.5935096961
 31
0.0
  0
LINE
  5
4A7
100
AcDbEntity
  8
0
100
AcDbLine
 62
9
  6
BYLAYER
 10
126.0333497675
 20
226.0874902862
 30
0.0
 11
125.9967503201
 21
226.057707465
 31
0.0
  0
LINE
  5
4A8
100
AcDbEntity
  8
0
100
AcDbLine
 62
9
  6
BYLAYER
 10
84.7811069429
 20
195.327781145
 30
0.0
 11
85.1886508096
 21
195.6173434298
 31
0.0
  0
LINE
  5
4A9
100
AcDbEntity
  8
0
100
AcDbLine
 62
9
  6
BYLAYER
 10
136.7243144948
 20
248.0112760255
 30
0.0
 11
137.2060601713
 21
248.1445043822
 31
0.0
  0
LINE
  5
4AA
100
AcDbEntity
  8
0
100
AcDbLine
 62
9
  6
BYLAYER
 10
76.0261356373
 20
237.3787567524
 30
0.0
 11
76.1005104408
 21
237.3787567524
 31
0.0
  0
LINE
  5
4AB
100
AcDbEntity
  8
0
100
AcDbLine
 62
9
  6
BYLAYER
 10
131.2413033998
 20
237.3787567524
 30
0.0
 11
131.3156782033
 21
237.3787567524
 31
0.0
  0
LINE
  5
4AC
100
AcDbEntity
  8
0
100
AcDbLine
 62
9
  6
BYLAYER
 10
76.0261356373
 20
237.8786805999
 30
0.0
 11
76.1005104408
 21
237.8786805999
 31
0.0
  0
LINE
  5
4AD
100
AcDbEntity
  8
0
100
AcDbLine
 62
9
  6
BYLAYER
 10
131.2413033998
 20
237.8786805999
 30
0.0
 11
131.3156782033
 21
237.8786805999
 31
0.0
  0
LINE
  5
4AE
100
AcDbEntity
  8
0
100
AcDbLine
 62
9
  6
BYLAYER
 10
75.9185105732
 20
237.9662605575
 30
0.0
 11
76.136787247
 21
237.9662605575
 31
0.0
  0
LINE
  5
4AF
100
AcDbEntity
  8
0
100
AcDbLine
 62
9
  6
BYLAYER
 10
131.2050265936
 20
237.9662605575
 30
0.0
 11
131.4233032673
 21
237.9662605575
 31
0.0
  0
LINE
  5
4B0
100
AcDbEntity
  8
0
100
AcDbLine
 62
9
  6
BYLAYER
 10
75.9185105732
 20
238.4661844051
 30
0.0
 11
76.136787247
 21
238.4661844051
 31
0.0
  0
LINE
  5
4B1
100
AcDbEntity
  8
0
100
AcDbLine
 62
9
  6
BYLAYER
 10
131.2050265936
 20
238.4661844051
 30
0.0
 11
131.4233032673
 21
238.4661844051
 31
0.0
  0
LINE
  5
4B2
100
AcDbEntity
  8
0
100
AcDbLine
 62
9
  6
BYLAYER
 10
75.144986135
 20
240.04436965
 30
0.0
 11
77.2046374619
 21
240.04436965
 31
0.0
  0
LINE
  5
4B3
100
AcDbEntity
  8
0
100
AcDbLine
 62
9
  6
BYLAYER
 10
130.1371763787
 20
240.04436965
 30
0.0
 11
132.1968277055
 21
240.04436965
 31
0.0
  0
LINE
  5
4B4
100
AcDbEntity
  8
0
100
AcDbLine
 62
9
  6
BYLAYER
 10
70.6174993457
 20
248.0112760255
 30
0.0
 11
70.1357536692
 21
248.1445043823
 31
0.0
  0
LINE
  5
4B5
100
AcDbEntity
  8
0
100
AcDbLine
 62
9
  6
BYLAYER
 10
122.1172582042
 20
231.3998331847
 30
0.0
 11
122.1172582042
 21
230.8998882052
 31
0.0
  0
LINE
  5
4B6
100
AcDbEntity
  8
0
100
AcDbLine
 62
9
  6
BYLAYER
 10
135.8820437729
 20
252.8165358703
 30
0.0
 11
135.9117244181
 21
252.8247441505
 31
0.0
  0
LINE
  5
4B7
100
AcDbEntity
  8
0
100
AcDbLine
 62
9
  6
BYLAYER
 10
75.5366448828
 20
236.7772324391
 30
0.0
 11
75.0471541283
 21
236.6756319734
 31
0.0
  0
LINE
  5
4B8
100
AcDbEntity
  8
0
100
AcDbLine
 62
9
  6
BYLAYER
 10
74.4500383097
 20
236.6616114652
 30
0.0
 11
74.9395290642
 21
236.7632119309
 31
0.0
  0
LINE
  5
4B9
100
AcDbEntity
  8
0
100
AcDbLine
 62
9
  6
BYLAYER
 10
70.2425572568
 20
236.5056116178
 30
0.0
 11
69.753159701
 21
236.4040304967
 31
0.0
  0
LINE
  5
4BA
100
AcDbEntity
  8
0
100
AcDbLine
 62
9
  6
BYLAYER
 10
72.014040139
 20
238.1723826517
 30
0.0
 11
71.9352471121
 21
238.1642915964
 31
0.0
  0
LINE
  5
4BB
100
AcDbEntity
  8
0
100
AcDbLine
 62
9
  6
BYLAYER
 10
75.144986135
 20
240.5443079662
 30
0.0
 11
77.2046374619
 21
240.5443079662
 31
0.0
  0
LINE
  5
4BC
100
AcDbEntity
  8
0
100
AcDbLine
 62
9
  6
BYLAYER
 10
130.1371763787
 20
240.5443079662
 30
0.0
 11
132.1968277055
 21
240.5443079662
 31
0.0
  0
LINE
  5
4BD
100
AcDbEntity
  8
0
100
AcDbLine
 62
9
  6
BYLAYER
 10
132.1180501411
 20
240.6230855306
 30
0.0
 11
130.1045456431
 21
240.6230855306
 31
0.0
  0
LINE
  5
4BE
100
AcDbEntity
  8
0
100
AcDbLine
 62
9
  6
BYLAYER
 10
132.1180501411
 20
241.1240237235
 30
0.0
 11
130.8778439414
 21
241.1240237235
 31
0.0
  0
LINE
  5
4BF
100
AcDbEntity
  8
0
100
AcDbLine
 62
9
  6
BYLAYER
 10
75.2237636994
 20
241.1240237235
 30
0.0
 11
76.4639698991
 21
241.1240237235
 31
0.0
  0
LINE
  5
4C0
100
AcDbEntity
  8
0
100
AcDbLine
 62
9
  6
BYLAYER
 10
74.1451095025
 20
241.5441845987
 30
0.0
 11
73.6451711863
 21
241.5441845987
 31
0.0
  0
LINE
  5
4C1
100
AcDbEntity
  8
0
100
AcDbLine
 62
9
  6
BYLAYER
 10
133.196704338
 20
241.5441845987
 30
0.0
 11
133.6966426542
 21
241.5441845987
 31
0.0
  0
LINE
  5
4C2
100
AcDbEntity
  8
0
100
AcDbLine
 62
9
  6
BYLAYER
 10
74.2238870669
 20
241.6229621631
 30
0.0
 11
74.7248252598
 21
241.6229621631
 31
0.0
  0
LINE
  5
4C3
100
AcDbEntity
  8
0
100
AcDbLine
 62
9
  6
BYLAYER
 10
132.6169885807
 20
241.6229621631
 30
0.0
 11
133.1179267736
 21
241.6229621631
 31
0.0
  0
LINE
  5
4C4
100
AcDbEntity
  8
0
100
AcDbLine
 62
9
  6
BYLAYER
 10
136.3238408457
 20
242.2284278444
 30
0.0
 11
135.8239025294
 21
242.2284278444
 31
0.0
  0
LINE
  5
4C5
100
AcDbEntity
  8
0
100
AcDbLine
 62
9
  6
BYLAYER
 10
71.0179729949
 20
242.2284278444
 30
0.0
 11
71.5179113111
 21
242.2284278444
 31
0.0
  0
LINE
  5
4C6
100
AcDbEntity
  8
0
100
AcDbLine
 62
9
  6
BYLAYER
 10
72.0966426542
 20
242.2365188996
 30
0.0
 11
71.596704338
 21
242.2365188996
 31
0.0
  0
LINE
  5
4C7
100
AcDbEntity
  8
0
100
AcDbLine
 62
9
  6
BYLAYER
 10
135.2451711863
 20
242.2365188996
 30
0.0
 11
135.7451095025
 21
242.2365188996
 31
0.0
  0
LINE
  5
4C8
100
AcDbEntity
  8
0
100
AcDbLine
 62
9
  6
BYLAYER
 10
74.2238870669
 20
242.8631683681
 30
0.0
 11
74.7248252598
 21
242.8631684232
 31
0.0
  0
LINE
  5
4C9
100
AcDbEntity
  8
0
100
AcDbLine
 62
9
  6
BYLAYER
 10
132.6169885807
 20
242.8631684234
 30
0.0
 11
133.1179267736
 21
242.863168368
 31
0.0
  0
LINE
  5
4CA
100
AcDbEntity
  8
0
100
AcDbLine
 62
9
  6
BYLAYER
 10
76.4779272645
 20
240.6230833238
 30
0.0
 11
75.2237636994
 21
240.6230855306
 31
0.0
  0
LINE
  5
4CB
100
AcDbEntity
  8
0
100
AcDbLine
 62
9
  6
BYLAYER
 10
135.3277737016
 20
238.1723826517
 30
0.0
 11
135.4065667284
 21
238.1642915964
 31
0.0
  0
LINE
  5
4CC
100
AcDbEntity
  8
0
100
AcDbLine
 62
9
  6
BYLAYER
 10
131.8051689578
 20
236.7772324391
 30
0.0
 11
132.2946596822
 21
236.6756318284
 31
0.0
  0
LINE
  5
4CD
100
AcDbEntity
  8
0
100
AcDbLine
 62
9
  6
BYLAYER
 10
132.8917755308
 20
236.6616114652
 30
0.0
 11
132.4022847763
 21
236.7632119309
 31
0.0
  0
LINE
  5
4CE
100
AcDbEntity
  8
0
100
AcDbLine
 62
9
  6
BYLAYER
 10
137.0992565837
 20
236.5056116178
 30
0.0
 11
137.5886541396
 21
236.4040304967
 31
0.0
  0
LINE
  5
4CF
100
AcDbEntity
  8
0
100
AcDbLine
 62
9
  6
BYLAYER
 10
71.4300894224
 20
252.8247441505
 30
0.0
 11
71.4597700671
 21
252.8165358704
 31
0.0
  0
LINE
  5
4D0
100
AcDbEntity
  8
0
100
AcDbLine
 62
7
  6
BYLAYER
 10
124.8361657959
 20
220.466242992
 30
0.0
 11
125.9968244919
 21
226.0580648097
 31
0.0
  0
LINE
  5
4D1
100
AcDbEntity
  8
0
100
AcDbLine
 62
9
  6
BYLAYER
 10
126.0333497675
 20
226.0874902862
 30
0.0
 11
124.867790249
 21
220.4720572843
 31
0.0
  0
LINE
  5
4D2
100
AcDbEntity
  8
0
100
AcDbLine
 62
9
  6
BYLAYER
 10
135.8709069203
 20
253.4419419644
 30
0.0
 11
135.8393650345
 21
253.358742157
 31
0.0
  0
LINE
  5
4D3
100
AcDbEntity
  8
0
100
AcDbLine
 62
9
  6
BYLAYER
 10
135.943348539
 20
252.9081608737
 30
0.0
 11
135.9117244182
 21
252.8247441503
 31
0.0
  0
LINE
  5
4D4
100
AcDbEntity
  8
0
100
AcDbLine
 62
9
  6
BYLAYER
 10
72.5035450602
 20
238.2739860579
 30
0.0
 11
72.014040139
 21
238.1723826517
 31
0.0
  0
LINE
  5
4D5
100
AcDbEntity
  8
0
100
AcDbLine
 62
9
  6
BYLAYER
 10
71.4457421909
 20
238.0626881902
 30
0.0
 11
71.9352471121
 21
238.1642915964
 31
0.0
  0
LINE
  5
4D6
100
AcDbEntity
  8
0
100
AcDbLine
 62
9
  6
BYLAYER
 10
71.596704338
 20
242.2365188996
 30
0.0
 11
71.5179113111
 21
242.2284278444
 31
0.0
  0
LINE
  5
4D7
100
AcDbEntity
  8
0
100
AcDbLine
 62
9
  6
BYLAYER
 10
135.7451095025
 20
242.2365188996
 30
0.0
 11
135.8239025294
 21
242.2284278444
 31
0.0
  0
LINE
  5
4D8
100
AcDbEntity
  8
0
100
AcDbLine
 62
9
  6
BYLAYER
 10
134.8382687803
 20
238.2739860579
 30
0.0
 11
135.3277737016
 21
238.1723826517
 31
0.0
  0
LINE
  5
4D9
100
AcDbEntity
  8
0
100
AcDbLine
 62
9
  6
BYLAYER
 10
135.8960716496
 20
238.0626881902
 30
0.0
 11
135.4065667284
 21
238.1642915964
 31
0.0
  0
LINE
  5
4DA
100
AcDbEntity
  8
0
100
AcDbLine
 62
9
  6
BYLAYER
 10
126.4845795666
 20
213.4655171916
 30
0.0
 11
126.487429147
 21
213.4439914513
 31
0.0
  0
LINE
  5
4DB
100
AcDbEntity
  8
0
100
AcDbLine
 62
9
  6
BYLAYER
 10
126.0159326859
 20
237.0443079662
 30
0.0
 11
126.0159326859
 21
236.54436965
 31
0.0
  0
LINE
  5
4DC
100
AcDbEntity
  8
0
100
AcDbLine
 62
9
  6
BYLAYER
 10
127.3767256423
 20
235.4661844051
 30
0.0
 11
127.3767256423
 21
234.9662605575
 31
0.0
  0
LINE
  5
4DD
100
AcDbEntity
  8
0
100
AcDbLine
 62
9
  6
BYLAYER
 10
127.4130024485
 20
234.3787567524
 30
0.0
 11
127.4130024485
 21
234.8786805999
 31
0.0
  0
LINE
  5
4DE
100
AcDbEntity
  8
0
100
AcDbLine
 62
7
  6
BYLAYER
 10
128.0209069262
 20
232.653084157
 30
0.0
 11
128.0209069262
 21
232.1764883023
 31
0.0
  0
LINE
  5
4DF
100
AcDbEntity
  8
0
100
AcDbLine
 62
7
  6
BYLAYER
 10
128.3709069262
 20
232.5935096961
 30
0.0
 11
128.3709069262
 21
230.2701053839
 31
0.0
  0
LINE
  5
4E0
100
AcDbEntity
  8
0
100
AcDbLine
 62
7
  6
BYLAYER
 10
128.7209069262
 20
230.2701053839
 30
0.0
 11
128.7209069262
 21
233.0701053839
 31
0.0
  0
LINE
  5
4E1
100
AcDbEntity
  8
0
100
AcDbLine
 62
9
  6
BYLAYER
 10
126.5228612129
 20
225.9858855258
 30
0.0
 11
125.3573016944
 21
220.3704525239
 31
0.0
  0
LINE
  5
4E2
100
AcDbEntity
  8
0
100
AcDbLine
 62
9
  6
BYLAYER
 10
131.8051689578
 20
236.7772324391
 30
0.0
 11
126.9801665256
 21
213.531334257
 31
0.0
  0
LINE
  5
4E3
100
AcDbEntity
  8
0
100
AcDbLine
 62
9
  6
BYLAYER
 10
137.2602649574
 20
248.1462707865
 30
0.0
 11
137.2060601713
 21
248.1445043822
 31
0.0
  0
LINE
  5
4E4
100
AcDbEntity
  8
0
100
AcDbLine
 62
9
  6
BYLAYER
 10
136.3238408457
 20
249.4593645098
 30
0.0
 11
135.8239025294
 21
249.4593645098
 31
0.0
  0
LINE
  5
4E5
100
AcDbEntity
  8
0
100
AcDbLine
 62
9
  6
BYLAYER
 10
71.0179729949
 20
249.4593645098
 30
0.0
 11
71.5179113111
 21
249.4593645098
 31
0.0
  0
LINE
  5
4E6
100
AcDbEntity
  8
0
100
AcDbLine
 62
9
  6
BYLAYER
 10
70.1357536692
 20
248.1445043822
 30
0.0
 11
70.0815488832
 21
248.1462707865
 31
0.0
  0
LINE
  5
4E7
100
AcDbEntity
  8
0
100
AcDbLine
 62
9
  6
BYLAYER
 10
128.4735010766
 20
234.818029667
 30
0.0
 11
128.1200015339
 21
235.1715292097
 31
0.0
  0
LINE
  5
4E8
100
AcDbEntity
  8
0
100
AcDbLine
 62
9
  6
BYLAYER
 10
127.730225185
 20
235.6126087099
 30
0.0
 11
128.0837247277
 21
235.2591091672
 31
0.0
  0
LINE
  5
4E9
100
AcDbEntity
  8
0
100
AcDbLine
 62
9
  6
BYLAYER
 10
126.3694424594
 20
237.1907365089
 30
0.0
 11
126.722952233
 21
236.8372267353
 31
0.0
  0
LINE
  5
4EA
100
AcDbEntity
  8
0
100
AcDbLine
 62
9
  6
BYLAYER
 10
130.1371763787
 20
240.5443079662
 30
0.0
 11
130.1371763787
 21
240.04436965
 31
0.0
  0
LINE
  5
4EB
100
AcDbEntity
  8
0
100
AcDbLine
 62
9
  6
BYLAYER
 10
131.2050265936
 20
238.4661844051
 30
0.0
 11
131.2050265936
 21
237.9662605575
 31
0.0
  0
LINE
  5
4EC
100
AcDbEntity
  8
0
100
AcDbLine
 62
9
  6
BYLAYER
 10
131.2413033998
 20
237.3787567524
 30
0.0
 11
131.2413033998
 21
237.8786805999
 31
0.0
  0
LINE
  5
4ED
100
AcDbEntity
  8
0
100
AcDbLine
 62
9
  6
BYLAYER
 10
131.3156782033
 20
237.3787567524
 30
0.0
 11
131.3156782033
 21
237.8786805999
 31
0.0
  0
LINE
  5
4EE
100
AcDbEntity
  8
0
100
AcDbLine
 62
9
  6
BYLAYER
 10
131.4233032673
 20
238.4661844051
 30
0.0
 11
131.4233032673
 21
237.9662605575
 31
0.0
  0
LINE
  5
4EF
100
AcDbEntity
  8
0
100
AcDbLine
 62
9
  6
BYLAYER
 10
131.5709069203
 20
252.8701053839
 30
0.0
 11
131.5709069203
 21
252.9959028016
 31
0.0
  0
LINE
  5
4F0
100
AcDbEntity
  8
0
100
AcDbLine
 62
9
  6
BYLAYER
 10
132.2946597123
 20
236.6756319734
 30
0.0
 11
126.8920518285
 21
210.6469460713
 31
0.0
  0
LINE
  5
4F1
100
AcDbEntity
  8
0
100
AcDbLine
 62
9
  6
BYLAYER
 10
132.4022847763
 20
236.7632119309
 30
0.0
 11
126.9680092512
 21
210.5819576566
 31
0.0
  0
LINE
  5
4F2
100
AcDbEntity
  8
0
100
AcDbLine
 62
9
  6
BYLAYER
 10
132.8917755308
 20
236.6616114652
 30
0.0
 11
127.4575000057
 21
210.4803571909
 31
0.0
  0
LINE
  5
4F3
100
AcDbEntity
  8
0
100
AcDbLine
 62
9
  6
BYLAYER
 10
129.1846704362
 20
211.0360782398
 30
0.0
 11
134.8382687803
 21
238.2739860579
 31
0.0
  0
LINE
  5
4F4
100
AcDbEntity
  8
0
100
AcDbLine
 62
9
  6
BYLAYER
 10
129.6741753574
 20
210.9344748336
 30
0.0
 11
135.3277737016
 21
238.1723826517
 31
0.0
  0
LINE
  5
4F5
100
AcDbEntity
  8
0
100
AcDbLine
 62
9
  6
BYLAYER
 10
74.1451095025
 20
252.1960014957
 30
0.0
 11
73.6451711863
 21
252.1960014957
 31
0.0
  0
LINE
  5
4F6
100
AcDbEntity
  8
0
100
AcDbLine
 62
9
  6
BYLAYER
 10
133.196704338
 20
252.1960014957
 30
0.0
 11
133.6966426542
 21
252.1960014957
 31
0.0
  0
LINE
  5
4F7
100
AcDbEntity
  8
0
100
AcDbLine
 62
9
  6
BYLAYER
 10
130.8878038571
 20
237.2323324475
 30
0.0
 11
130.5343043144
 21
237.5858319902
 31
0.0
  0
LINE
  5
4F8
100
AcDbEntity
  8
0
100
AcDbLine
 62
9
  6
BYLAYER
 10
130.1445279655
 20
238.0269114904
 30
0.0
 11
130.4980275082
 21
237.6734119477
 31
0.0
  0
LINE
  5
4F9
100
AcDbEntity
  8
0
100
AcDbLine
 62
9
  6
BYLAYER
 10
125.9638256893
 20
237.1701053839
 30
0.0
 11
126.0159326859
 21
237.0443079662
 31
0.0
  0
LINE
  5
4FA
100
AcDbEntity
  8
0
100
AcDbLine
 62
9
  6
BYLAYER
 10
126.3173354629
 20
237.3165339266
 30
0.0
 11
126.3694466522
 21
237.1907407016
 31
0.0
  0
LINE
  5
4FB
100
AcDbEntity
  8
0
100
AcDbLine
 62
9
  6
BYLAYER
 10
127.4130024485
 20
234.8786805999
 30
0.0
 11
127.3767256423
 21
234.9662605575
 31
0.0
  0
LINE
  5
4FC
100
AcDbEntity
  8
0
100
AcDbLine
 62
9
  6
BYLAYER
 10
128.1200015339
 20
235.1715292097
 30
0.0
 11
128.0837241661
 21
235.2591086056
 31
0.0
  0
LINE
  5
4FD
100
AcDbEntity
  8
0
100
AcDbLine
 62
9
  6
BYLAYER
 10
132.1180501411
 20
241.1240237235
 30
0.0
 11
132.1180500169
 21
240.6230855306
 31
0.0
  0
LINE
  5
4FE
100
AcDbEntity
  8
0
100
AcDbLine
 62
9
  6
BYLAYER
 10
132.1968277055
 20
240.5443079662
 30
0.0
 11
132.1968277055
 21
240.04436965
 31
0.0
  0
LINE
  5
4FF
100
AcDbEntity
  8
0
100
AcDbLine
 62
9
  6
BYLAYER
 10
132.396803032
 20
252.9959028016
 30
0.0
 11
132.396803032
 21
253.4958411179
 31
0.0
  0
LINE
  5
500
100
AcDbEntity
  8
0
100
AcDbLine
 62
9
  6
BYLAYER
 10
132.6169885807
 20
242.8631683628
 30
0.0
 11
132.6169885807
 21
241.6229621631
 31
0.0
  0
LINE
  5
501
100
AcDbEntity
  8
0
100
AcDbLine
 62
9
  6
BYLAYER
 10
132.8088590353
 20
255.04436965
 30
0.0
 11
132.8088590353
 21
255.5443079662
 31
0.0
  0
LINE
  5
502
100
AcDbEntity
  8
0
100
AcDbLine
 62
7
  6
BYLAYER
 10
133.0709069203
 20
252.0702040779
 30
0.0
 11
133.0709069203
 21
244.4842678458
 31
0.0
  0
LINE
  5
503
100
AcDbEntity
  8
0
100
AcDbLine
 62
9
  6
BYLAYER
 10
133.1179267736
 20
242.8631683628
 30
0.0
 11
133.1179267736
 21
241.6229621631
 31
0.0
  0
LINE
  5
504
100
AcDbEntity
  8
0
100
AcDbLine
 62
9
  6
BYLAYER
 10
133.196704338
 20
241.5441845987
 30
0.0
 11
133.196704338
 21
252.1960014957
 31
0.0
  0
LINE
  5
505
100
AcDbEntity
  8
0
100
AcDbLine
 62
9
  6
BYLAYER
 10
133.6966426542
 20
241.5441845987
 30
0.0
 11
133.6966426542
 21
252.1960014957
 31
0.0
  0
LINE
  5
506
100
AcDbEntity
  8
0
100
AcDbLine
 62
9
  6
BYLAYER
 10
133.7453562376
 20
255.04436965
 30
0.0
 11
133.7453562376
 21
255.5443079662
 31
0.0
  0
LINE
  5
507
100
AcDbEntity
  8
0
100
AcDbLine
 62
9
  6
BYLAYER
 10
129.752761884
 20
210.9253889011
 30
0.0
 11
135.4065667284
 21
238.1642915964
 31
0.0
  0
LINE
  5
508
100
AcDbEntity
  8
0
100
AcDbLine
 62
9
  6
BYLAYER
 10
130.2422668052
 20
210.8237854949
 30
0.0
 11
135.8960716496
 21
238.0626881902
 31
0.0
  0
LINE
  5
509
100
AcDbEntity
  8
0
100
AcDbLine
 62
9
  6
BYLAYER
 10
130.4780415613
 20
204.6059198734
 30
0.0
 11
137.0992565837
 21
236.5056116178
 31
0.0
  0
LINE
  5
50A
100
AcDbEntity
  8
0
100
AcDbLine
 62
9
  6
BYLAYER
 10
130.9674391171
 20
204.5043387524
 30
0.0
 11
137.5886541396
 21
236.4040304967
 31
0.0
  0
LINE
  5
50B
100
AcDbEntity
  8
0
100
AcDbLine
 62
7
  6
BYLAYER
 10
137.6428589256
 20
236.4057969011
 30
0.0
 11
131.0190535743
 21
204.4936254696
 31
0.0
  0
LINE
  5
50C
100
AcDbEntity
  8
0
100
AcDbLine
 62
7
  6
BYLAYER
 10
75.0708082263
 20
252.8701053839
 30
0.0
 11
75.7709069203
 21
252.8701053839
 31
0.0
  0
LINE
  5
50D
100
AcDbEntity
  8
0
100
AcDbLine
 62
7
  6
BYLAYER
 10
131.5709069203
 20
252.8701053839
 30
0.0
 11
132.2710056143
 21
252.8701053839
 31
0.0
  0
LINE
  5
50E
100
AcDbEntity
  8
0
100
AcDbLine
 62
9
  6
BYLAYER
 10
132.396803032
 20
252.9959028016
 30
0.0
 11
131.5709069203
 21
252.9959028016
 31
0.0
  0
LINE
  5
50F
100
AcDbEntity
  8
0
100
AcDbLine
 62
9
  6
BYLAYER
 10
75.7709069203
 20
252.9959028016
 30
0.0
 11
74.9450108085
 21
252.9959028016
 31
0.0
  0
LINE
  5
510
100
AcDbEntity
  8
0
100
AcDbLine
 62
9
  6
BYLAYER
 10
132.396803032
 20
253.4958411179
 30
0.0
 11
131.7682724884
 21
253.4958411179
 31
0.0
  0
LINE
  5
511
100
AcDbEntity
  8
0
100
AcDbLine
 62
9
  6
BYLAYER
 10
75.5735413521
 20
253.4958411179
 30
0.0
 11
74.9450108085
 21
253.4958411179
 31
0.0
  0
LINE
  5
512
100
AcDbEntity
  8
0
100
AcDbLine
 62
9
  6
BYLAYER
 10
72.0966426542
 20
253.5445547012
 30
0.0
 11
71.596704338
 21
253.5445547012
 31
0.0
  0
LINE
  5
513
100
AcDbEntity
  8
0
100
AcDbLine
 62
9
  6
BYLAYER
 10
135.2451711863
 20
253.5445547012
 30
0.0
 11
135.7451095025
 21
253.5445547012
 31
0.0
  0
LINE
  5
514
100
AcDbEntity
  8
0
100
AcDbLine
 62
9
  6
BYLAYER
 10
133.7453562376
 20
255.04436965
 30
0.0
 11
132.8088590353
 21
255.04436965
 31
0.0
  0
LINE
  5
515
100
AcDbEntity
  8
0
100
AcDbLine
 62
9
  6
BYLAYER
 10
74.5329548052
 20
255.04436965
 30
0.0
 11
73.5964576029
 21
255.04436965
 31
0.0
  0
LINE
  5
516
100
AcDbEntity
  8
0
100
AcDbLine
 62
9
  6
BYLAYER
 10
133.7453562376
 20
255.5443079662
 30
0.0
 11
132.8088590353
 21
255.5443079662
 31
0.0
  0
LINE
  5
517
100
AcDbEntity
  8
0
100
AcDbLine
 62
9
  6
BYLAYER
 10
74.5329548052
 20
255.5443079662
 30
0.0
 11
73.5964576029
 21
255.5443079662
 31
0.0
  0
LINE
  5
518
100
AcDbEntity
  8
0
100
AcDbLine
 62
7
  6
BYLAYER
 10
133.8711536553
 20
255.6701053839
 30
0.0
 11
132.7287172416
 21
255.6701053839
 31
0.0
  0
LINE
  5
519
100
AcDbEntity
  8
0
100
AcDbLine
 62
7
  6
BYLAYER
 10
74.613096599
 20
255.6701053839
 30
0.0
 11
73.4706601852
 21
255.6701053839
 31
0.0
  0
LINE
  5
51A
100
AcDbEntity
  8
0
100
AcDbLine
 62
9
  6
BYLAYER
 10
132.8095762582
 20
243.7641896265
 30
0.0
 11
132.7779008091
 21
243.7773100272
 31
0.0
  0
LINE
  5
51B
100
AcDbEntity
  8
0
100
AcDbLine
 62
9
  6
BYLAYER
 10
133.1024333435
 20
244.4712091737
 30
0.0
 11
133.0709069203
 21
244.4842678458
 31
0.0
  0
LINE
  5
51C
100
AcDbEntity
  8
0
100
AcDbLine
 62
9
  6
BYLAYER
 10
129.4301568315
 20
240.2514508809
 30
0.0
 11
129.7836666051
 21
239.8979411073
 31
0.0
  0
LINE
  5
51D
100
AcDbEntity
  8
0
100
AcDbLine
 62
9
  6
BYLAYER
 10
130.8778438987
 20
241.1240236807
 30
0.0
 11
130.5236271445
 21
241.4782405128
 31
0.0
  0
LINE
  5
51E
100
AcDbEntity
  8
0
100
AcDbLine
 62
9
  6
BYLAYER
 10
129.4301568315
 20
240.2514508809
 30
0.0
 11
129.3975260959
 21
240.3302284453
 31
0.0
  0
LINE
  5
51F
100
AcDbEntity
  8
0
100
AcDbLine
 62
9
  6
BYLAYER
 10
130.4980275082
 20
237.6734119477
 30
0.0
 11
130.5343043144
 21
237.5858319902
 31
0.0
  0
LINE
  5
520
100
AcDbEntity
  8
0
100
AcDbLine
 62
9
  6
BYLAYER
 10
131.2050265936
 20
237.9662605575
 30
0.0
 11
131.2413033998
 21
237.8786805999
 31
0.0
  0
LINE
  5
521
100
AcDbEntity
  8
0
100
AcDbLine
 62
9
  6
BYLAYER
 10
130.1371763787
 20
240.5443079662
 30
0.0
 11
130.1045456431
 21
240.6230855306
 31
0.0
  0
LINE
  5
522
100
AcDbEntity
  8
0
100
AcDbLine
 62
9
  6
BYLAYER
 10
135.2451711863
 20
242.2365188996
 30
0.0
 11
135.2451711863
 21
253.5445547012
 31
0.0
  0
LINE
  5
523
100
AcDbEntity
  8
0
100
AcDbLine
 62
9
  6
BYLAYER
 10
135.7451095025
 20
242.2365188996
 30
0.0
 11
135.7451095025
 21
253.5445547012
 31
0.0
  0
LINE
  5
524
100
AcDbEntity
  8
0
100
AcDbLine
 62
9
  6
BYLAYER
 10
135.8239025294
 20
242.2284278444
 30
0.0
 11
135.8239036834
 21
249.4862056623
 31
0.0
  0
LINE
  5
525
100
AcDbEntity
  8
0
100
AcDbLine
 62
7
  6
BYLAYER
 10
135.8709069203
 20
253.4419419644
 30
0.0
 11
135.8709069203
 21
253.670352119
 31
0.0
  0
LINE
  5
526
100
AcDbEntity
  8
0
100
AcDbLine
 62
9
  6
BYLAYER
 10
136.3238408457
 20
242.2284278444
 30
0.0
 11
136.3238408457
 21
249.4593645098
 31
0.0
  0
LINE
  5
527
100
AcDbEntity
  8
0
100
AcDbLine
 62
9
  6
BYLAYER
 10
132.1180501411
 20
240.6230855306
 30
0.0
 11
132.1968277055
 21
240.5443079662
 31
0.0
  0
LINE
  5
528
100
AcDbEntity
  8
0
100
AcDbLine
 62
9
  6
BYLAYER
 10
133.1179267736
 20
241.6229621631
 30
0.0
 11
133.196704338
 21
241.5441845987
 31
0.0
  0
LINE
  5
529
100
AcDbEntity
  8
0
100
AcDbLine
 62
9
  6
BYLAYER
 10
122.5607068976
 20
195.327781145
 30
0.0
 11
122.1511814038
 21
195.0410283072
 31
0.0
  0
LINE
  5
52A
100
AcDbEntity
  8
0
100
AcDbLine
 62
9
  6
BYLAYER
 10
123.3522967898
 20
194.1972736183
 30
0.0
 11
122.942771296
 21
193.9105207805
 31
0.0
  0
LINE
  5
52B
100
AcDbEntity
  8
0
100
AcDbLine
 62
9
  6
BYLAYER
 10
131.1177530267
 20
253.5814145148
 30
0.0
 11
131.231764206
 21
253.5282502288
 31
0.0
  0
LINE
  5
52C
100
AcDbEntity
  8
0
100
AcDbLine
 62
9
  6
BYLAYER
 10
132.3557610462
 20
254.7557143959
 30
0.0
 11
131.9026630572
 21
254.9669974581
 31
0.0
  0
LINE
  5
52D
100
AcDbEntity
  8
0
100
AcDbLine
 62
9
  6
BYLAYER
 10
131.9026630572
 20
254.9669974581
 30
0.0
 11
131.8225212635
 21
255.0927948758
 31
0.0
  0
LINE
  5
52E
100
AcDbEntity
  8
0
100
AcDbLine
 62
9
  6
BYLAYER
 10
136.7243144948
 20
248.0112760255
 30
0.0
 11
136.3238408457
 21
249.4593645098
 31
0.0
  0
LINE
  5
52F
100
AcDbEntity
  8
0
100
AcDbLine
 62
9
  6
BYLAYER
 10
137.2060601713
 20
248.1445043822
 30
0.0
 11
135.9117244182
 21
252.8247441503
 31
0.0
  0
LINE
  5
530
100
AcDbEntity
  8
0
100
AcDbLine
 62
7
  6
BYLAYER
 10
135.9432662857
 20
252.9084582966
 30
0.0
 11
137.2602649574
 21
248.1462707865
 31
0.0
  0
LINE
  5
531
100
AcDbEntity
  8
0
100
AcDbLine
 62
9
  6
BYLAYER
 10
132.8088590353
 20
255.5443079662
 30
0.0
 11
132.7287172416
 21
255.6701053839
 31
0.0
  0
LINE
  5
532
100
AcDbEntity
  8
0
100
AcDbLine
 62
7
  6
BYLAYER
 10
69.2316074846
 20
152.35587452
 30
0.0
 11
69.1773927413
 21
154.3693327935
 31
0.0
  0
LINE
  5
533
100
AcDbEntity
  8
0
100
AcDbLine
 62
9
  6
BYLAYER
 10
70.1357536692
 20
152.3562443193
 30
0.0
 11
70.0815488832
 21
154.3693327935
 31
0.0
  0
LINE
  5
534
100
AcDbEntity
  8
0
100
AcDbLine
 62
9
  6
BYLAYER
 10
70.0815488832
 20
154.3693327935
 30
0.0
 11
70.0819013058
 21
154.3824212676
 31
0.0
  0
LINE
  5
535
100
AcDbEntity
  8
0
100
AcDbLine
 62
9
  6
BYLAYER
 10
71.4300894224
 20
152.3562443193
 30
0.0
 11
71.3984653015
 21
154.3693327935
 31
0.0
  0
LINE
  5
536
100
AcDbEntity
  8
0
100
AcDbLine
 62
7
  6
BYLAYER
 10
71.596704338
 20
146.3614791348
 30
0.0
 11
71.4709069203
 21
154.3693327935
 31
0.0
  0
LINE
  5
537
100
AcDbEntity
  8
0
100
AcDbLine
 62
9
  6
BYLAYER
 10
71.3985475548
 20
154.3693327935
 30
0.0
 11
71.3988217193
 21
154.3824212676
 31
0.0
  0
LINE
  5
538
100
AcDbEntity
  8
0
100
AcDbLine
 62
7
  6
BYLAYER
 10
71.4709069203
 20
154.3693327935
 30
0.0
 11
71.5968083443
 21
160.3798040034
 31
0.0
  0
LINE
  5
539
100
AcDbEntity
  8
0
100
AcDbLine
 62
9
  6
BYLAYER
 10
73.5964576029
 20
146.3614791348
 30
0.0
 11
73.4706601852
 21
154.3693327935
 31
0.0
  0
LINE
  5
53A
100
AcDbEntity
  8
0
100
AcDbLine
 62
9
  6
BYLAYER
 10
74.6131577252
 20
154.3693327935
 30
0.0
 11
74.5329496722
 21
160.3798040034
 31
0.0
  0
LINE
  5
53B
100
AcDbEntity
  8
0
100
AcDbLine
 62
9
  6
BYLAYER
 10
75.519266744
 20
154.3693327935
 30
0.0
 11
75.4390586909
 21
160.3798040034
 31
0.0
  0
LINE
  5
53C
100
AcDbEntity
  8
0
100
AcDbLine
 62
9
  6
BYLAYER
 10
73.5963697113
 20
160.8693327935
 30
0.0
 11
73.5963697113
 21
160.3798040034
 31
0.0
  0
LINE
  5
53D
100
AcDbEntity
  8
0
100
AcDbLine
 62
9
  6
BYLAYER
 10
73.5964576029
 20
145.8693327935
 30
0.0
 11
73.5964576029
 21
146.3614791348
 31
0.0
  0
LINE
  5
53E
100
AcDbEntity
  8
0
100
AcDbLine
 62
9
  6
BYLAYER
 10
74.5329496722
 20
160.8693327935
 30
0.0
 11
74.5329496722
 21
160.3798040034
 31
0.0
  0
LINE
  5
53F
100
AcDbEntity
  8
0
100
AcDbLine
 62
9
  6
BYLAYER
 10
74.5329548052
 20
145.8693327935
 30
0.0
 11
74.5329548052
 21
146.3614791348
 31
0.0
  0
LINE
  5
540
100
AcDbEntity
  8
0
100
AcDbLine
 62
9
  6
BYLAYER
 10
74.5329548052
 20
146.3614791348
 30
0.0
 11
74.613096599
 21
154.3693327935
 31
0.0
  0
LINE
  5
541
100
AcDbEntity
  8
0
100
AcDbLine
 62
9
  6
BYLAYER
 10
75.4391507833
 20
146.3614791348
 30
0.0
 11
75.5192925771
 21
154.3693327935
 31
0.0
  0
LINE
  5
542
100
AcDbEntity
  8
0
100
AcDbLine
 62
9
  6
BYLAYER
 10
73.4704682872
 20
154.3693327935
 30
0.0
 11
73.5963697113
 21
160.3798040034
 31
0.0
  0
LWPOLYLINE
  5
543
100
AcDbEntity
  8
0
100
AcDbPolyline
 62
7
  6
BYLAYER
 90
12
 70
0
 10
76.1450049805
 20
160.3798267208
 10
76.1440663452
 20
160.4010091467
 10
76.133327577
 20
160.4735964463
 10
76.1105960889
 20
160.5455937329
 10
76.0753590828
 20
160.614890042
 10
76.0278585241
 20
160.6792985881
 10
75.9695896258
 20
160.7360223234
 10
75.9018036713
 20
160.7837577822
 10
75.8262229349
 20
160.8213865999
 10
75.7432321308
 20
160.8486514911
 10
75.6554676529
 20
160.8646646575
 10
75.5757403159
 20
160.8693256488
  0
LINE
  5
544
100
AcDbEntity
  8
0
100
AcDbLine
 62
7
  6
BYLAYER
 10
76.1450050214
 20
160.3798266707
 30
0.0
 11
76.2709069203
 21
154.3693327935
 31
0.0
  0
LINE
  5
545
100
AcDbEntity
  8
0
100
AcDbLine
 62
9
  6
BYLAYER
 10
76.1099553728
 20
160.3798040034
 30
0.0
 11
76.2240608138
 21
154.3693327935
 31
0.0
  0
LINE
  5
546
100
AcDbEntity
  8
0
100
AcDbLine
 62
9
  6
BYLAYER
 10
77.2481900235
 20
155.3598406411
 30
0.0
 11
77.2046341244
 21
160.3798040034
 31
0.0
  0
LINE
  5
547
100
AcDbEntity
  8
0
100
AcDbLine
 62
9
  6
BYLAYER
 10
77.9551417245
 20
155.3598406411
 30
0.0
 11
77.9115858254
 21
160.3798040034
 31
0.0
  0
LINE
  5
548
100
AcDbEntity
  8
0
100
AcDbLine
 62
9
  6
BYLAYER
 10
76.4639698991
 20
151.8693327935
 30
0.0
 11
76.4639698991
 21
151.3762021594
 31
0.0
  0
LINE
  5
549
100
AcDbEntity
  8
0
100
AcDbLine
 62
9
  6
BYLAYER
 10
77.2046341244
 20
160.3798040034
 30
0.0
 11
77.2046341244
 21
160.8693327935
 31
0.0
  0
LINE
  5
54A
100
AcDbEntity
  8
0
100
AcDbLine
 62
9
  6
BYLAYER
 10
77.2046374619
 20
146.3614791348
 30
0.0
 11
77.2046374619
 21
145.8693327935
 31
0.0
  0
LINE
  5
54B
100
AcDbEntity
  8
0
100
AcDbLine
 62
9
  6
BYLAYER
 10
77.2046374619
 20
146.3614791348
 30
0.0
 11
77.23833558
 21
151.5402385405
 31
0.0
  0
LINE
  5
54C
100
AcDbEntity
  8
0
100
AcDbLine
 62
9
  6
BYLAYER
 10
77.9507053335
 20
152.3624634275
 30
0.0
 11
77.911657009
 21
146.3614791348
 31
0.0
  0
LINE
  5
54D
100
AcDbEntity
  8
0
100
AcDbLine
 62
9
  6
BYLAYER
 10
76.2240608138
 20
154.3693327935
 30
0.0
 11
76.1100496345
 21
146.3614791348
 31
0.0
  0
LINE
  5
54E
100
AcDbEntity
  8
0
100
AcDbLine
 62
7
  6
BYLAYER
 10
76.2709069203
 20
154.3693327935
 30
0.0
 11
76.1451092231
 21
146.3614613436
 31
0.0
  0
LINE
  5
54F
100
AcDbEntity
  8
0
100
AcDbLine
 62
9
  6
BYLAYER
 10
80.9723423517
 20
160.3798040034
 30
0.0
 11
81.024492429
 21
154.3693327935
 31
0.0
  0
LINE
  5
550
100
AcDbEntity
  8
0
100
AcDbLine
 62
9
  6
BYLAYER
 10
81.3258182022
 20
160.3798040034
 30
0.0
 11
81.3779682795
 21
154.3693327935
 31
0.0
  0
LINE
  5
551
100
AcDbEntity
  8
0
100
AcDbLine
 62
9
  6
BYLAYER
 10
81.3258182022
 20
160.3798040034
 30
0.0
 11
81.3258182022
 21
160.8693327935
 31
0.0
  0
LINE
  5
552
100
AcDbEntity
  8
0
100
AcDbLine
 62
9
  6
BYLAYER
 10
81.3258811547
 20
146.3614791348
 30
0.0
 11
81.3258811547
 21
145.8693327935
 31
0.0
  0
LINE
  5
553
100
AcDbEntity
  8
0
100
AcDbLine
 62
9
  6
BYLAYER
 10
81.0244783776
 20
154.3693327935
 30
0.0
 11
80.9723696762
 21
146.3614791348
 31
0.0
  0
LINE
  5
554
100
AcDbEntity
  8
0
100
AcDbLine
 62
9
  6
BYLAYER
 10
81.3779881512
 20
154.3693327935
 30
0.0
 11
81.3258811547
 21
146.3614791348
 31
0.0
  0
LINE
  5
555
100
AcDbEntity
  8
0
100
AcDbLine
 62
7
  6
BYLAYER
 10
72.0966426542
 20
145.8693327935
 30
0.0
 11
135.2451711863
 21
145.8693327935
 31
0.0
  0
LINE
  5
556
100
AcDbEntity
  8
0
100
AcDbLine
 62
9
  6
BYLAYER
 10
133.7453562376
 20
146.3614791348
 30
0.0
 11
132.8088590353
 21
146.3614791348
 31
0.0
  0
LINE
  5
557
100
AcDbEntity
  8
0
100
AcDbLine
 62
9
  6
BYLAYER
 10
74.5329548052
 20
146.3614791348
 30
0.0
 11
73.5964576029
 21
146.3614791348
 31
0.0
  0
LINE
  5
558
100
AcDbEntity
  8
0
100
AcDbLine
 62
9
  6
BYLAYER
 10
77.911657009
 20
146.3614791348
 30
0.0
 11
80.9723696762
 21
146.3614791348
 31
0.0
  0
LINE
  5
559
100
AcDbEntity
  8
0
100
AcDbLine
 62
9
  6
BYLAYER
 10
81.3258811547
 20
146.3614791348
 30
0.0
 11
126.0159326859
 21
146.3614791348
 31
0.0
  0
LINE
  5
55A
100
AcDbEntity
  8
0
100
AcDbLine
 62
9
  6
BYLAYER
 10
126.3694466522
 20
146.3614791348
 30
0.0
 11
129.4301568315
 21
146.3614791348
 31
0.0
  0
LINE
  5
55B
100
AcDbEntity
  8
0
100
AcDbLine
 62
9
  6
BYLAYER
 10
130.1371763787
 20
146.3614791348
 30
0.0
 11
131.9026630572
 21
146.3614791348
 31
0.0
  0
LINE
  5
55C
100
AcDbEntity
  8
0
100
AcDbLine
 62
9
  6
BYLAYER
 10
77.2046374619
 20
146.3614791348
 30
0.0
 11
75.4391507833
 21
146.3614791348
 31
0.0
  0
LWPOLYLINE
  5
55D
100
AcDbEntity
  8
0
100
AcDbPolyline
 62
7
  6
BYLAYER
 90
11
 70
0
 10
75.5734659629
 20
145.8693328752
 10
75.6727514666
 20
145.8761903983
 10
75.7694474968
 20
145.8972148493
 10
75.8595759059
 20
145.9321491899
 10
75.9395493991
 20
145.9794930038
 10
76.0082636459
 20
146.0381350357
 10
76.0625650656
 20
146.1041077292
 10
76.1025103703
 20
146.1745490232
 10
76.1282966681
 20
146.2449759141
 10
76.14176869
 20
146.313300991
 10
76.1451091809
 20
146.3614613333
  0
LINE
  5
55E
100
AcDbEntity
  8
0
100
AcDbLine
 62
9
  6
BYLAYER
 10
138.1102071452
 20
152.3559038617
 30
0.0
 11
138.1041796277
 21
152.3558681995
 31
0.0
  0
LINE
  5
55F
100
AcDbEntity
  8
0
100
AcDbLine
 62
9
  6
BYLAYER
 10
76.2238870452
 20
151.3762007747
 30
0.0
 11
76.4639698968
 21
151.3762004423
 31
0.0
  0
LINE
  5
560
100
AcDbEntity
  8
0
100
AcDbLine
 62
9
  6
BYLAYER
 10
131.1179267736
 20
151.3762021594
 30
0.0
 11
130.1045456431
 21
151.3762021594
 31
0.0
  0
LINE
  5
561
100
AcDbEntity
  8
0
100
AcDbLine
 62
7
  6
BYLAYER
 10
137.6103839359
 20
151.8693327935
 30
0.0
 11
136.3238408457
 21
151.8693327935
 31
0.0
  0
LINE
  5
562
100
AcDbEntity
  8
0
100
AcDbLine
 62
7
  6
BYLAYER
 10
131.1101800586
 20
151.8693327935
 30
0.0
 11
130.8778439414
 21
151.8693327935
 31
0.0
  0
LINE
  5
563
100
AcDbEntity
  8
0
100
AcDbLine
 62
7
  6
BYLAYER
 10
76.4639698991
 20
151.8693327935
 30
0.0
 11
76.231633782
 21
151.8693327935
 31
0.0
  0
LINE
  5
564
100
AcDbEntity
  8
0
100
AcDbLine
 62
7
  6
BYLAYER
 10
71.0179729949
 20
151.8693327935
 30
0.0
 11
69.7314284288
 21
151.8693327935
 31
0.0
  0
LINE
  5
565
100
AcDbEntity
  8
0
100
AcDbLine
 62
9
  6
BYLAYER
 10
71.4300894224
 20
152.3562443193
 30
0.0
 11
69.2316083731
 21
152.355874593
 31
0.0
  0
LINE
  5
566
100
AcDbEntity
  8
0
100
AcDbLine
 62
9
  6
BYLAYER
 10
131.1024333435
 20
152.3624634275
 30
0.0
 11
130.5236271483
 21
152.3624634275
 31
0.0
  0
LINE
  5
567
100
AcDbEntity
  8
0
100
AcDbLine
 62
9
  6
BYLAYER
 10
77.9507053335
 20
152.3624634275
 30
0.0
 11
76.239380497
 21
152.3624634275
 31
0.0
  0
LINE
  5
568
100
AcDbEntity
  8
0
100
AcDbLine
 62
9
  6
BYLAYER
 10
138.1102029378
 20
152.355874583
 30
0.0
 11
135.9117244182
 21
152.3562443193
 31
0.0
  0
LINE
  5
569
100
AcDbEntity
  8
0
100
AcDbLine
 62
7
  6
BYLAYER
 10
76.8725927027
 20
154.3715232367
 30
0.0
 11
76.8364942681
 21
154.3740761373
 31
0.0
  0
LINE
  5
56A
100
AcDbEntity
  8
0
100
AcDbLine
 62
9
  6
BYLAYER
 10
69.1777543319
 20
154.3827617252
 30
0.0
 11
69.1837818494
 21
154.3827973874
 31
0.0
  0
LINE
  5
56B
100
AcDbEntity
  8
0
100
AcDbLine
 62
7
  6
BYLAYER
 10
126.3173354629
 20
154.3693327935
 30
0.0
 11
131.0708970081
 21
154.3764378766
 31
0.0
  0
LINE
  5
56C
100
AcDbEntity
  8
0
100
AcDbLine
 62
7
  6
BYLAYER
 10
133.8711536553
 20
154.3693327935
 30
0.0
 11
132.7287172416
 21
154.3693327935
 31
0.0
  0
LINE
  5
56D
100
AcDbEntity
  8
0
100
AcDbLine
 62
7
  6
BYLAYER
 10
131.8225212635
 20
154.3693327935
 30
0.0
 11
131.0709069203
 21
154.3693327935
 31
0.0
  0
LINE
  5
56E
100
AcDbEntity
  8
0
100
AcDbLine
 62
7
  6
BYLAYER
 10
125.9638256893
 20
154.3693327935
 30
0.0
 11
81.3779881512
 21
154.3693327935
 31
0.0
  0
LINE
  5
56F
100
AcDbEntity
  8
0
100
AcDbLine
 62
7
  6
BYLAYER
 10
76.2709069203
 20
154.3693327935
 30
0.0
 11
75.5192925771
 21
154.3693327935
 31
0.0
  0
LINE
  5
570
100
AcDbEntity
  8
0
100
AcDbLine
 62
7
  6
BYLAYER
 10
74.613096599
 20
154.3693327935
 30
0.0
 11
73.4706601852
 21
154.3693327935
 31
0.0
  0
LINE
  5
571
100
AcDbEntity
  8
0
100
AcDbLine
 62
7
  6
BYLAYER
 10
69.1773975053
 20
154.3693327935
 30
0.0
 11
71.3984653015
 21
154.3693327935
 31
0.0
  0
LINE
  5
572
100
AcDbEntity
  8
0
100
AcDbLine
 62
7
  6
BYLAYER
 10
135.9432662857
 20
154.3693327935
 30
0.0
 11
138.1644163352
 21
154.3693327935
 31
0.0
  0
LINE
  5
573
100
AcDbEntity
  8
0
100
AcDbLine
 62
9
  6
BYLAYER
 10
135.9429921213
 20
154.3824212676
 30
0.0
 11
138.1640591333
 21
154.3827756937
 31
0.0
  0
LINE
  5
574
100
AcDbEntity
  8
0
100
AcDbLine
 62
7
  6
BYLAYER
 10
69.6775775412
 20
154.8693327935
 30
0.0
 11
70.9917442519
 21
154.8693327935
 31
0.0
  0
LINE
  5
575
100
AcDbEntity
  8
0
100
AcDbLine
 62
7
  6
BYLAYER
 10
76.2604334133
 20
154.8693327935
 30
0.0
 11
76.4821181839
 21
154.8693327935
 31
0.0
  0
LINE
  5
576
100
AcDbEntity
  8
0
100
AcDbLine
 62
7
  6
BYLAYER
 10
130.8596956567
 20
154.8693327935
 30
0.0
 11
131.0813804272
 21
154.8693327935
 31
0.0
  0
LINE
  5
577
100
AcDbEntity
  8
0
100
AcDbLine
 62
7
  6
BYLAYER
 10
136.3500695887
 20
154.8693327935
 30
0.0
 11
137.6642377752
 21
154.8693327935
 31
0.0
  0
LINE
  5
578
100
AcDbEntity
  8
0
100
AcDbLine
 62
9
  6
BYLAYER
 10
77.2481900235
 20
155.3598406411
 30
0.0
 11
76.2501587386
 21
155.3598406411
 31
0.0
  0
LINE
  5
579
100
AcDbEntity
  8
0
100
AcDbLine
 62
9
  6
BYLAYER
 10
130.8596956565
 20
155.3598439916
 30
0.0
 11
131.0916551589
 21
155.3598433608
 31
0.0
  0
LINE
  5
57A
100
AcDbEntity
  8
0
100
AcDbLine
 62
7
  6
BYLAYER
 10
81.0244783776
 20
154.3693327935
 30
0.0
 11
77.0607180853
 21
154.3713863113
 31
0.0
  0
LINE
  5
57B
100
AcDbEntity
  8
0
100
AcDbLine
 62
9
  6
BYLAYER
 10
69.1777585393
 20
154.3827910039
 30
0.0
 11
71.3988217193
 21
154.3824212676
 31
0.0
  0
LINE
  5
57C
100
AcDbEntity
  8
0
100
AcDbLine
 62
7
  6
BYLAYER
 10
76.2709192845
 20
154.3752566085
 30
0.0
 11
76.8364942681
 21
154.3740761373
 31
0.0
  0
LWPOLYLINE
  5
57D
100
AcDbEntity
  8
0
100
AcDbPolyline
 62
7
  6
BYLAYER
 90
11
 70
0
 10
131.767618319
 20
160.8693312917
 10
131.668664779
 20
160.8624049446
 10
131.5717711447
 20
160.8412448248
 10
131.4814589931
 20
160.8061124658
 10
131.4013339821
 20
160.7584823633
 10
131.3325940225
 20
160.6995819655
 10
131.2784154301
 20
160.6331810244
 10
131.2386243331
 20
160.5627556874
 10
131.2132182501
 20
160.4920646043
 10
131.1999052774
 20
160.4236819944
 10
131.1968088205
 20
160.3798267021
  0
LINE
  5
57E
100
AcDbEntity
  8
0
100
AcDbLine
 62
9
  6
BYLAYER
 10
129.4302280151
 20
160.3798040034
 30
0.0
 11
126.3694735873
 21
160.3798040034
 31
0.0
  0
LINE
  5
57F
100
AcDbEntity
  8
0
100
AcDbLine
 62
9
  6
BYLAYER
 10
126.0159956384
 20
160.3798040034
 30
0.0
 11
81.3258182022
 21
160.3798040034
 31
0.0
  0
LINE
  5
580
100
AcDbEntity
  8
0
100
AcDbLine
 62
9
  6
BYLAYER
 10
80.9723423517
 20
160.3798040034
 30
0.0
 11
77.9115858254
 21
160.3798040034
 31
0.0
  0
LINE
  5
581
100
AcDbEntity
  8
0
100
AcDbLine
 62
9
  6
BYLAYER
 10
73.5963697113
 20
160.3798040034
 30
0.0
 11
74.5329496722
 21
160.3798040034
 31
0.0
  0
LINE
  5
582
100
AcDbEntity
  8
0
100
AcDbLine
 62
9
  6
BYLAYER
 10
75.4390586909
 20
160.3798040034
 30
0.0
 11
77.2046341244
 21
160.3798040034
 31
0.0
  0
LINE
  5
583
100
AcDbEntity
  8
0
100
AcDbLine
 62
9
  6
BYLAYER
 10
132.8088641684
 20
160.3798040034
 30
0.0
 11
133.7454441293
 21
160.3798040034
 31
0.0
  0
LINE
  5
584
100
AcDbEntity
  8
0
100
AcDbLine
 62
9
  6
BYLAYER
 10
130.1371797161
 20
160.3798040034
 30
0.0
 11
131.9027551496
 21
160.3798040034
 31
0.0
  0
LINE
  5
585
100
AcDbEntity
  8
0
100
AcDbLine
 62
7
  6
BYLAYER
 10
72.096698686
 20
160.8693327935
 30
0.0
 11
135.2451151545
 21
160.8693327935
 31
0.0
  0
LINE
  5
586
100
AcDbEntity
  8
0
100
AcDbLine
 62
9
  6
BYLAYER
 10
125.9638256893
 20
154.3693327935
 30
0.0
 11
126.0159326859
 21
146.3614791348
 31
0.0
  0
LINE
  5
587
100
AcDbEntity
  8
0
100
AcDbLine
 62
9
  6
BYLAYER
 10
126.3173354629
 20
154.3693327935
 30
0.0
 11
126.3694466522
 21
146.3614791348
 31
0.0
  0
LINE
  5
588
100
AcDbEntity
  8
0
100
AcDbLine
 62
9
  6
BYLAYER
 10
126.0159326859
 20
146.3614791348
 30
0.0
 11
126.0159326859
 21
145.8693327935
 31
0.0
  0
LINE
  5
589
100
AcDbEntity
  8
0
100
AcDbLine
 62
9
  6
BYLAYER
 10
126.0159956384
 20
160.3798040034
 30
0.0
 11
126.0159956384
 21
160.8693327935
 31
0.0
  0
LINE
  5
58A
100
AcDbEntity
  8
0
100
AcDbLine
 62
9
  6
BYLAYER
 10
126.0159956384
 20
160.3798040034
 30
0.0
 11
125.963845561
 21
154.3693327935
 31
0.0
  0
LINE
  5
58B
100
AcDbEntity
  8
0
100
AcDbLine
 62
9
  6
BYLAYER
 10
126.3694735873
 20
160.3798040034
 30
0.0
 11
126.3173214115
 21
154.3693327935
 31
0.0
  0
LINE
  5
58C
100
AcDbEntity
  8
0
100
AcDbLine
 62
9
  6
BYLAYER
 10
129.4301568315
 20
146.3614791348
 30
0.0
 11
129.3975260959
 21
151.3762021594
 31
0.0
  0
LINE
  5
58D
100
AcDbEntity
  8
0
100
AcDbLine
 62
9
  6
BYLAYER
 10
129.3780779378
 20
154.3693327935
 30
0.0
 11
129.4302280151
 21
160.3798040034
 31
0.0
  0
LWPOLYLINE
  5
58E
100
AcDbEntity
  8
0
100
AcDbPolyline
 62
7
  6
BYLAYER
 90
12
 70
0
 10
131.1967046795
 20
146.3614613132
 10
131.1976901476
 20
146.3378097935
 10
131.2083927575
 20
146.2652017507
 10
131.2311195093
 20
146.1932758721
 10
131.2663436524
 20
146.1239429335
 10
131.313761389
 20
146.0595597458
 10
131.3720368036
 20
146.0027699229
 10
131.4398192158
 20
145.9549956697
 10
131.5153378057
 20
145.9173578157
 10
131.5981358378
 20
145.8901025077
 10
131.6858855783
 20
145.8740365979
 10
131.7680413722
 20
145.8693331362
  0
LINE
  5
58F
100
AcDbEntity
  8
0
100
AcDbLine
 62
7
  6
BYLAYER
 10
131.0709069203
 20
154.3693327935
 30
0.0
 11
131.1967046173
 21
146.3614613561
 31
0.0
  0
LINE
  5
590
100
AcDbEntity
  8
0
100
AcDbLine
 62
9
  6
BYLAYER
 10
131.1177530267
 20
154.3693327935
 30
0.0
 11
131.231764206
 21
146.3614791348
 31
0.0
  0
LINE
  5
591
100
AcDbEntity
  8
0
100
AcDbLine
 62
9
  6
BYLAYER
 10
131.9026630572
 20
146.3614791348
 30
0.0
 11
131.8225212635
 21
154.3693327935
 31
0.0
  0
LINE
  5
592
100
AcDbEntity
  8
0
100
AcDbLine
 62
9
  6
BYLAYER
 10
130.1371763787
 20
146.3614791348
 30
0.0
 11
130.1045456431
 21
151.3762021594
 31
0.0
  0
LINE
  5
593
100
AcDbEntity
  8
0
100
AcDbLine
 62
9
  6
BYLAYER
 10
130.1371763787
 20
146.3614791348
 30
0.0
 11
130.1371763787
 21
145.8693327935
 31
0.0
  0
LINE
  5
594
100
AcDbEntity
  8
0
100
AcDbLine
 62
9
  6
BYLAYER
 10
130.1371797161
 20
160.3798040034
 30
0.0
 11
130.1371797161
 21
160.8693327935
 31
0.0
  0
LINE
  5
595
100
AcDbEntity
  8
0
100
AcDbLine
 62
9
  6
BYLAYER
 10
130.8596956567
 20
154.8693327935
 30
0.0
 11
130.8596956567
 21
155.3598406411
 31
0.0
  0
LINE
  5
596
100
AcDbEntity
  8
0
100
AcDbLine
 62
9
  6
BYLAYER
 10
130.0922249328
 20
155.1986145439
 30
0.0
 11
130.1371797161
 21
160.3798040034
 31
0.0
  0
LINE
  5
597
100
AcDbEntity
  8
0
100
AcDbLine
 62
9
  6
BYLAYER
 10
131.8225470966
 20
154.3693327935
 30
0.0
 11
131.9027551496
 21
160.3798040034
 31
0.0
  0
LINE
  5
598
100
AcDbEntity
  8
0
100
AcDbLine
 62
9
  6
BYLAYER
 10
131.2318584678
 20
160.3798040034
 30
0.0
 11
131.1177530267
 21
154.3693327935
 31
0.0
  0
LINE
  5
599
100
AcDbEntity
  8
0
100
AcDbLine
 62
7
  6
BYLAYER
 10
131.1968088191
 20
160.3798266704
 30
0.0
 11
131.0709069203
 21
154.3693327935
 31
0.0
  0
LINE
  5
59A
100
AcDbEntity
  8
0
100
AcDbLine
 62
9
  6
BYLAYER
 10
133.8713455533
 20
154.3693327935
 30
0.0
 11
133.7454441293
 21
160.3798040034
 31
0.0
  0
LINE
  5
59B
100
AcDbEntity
  8
0
100
AcDbLine
 62
9
  6
BYLAYER
 10
132.8088590353
 20
146.3614791348
 30
0.0
 11
132.7287172416
 21
154.3693327935
 31
0.0
  0
LINE
  5
59C
100
AcDbEntity
  8
0
100
AcDbLine
 62
9
  6
BYLAYER
 10
132.8088590353
 20
145.8693327935
 30
0.0
 11
132.8088590353
 21
146.3614791348
 31
0.0
  0
LINE
  5
59D
100
AcDbEntity
  8
0
100
AcDbLine
 62
9
  6
BYLAYER
 10
132.8088641684
 20
160.8693327935
 30
0.0
 11
132.8088641684
 21
160.3798040034
 31
0.0
  0
LINE
  5
59E
100
AcDbEntity
  8
0
100
AcDbLine
 62
9
  6
BYLAYER
 10
133.7453562376
 20
145.8693327935
 30
0.0
 11
133.7453562376
 21
146.3614791348
 31
0.0
  0
LINE
  5
59F
100
AcDbEntity
  8
0
100
AcDbLine
 62
9
  6
BYLAYER
 10
133.7454441293
 20
160.8693327935
 30
0.0
 11
133.7454441293
 21
160.3798040034
 31
0.0
  0
LINE
  5
5A0
100
AcDbEntity
  8
0
100
AcDbLine
 62
9
  6
BYLAYER
 10
132.7286561153
 20
154.3693327935
 30
0.0
 11
132.8088641684
 21
160.3798040034
 31
0.0
  0
LINE
  5
5A1
100
AcDbEntity
  8
0
100
AcDbLine
 62
9
  6
BYLAYER
 10
133.7453562376
 20
146.3614791348
 30
0.0
 11
133.8711536553
 21
154.3693327935
 31
0.0
  0
LINE
  5
5A2
100
AcDbEntity
  8
0
100
AcDbLine
 62
9
  6
BYLAYER
 10
137.2599125347
 20
154.3824212676
 30
0.0
 11
137.2602649574
 21
154.3693327935
 31
0.0
  0
LINE
  5
5A3
100
AcDbEntity
  8
0
100
AcDbLine
 62
7
  6
BYLAYER
 10
135.8709069203
 20
154.3693327935
 30
0.0
 11
135.7450054962
 21
160.3798040034
 31
0.0
  0
LINE
  5
5A4
100
AcDbEntity
  8
0
100
AcDbLine
 62
9
  6
BYLAYER
 10
135.9429921213
 20
154.3824212676
 30
0.0
 11
135.9432662857
 21
154.3693327935
 31
0.0
  0
LINE
  5
5A5
100
AcDbEntity
  8
0
100
AcDbLine
 62
7
  6
BYLAYER
 10
135.7451095025
 20
146.3614791348
 30
0.0
 11
135.8709069203
 21
154.3693327935
 31
0.0
  0
LINE
  5
5A6
100
AcDbEntity
  8
0
100
AcDbLine
 62
9
  6
BYLAYER
 10
135.943348539
 20
154.3693327935
 30
0.0
 11
135.9117244182
 21
152.3562443193
 31
0.0
  0
LINE
  5
5A7
100
AcDbEntity
  8
0
100
AcDbLine
 62
9
  6
BYLAYER
 10
137.2602649574
 20
154.3693327935
 30
0.0
 11
137.2060601713
 21
152.3562443193
 31
0.0
  0
LINE
  5
5A8
100
AcDbEntity
  8
0
100
AcDbLine
 62
7
  6
BYLAYER
 10
138.1644210993
 20
154.3693327935
 30
0.0
 11
138.110206355
 21
152.3558744836
 31
0.0
  0
ARC
  5
5A9
100
AcDbEntity
  8
0
100
AcDbCircle
 62
9
  6
BYLAYER
 10
58.7118205613
 20
196.7982641929
 30
0.0
 40
65.094009748
100
AcDbArc
 50
357.2466873411
 51
357.4324492194
  0
ARC
  5
5AA
100
AcDbEntity
  8
0
100
AcDbCircle
 62
9
  6
BYLAYER
 10
59.2441709148
 20
196.1694267774
 30
0.0
 40
63.7386409239
100
AcDbArc
 50
357.7816443131
 51
357.9690045695
  0
ARC
  5
5AB
100
AcDbEntity
  8
0
100
AcDbCircle
 62
9
  6
BYLAYER
 10
51.0250598827
 20
207.8201029836
 30
0.0
 40
29.6493953261
100
AcDbArc
 50
2.3937642692
 51
5.5064336185
  0
ARC
  5
5AC
100
AcDbEntity
  8
0
100
AcDbCircle
 62
9
  6
BYLAYER
 10
70.6424175627
 20
208.6127330911
 30
0.0
 40
10.016088438
100
AcDbArc
 50
2.5506063952
 51
11.7179785448
  0
ARC
  5
5AD
100
AcDbEntity
  8
0
100
AcDbCircle
 62
9
  6
BYLAYER
 10
70.5670499965
 20
208.5476285344
 30
0.0
 40
10.0155344651
100
AcDbArc
 50
2.6517369922
 51
11.7193144307
  0
ARC
  5
5AE
100
AcDbEntity
  8
0
100
AcDbCircle
 62
9
  6
BYLAYER
 10
70.5678795189
 20
208.5478253515
 30
0.0
 40
9.5147584138
100
AcDbArc
 50
2.6511845073
 51
11.7188165098
  0
ARC
  5
5AF
100
AcDbEntity
  8
0
100
AcDbCircle
 62
9
  6
BYLAYER
 10
69.8185093716
 20
209.3068499252
 30
0.0
 40
8.5160465062
100
AcDbArc
 50
1.4684932659
 51
11.7156813571
  0
ARC
  5
5B0
100
AcDbEntity
  8
0
100
AcDbCircle
 62
9
  6
BYLAYER
 10
69.7408821649
 20
209.2978731533
 30
0.0
 40
8.0151466978
100
AcDbArc
 50
1.4804721524
 51
11.7156652255
  0
ARC
  5
5B1
100
AcDbEntity
  8
0
100
AcDbCircle
 62
9
  6
BYLAYER
 10
69.8196732816
 20
209.3069844313
 30
0.0
 40
8.0149412233
100
AcDbArc
 50
1.4683898329
 51
11.71578479
  0
ARC
  5
5B2
100
AcDbEntity
  8
0
100
AcDbCircle
 62
9
  6
BYLAYER
 10
69.7419652068
 20
209.2979984285
 30
0.0
 40
7.5141224728
100
AcDbArc
 50
1.4804191906
 51
11.7157181873
  0
ARC
  5
5B3
100
AcDbEntity
  8
0
100
AcDbCircle
 62
9
  6
BYLAYER
 10
67.9464317954
 20
253.3799027452
 30
0.0
 40
3.5582156081
100
AcDbArc
 50
350.890129652
 51
351.5445435934
  0
ARC
  5
5B4
100
AcDbEntity
  8
0
100
AcDbCircle
 62
9
  6
BYLAYER
 10
68.1910199057
 20
253.3469601379
 30
0.0
 40
3.3114438824
100
AcDbArc
 50
351.486064828
 51
0.2038571161
  0
ARC
  5
5B5
100
AcDbEntity
  8
0
100
AcDbCircle
 62
9
  6
BYLAYER
 10
69.4930525393
 20
253.3589417724
 30
0.0
 40
2.0093962766
100
AcDbArc
 50
348.3385530466
 51
359.9943081806
  0
ARC
  5
5B6
100
AcDbEntity
  8
0
100
AcDbCircle
 62
7
  6
BYLAYER
 10
69.4628545168
 20
253.4425507091
 30
0.0
 40
2.0080526251
100
AcDbArc
 50
346.2217654488
 51
359.9730803761
  0
ARC
  5
5B7
100
AcDbEntity
  8
0
100
AcDbCircle
 62
9
  6
BYLAYER
 10
69.4996034806
 20
253.3581208619
 30
0.0
 40
2.0028146913
100
AcDbArc
 50
344.5549806044
 51
348.3236723654
  0
ARC
  5
5B8
100
AcDbEntity
  8
0
100
AcDbCircle
 62
9
  6
BYLAYER
 10
73.596551097
 20
253.5444612072
 30
0.0
 40
1.9998492563
100
AcDbArc
 50
90.0026786131
 51
179.9973213878
  0
ARC
  5
5B9
100
AcDbEntity
  8
0
100
AcDbCircle
 62
7
  6
BYLAYER
 10
73.4704474851
 20
253.6705648191
 30
0.0
 40
1.99953489
100
AcDbArc
 50
89.9939053006
 51
180.0060946991
  0
ARC
  5
5BA
100
AcDbEntity
  8
0
100
AcDbCircle
 62
7
  6
BYLAYER
 10
69.4757475068
 20
253.4401978526
 30
0.0
 40
1.9949704208
100
AcDbArc
 50
344.5415158779
 51
346.1992057924
  0
ARC
  5
5BB
100
AcDbEntity
  8
0
100
AcDbCircle
 62
9
  6
BYLAYER
 10
76.136776874
 20
236.9663878197
 30
0.0
 40
1.4997965854
100
AcDbArc
 50
45.0003962726
 51
89.9996037274
  0
ARC
  5
5BC
100
AcDbEntity
  8
0
100
AcDbCircle
 62
9
  6
BYLAYER
 10
73.5963986586
 20
253.5446136456
 30
0.0
 40
1.4997560056
100
AcDbArc
 50
89.9977481264
 51
180.0022518736
  0
ARC
  5
5BD
100
AcDbEntity
  8
0
100
AcDbCircle
 62
9
  6
BYLAYER
 10
75.1449154567
 20
241.5441139203
 30
0.0
 40
1.499744272
100
AcDbArc
 50
179.9972998247
 51
270.0027001753
  0
ARC
  5
5BE
100
AcDbEntity
  8
0
100
AcDbCircle
 62
9
  6
BYLAYER
 10
75.9183669386
 20
236.9665280789
 30
0.0
 40
1.499653003
100
AcDbArc
 50
89.9945123063
 51
191.7314401735
  0
ARC
  5
5BF
100
AcDbEntity
  8
0
100
AcDbCircle
 62
9
  6
BYLAYER
 10
74.9449495892
 20
252.196062715
 30
0.0
 40
1.2997784043
100
AcDbArc
 50
89.9973013774
 51
180.0026986226
  0
ARC
  5
5C0
100
AcDbEntity
  8
0
100
AcDbCircle
 62
9
  6
BYLAYER
 10
77.2503260565
 20
239.6039668088
 30
0.0
 40
1.0217659577
100
AcDbArc
 50
70.2030248778
 51
90.6723846168
  0
ARC
  5
5C1
100
AcDbEntity
  8
0
100
AcDbCircle
 62
9
  6
BYLAYER
 10
74.5328439087
 20
254.544257261
 30
0.0
 40
1.0000553661
100
AcDbArc
 50
25.0063535841
 51
89.9936464184
  0
ARC
  5
5C2
100
AcDbEntity
  8
0
100
AcDbCircle
 62
9
  6
BYLAYER
 10
75.2239043174
 20
241.6231017808
 30
0.0
 40
1.0000201467
100
AcDbArc
 50
180.0079993707
 51
269.9919433147
  0
ARC
  5
5C3
100
AcDbEntity
  8
0
100
AcDbCircle
 62
9
  6
BYLAYER
 10
77.2045863645
 20
239.5443079737
 30
0.0
 40
0.9999999938
100
AcDbArc
 50
45.002927666
 51
89.997072334
  0
ARC
  5
5C4
100
AcDbEntity
  8
0
100
AcDbCircle
 62
9
  6
BYLAYER
 10
76.0263212431
 20
236.8786818679
 30
0.0
 40
0.9999987493
100
AcDbArc
 50
90.0106344462
 51
191.7153803546
  0
ARC
  5
5C5
100
AcDbEntity
  8
0
100
AcDbCircle
 62
9
  6
BYLAYER
 10
75.2393787919
 20
244.4712595679
 30
0.0
 40
0.9999982962
100
AcDbArc
 50
180.0028873821
 51
224.9971126174
  0
ARC
  5
5C6
100
AcDbEntity
  8
0
100
AcDbCircle
 62
9
  6
BYLAYER
 10
76.1005138217
 20
236.8788410671
 30
0.0
 40
0.9998395328
100
AcDbArc
 50
44.999806255
 51
90.0001937451
  0
ARC
  5
5C7
100
AcDbEntity
  8
0
100
AcDbCircle
 62
7
  6
BYLAYER
 10
74.6131422432
 20
254.6703003985
 30
0.0
 40
0.9998049865
100
AcDbArc
 50
24.9973842696
 51
90.0026157304
  0
ARC
  5
5C8
100
AcDbEntity
  8
0
100
AcDbCircle
 62
9
  6
BYLAYER
 10
76.1368487164
 20
236.9665612627
 30
0.0
 40
0.9996992966
100
AcDbArc
 50
44.9964769993
 51
90.0035230007
  0
ARC
  5
5C9
100
AcDbEntity
  8
0
100
AcDbCircle
 62
9
  6
BYLAYER
 10
75.1447670934
 20
241.543965557
 30
0.0
 40
0.9996551747
100
AcDbArc
 50
179.9874455389
 51
270.0125544623
  0
ARC
  5
5CA
100
AcDbEntity
  8
0
100
AcDbCircle
 62
9
  6
BYLAYER
 10
75.9181236163
 20
236.9667277487
 30
0.0
 40
0.9995278501
100
AcDbArc
 50
89.9778186423
 51
191.7481961581
  0
ARC
  5
5CB
100
AcDbEntity
  8
0
100
AcDbCircle
 62
7
  6
BYLAYER
 10
75.2704316284
 20
244.484122074
 30
0.0
 40
0.9993756898
100
AcDbArc
 50
179.988103344
 51
225.0118966561
  0
ARC
  5
5CC
100
AcDbEntity
  8
0
100
AcDbCircle
 62
7
  6
BYLAYER
 10
75.0707719682
 20
252.070240336
 30
0.0
 40
0.7998686127
100
AcDbArc
 50
89.9974027694
 51
180.0025972306
  0
ARC
  5
5CD
100
AcDbEntity
  8
0
100
AcDbCircle
 62
9
  6
BYLAYER
 10
74.9448010853
 20
252.1962112189
 30
0.0
 40
0.7996893133
100
AcDbArc
 50
89.9849738895
 51
180.0150261118
  0
ARC
  5
5CE
100
AcDbEntity
  8
0
100
AcDbCircle
 62
7
  6
BYLAYER
 10
75.7709069203
 20
253.3701053839
 30
0.0
 40
0.5
100
AcDbArc
 50
270.0
 51
25.0
  0
ARC
  5
5CF
100
AcDbEntity
  8
0
100
AcDbCircle
 62
9
  6
BYLAYER
 10
74.5329440642
 20
254.5444144737
 30
0.0
 40
0.4999551764
100
AcDbArc
 50
25.001230941
 51
89.998769059
  0
ARC
  5
5D0
100
AcDbEntity
  8
0
100
AcDbCircle
 62
9
  6
BYLAYER
 10
77.2046395659
 20
239.5444364134
 30
0.0
 40
0.4999332366
100
AcDbArc
 50
44.9997588596
 51
90.0002411404
  0
ARC
  5
5D1
100
AcDbEntity
  8
0
100
AcDbCircle
 62
9
  6
BYLAYER
 10
76.0260820578
 20
236.8788765052
 30
0.0
 40
0.4998787619
100
AcDbArc
 50
89.9938587696
 51
191.7321560386
  0
ARC
  5
5D2
100
AcDbEntity
  8
0
100
AcDbCircle
 62
9
  6
BYLAYER
 10
76.1005482901
 20
236.8789242812
 30
0.0
 40
0.4998324726
100
AcDbArc
 50
44.9956613309
 51
90.0043386691
  0
ARC
  5
5D3
100
AcDbEntity
  8
0
100
AcDbCircle
 62
9
  6
BYLAYER
 10
75.2237472236
 20
241.6229456873
 30
0.0
 40
0.4989232135
100
AcDbArc
 50
179.998107933
 51
270.0018920715
  0
ARC
  5
5D4
100
AcDbEntity
  8
0
100
AcDbCircle
 62
9
  6
BYLAYER
 10
75.7709069203
 20
253.3701053839
 30
0.0
 40
0.3742022488
100
AcDbArc
 50
270.0
 51
25.0
  0
ARC
  5
5D5
100
AcDbEntity
  8
0
100
AcDbCircle
 62
9
  6
BYLAYER
 10
88.7752967769
 20
195.8377776189
 30
0.0
 40
15.5187015652
100
AcDbArc
 50
121.5789040018
 51
121.9120041688
  0
ARC
  5
5D6
100
AcDbEntity
  8
0
100
AcDbCircle
 62
7
  6
BYLAYER
 10
82.0470463644
 20
194.8913244663
 30
0.0
 40
0.5039266858
100
AcDbArc
 50
35.3109061594
 51
54.6154744735
  0
ARC
  5
5D7
100
AcDbEntity
  8
0
100
AcDbCircle
 62
9
  6
BYLAYER
 10
82.0339747946
 20
194.9662190613
 30
0.0
 40
0.5031797827
100
AcDbArc
 50
35.1940234278
 51
54.457093304
  0
ARC
  5
5D8
100
AcDbEntity
  8
0
100
AcDbCircle
 62
9
  6
BYLAYER
 10
83.9895056789
 20
194.1975943104
 30
0.0
 40
0.5001370069
100
AcDbArc
 50
219.0911062768
 51
324.9706506968
  0
ARC
  5
5D9
100
AcDbEntity
  8
0
100
AcDbCircle
 62
9
  6
BYLAYER
 10
84.780939083
 20
195.3277805678
 30
0.0
 40
0.5000754973
100
AcDbArc
 50
325.0110854042
 51
35.3829264562
  0
ARC
  5
5DA
100
AcDbEntity
  8
0
100
AcDbCircle
 62
7
  6
BYLAYER
 10
83.9972464803
 20
193.9889333225
 30
0.0
 40
0.4999090613
100
AcDbArc
 50
219.438844469
 51
324.9977773204
  0
ARC
  5
5DB
100
AcDbEntity
  8
0
100
AcDbCircle
 62
7
  6
BYLAYER
 10
84.9351896229
 20
195.3284447837
 30
0.0
 40
0.4998992392
100
AcDbArc
 50
325.0007219554
 51
35.5926148265
  0
ARC
  5
5DC
100
AcDbEntity
  8
0
100
AcDbCircle
 62
9
  6
BYLAYER
 10
78.7330851486
 20
215.0553566981
 30
0.0
 40
48.2711456856
100
AcDbArc
 50
354.7818445794
 51
358.1907500685
  0
ARC
  5
5DD
100
AcDbEntity
  8
0
100
AcDbCircle
 62
7
  6
BYLAYER
 10
91.0097197965
 20
207.5421037387
 30
0.0
 40
15.0
100
AcDbArc
 50
191.7260148008
 51
234.6861640582
  0
ARC
  5
5DE
100
AcDbEntity
  8
0
100
AcDbCircle
 62
9
  6
BYLAYER
 10
91.0097197965
 20
207.5421037387
 30
0.0
 40
14.9472854231
100
AcDbArc
 50
191.7260148008
 51
234.4844253976
  0
ARC
  5
5DF
100
AcDbEntity
  8
0
100
AcDbCircle
 62
9
  6
BYLAYER
 10
91.0097197965
 20
207.5421037387
 30
0.0
 40
14.4474567598
100
AcDbArc
 50
191.7260148008
 51
222.0887763219
  0
ARC
  5
5E0
100
AcDbEntity
  8
0
100
AcDbCircle
 62
9
  6
BYLAYER
 10
80.5158535574
 20
220.0656595393
 30
0.0
 40
1.9998972498
100
AcDbArc
 50
338.526987478
 51
11.7246939461
  0
ARC
  5
5E1
100
AcDbEntity
  8
0
100
AcDbCircle
 62
7
  6
BYLAYER
 10
80.5478612401
 20
220.0598390814
 30
0.0
 40
1.999523272
100
AcDbArc
 50
338.5109714457
 51
11.728247911
  0
ARC
  5
5E2
100
AcDbEntity
  8
0
100
AcDbCircle
 62
9
  6
BYLAYER
 10
80.5159794613
 20
220.0656370986
 30
0.0
 40
1.4998335541
100
AcDbArc
 50
338.5263083179
 51
11.7260704191
  0
ARC
  5
5E3
100
AcDbEntity
  8
0
100
AcDbCircle
 62
9
  6
BYLAYER
 10
91.3345618271
 20
197.8480824821
 30
0.0
 40
16.8014813688
100
AcDbArc
 50
130.3795179707
 51
130.7204157448
  0
ARC
  5
5E4
100
AcDbEntity
  8
0
100
AcDbCircle
 62
9
  6
BYLAYER
 10
103.6709069203
 20
210.1701053839
 30
0.0
 40
26.4260257702
100
AcDbArc
 50
181.470122577
 51
207.76842468
  0
ARC
  5
5E5
100
AcDbEntity
  8
0
100
AcDbCircle
 62
9
  6
BYLAYER
 10
103.6709069203
 20
210.1701053839
 30
0.0
 40
26.4260257702
100
AcDbArc
 50
332.2315753211
 51
358.529877423
  0
ARC
  5
5E6
100
AcDbEntity
  8
0
100
AcDbCircle
 62
7
  6
BYLAYER
 10
100.6518305935
 20
210.0338692958
 30
0.0
 40
26.0596832403
100
AcDbArc
 50
1.1871208899
 51
7.5191848648
  0
ARC
  5
5E7
100
AcDbEntity
  8
0
100
AcDbCircle
 62
7
  6
BYLAYER
 10
103.6709069203
 20
210.1701053839
 30
0.0
 40
25.9730918448
100
AcDbArc
 50
320.5633782117
 51
324.7575533811
  0
ARC
  5
5E8
100
AcDbEntity
  8
0
100
AcDbCircle
 62
7
  6
BYLAYER
 10
103.6709069203
 20
210.1701053839
 30
0.0
 40
25.9730918448
100
AcDbArc
 50
215.2424466189
 51
219.4366217883
  0
ARC
  5
5E9
100
AcDbEntity
  8
0
100
AcDbCircle
 62
9
  6
BYLAYER
 10
103.6709069203
 20
210.1701053839
 30
0.0
 40
25.9260874539
100
AcDbArc
 50
181.470122577
 51
207.7684246806
  0
ARC
  5
5EA
100
AcDbEntity
  8
0
100
AcDbCircle
 62
9
  6
BYLAYER
 10
103.6709069203
 20
210.1701053839
 30
0.0
 40
25.9260874539
100
AcDbArc
 50
332.2315753194
 51
358.529877423
  0
ARC
  5
5EB
100
AcDbEntity
  8
0
100
AcDbCircle
 62
9
  6
BYLAYER
 10
103.6709069203
 20
210.1701053839
 30
0.0
 40
25.847294427
100
AcDbArc
 50
181.4581598221
 51
219.0617587155
  0
ARC
  5
5EC
100
AcDbEntity
  8
0
100
AcDbCircle
 62
9
  6
BYLAYER
 10
103.6709069203
 20
210.1701053839
 30
0.0
 40
25.847294427
100
AcDbArc
 50
320.9382412845
 51
358.5418401779
  0
ARC
  5
5ED
100
AcDbEntity
  8
0
100
AcDbCircle
 62
9
  6
BYLAYER
 10
101.6709069203
 20
210.1701053839
 30
0.0
 40
25.625735734
100
AcDbArc
 50
324.6059849297
 51
357.3558820647
  0
ARC
  5
5EE
100
AcDbEntity
  8
0
100
AcDbCircle
 62
9
  6
BYLAYER
 10
101.6709069203
 20
210.1701053839
 30
0.0
 40
25.531480202
100
AcDbArc
 50
7.5649714337
 51
21.4738637175
  0
ARC
  5
5EF
100
AcDbEntity
  8
0
100
AcDbCircle
 62
9
  6
BYLAYER
 10
103.6709069203
 20
208.6701053839
 30
0.0
 40
25.531480202
100
AcDbArc
 50
63.6825633687
 51
86.0054497178
  0
ARC
  5
5F0
100
AcDbEntity
  8
0
100
AcDbCircle
 62
9
  6
BYLAYER
 10
103.6709069203
 20
208.6701053839
 30
0.0
 40
25.531480202
100
AcDbArc
 50
93.9945502822
 51
116.3174366313
  0
ARC
  5
5F1
100
AcDbEntity
  8
0
100
AcDbCircle
 62
9
  6
BYLAYER
 10
101.2126525377
 20
210.0295553828
 30
0.0
 40
25.4990760191
100
AcDbArc
 50
357.8174607801
 51
1.2229195137
  0
ARC
  5
5F2
100
AcDbEntity
  8
0
100
AcDbCircle
 62
9
  6
BYLAYER
 10
103.6709069203
 20
210.1701053839
 30
0.0
 40
25.3473561108
100
AcDbArc
 50
320.9382412845
 51
358.5418401779
  0
ARC
  5
5F3
100
AcDbEntity
  8
0
100
AcDbCircle
 62
9
  6
BYLAYER
 10
103.6709069203
 20
210.1701053839
 30
0.0
 40
25.3473561108
100
AcDbArc
 50
181.4581598221
 51
219.0617587155
  0
ARC
  5
5F4
100
AcDbEntity
  8
0
100
AcDbCircle
 62
9
  6
BYLAYER
 10
101.6709069203
 20
210.1701053839
 30
0.0
 40
25.1257974177
100
AcDbArc
 50
324.6059849297
 51
357.3558820647
  0
ARC
  5
5F5
100
AcDbEntity
  8
0
100
AcDbCircle
 62
9
  6
BYLAYER
 10
101.6709069203
 20
210.1701053839
 30
0.0
 40
25.0315418858
100
AcDbArc
 50
7.5649714337
 51
21.4738637175
  0
ARC
  5
5F6
100
AcDbEntity
  8
0
100
AcDbCircle
 62
9
  6
BYLAYER
 10
103.6709069203
 20
208.6701053839
 30
0.0
 40
25.0315418858
100
AcDbArc
 50
63.6825633687
 51
86.0054497178
  0
ARC
  5
5F7
100
AcDbEntity
  8
0
100
AcDbCircle
 62
9
  6
BYLAYER
 10
103.6709069203
 20
208.6701053839
 30
0.0
 40
25.0315418858
100
AcDbArc
 50
93.9945502822
 51
116.3174366313
  0
ARC
  5
5F8
100
AcDbEntity
  8
0
100
AcDbCircle
 62
7
  6
BYLAYER
 10
101.6709069203
 20
210.1701053839
 30
0.0
 40
25.0
100
AcDbArc
 50
324.4067395312
 51
21.4870231896
  0
ARC
  5
5F9
100
AcDbEntity
  8
0
100
AcDbCircle
 62
7
  6
BYLAYER
 10
103.6709069203
 20
208.6701053839
 30
0.0
 40
25.0
100
AcDbArc
 50
63.6753046633
 51
86.0160558354
  0
ARC
  5
5FA
100
AcDbEntity
  8
0
100
AcDbCircle
 62
7
  6
BYLAYER
 10
103.6709069203
 20
208.6701053839
 30
0.0
 40
25.0
100
AcDbArc
 50
93.9839441646
 51
116.3246953367
  0
ARC
  5
5FB
100
AcDbEntity
  8
0
100
AcDbCircle
 62
7
  6
BYLAYER
 10
80.3461848588
 20
230.8701053839
 30
0.0
 40
4.1
100
AcDbArc
 50
300.8630260955
 51
340.8629887053
  0
ARC
  5
5FC
100
AcDbEntity
  8
0
100
AcDbCircle
 62
9
  6
BYLAYER
 10
80.3461848588
 20
230.8701053839
 30
0.0
 40
4.0702171787
100
AcDbArc
 50
300.6641247238
 51
341.061890077
  0
ARC
  5
5FD
100
AcDbEntity
  8
0
100
AcDbCircle
 62
9
  6
BYLAYER
 10
80.3461848588
 20
230.8701053839
 30
0.0
 40
3.5702721993
100
AcDbArc
 50
300.6641247238
 51
341.061890077
  0
ARC
  5
5FE
100
AcDbEntity
  8
0
100
AcDbCircle
 62
9
  6
BYLAYER
 10
83.4418492432
 20
225.6488921232
 30
0.0
 40
2.4996706256
100
AcDbArc
 50
120.6632363806
 51
191.726903144
  0
ARC
  5
5FF
100
AcDbEntity
  8
0
100
AcDbCircle
 62
9
  6
BYLAYER
 10
86.0875723991
 20
228.9001625929
 30
0.0
 40
2.4996705921
100
AcDbArc
 50
89.999111108
 51
161.062778969
  0
CIRCLE
  5
600
100
AcDbEntity
  8
0
100
AcDbCircle
 62
9
  6
BYLAYER
 10
80.3461848588
 20
230.8701053839
 30
0.0
 40
2.0913486316
  0
ARC
  5
601
100
AcDbEntity
  8
0
100
AcDbCircle
 62
7
  6
BYLAYER
 10
86.1088547711
 20
228.870304833
 30
0.0
 40
1.999812043
100
AcDbArc
 50
90.0004205906
 51
160.8615757142
  0
ARC
  5
602
100
AcDbEntity
  8
0
100
AcDbCircle
 62
7
  6
BYLAYER
 10
83.4754073037
 20
225.6341227579
 30
0.0
 40
1.9998102304
100
AcDbArc
 50
120.8664409379
 51
191.7225999545
  0
ARC
  5
603
100
AcDbEntity
  8
0
100
AcDbCircle
 62
9
  6
BYLAYER
 10
91.6867340599
 20
232.8996237276
 30
0.0
 40
1.9997355225
100
AcDbArc
 50
270.0000963186
 51
296.3180230088
  0
ARC
  5
604
100
AcDbEntity
  8
0
100
AcDbCircle
 62
7
  6
BYLAYER
 10
91.6976730008
 20
232.8698072565
 30
0.0
 40
1.9997018727
100
AcDbArc
 50
269.9994278551
 51
296.3250889006
  0
ARC
  5
605
100
AcDbEntity
  8
0
100
AcDbCircle
 62
9
  6
BYLAYER
 10
83.4417094454
 20
225.6489537957
 30
0.0
 40
1.9996013034
100
AcDbArc
 50
120.6604698695
 51
191.7296696551
  0
ARC
  5
606
100
AcDbEntity
  8
0
100
AcDbCircle
 62
9
  6
BYLAYER
 10
86.0874836071
 20
228.9002869326
 30
0.0
 40
1.9996012766
100
AcDbArc
 50
89.9963445985
 51
161.0655454785
  0
CIRCLE
  5
607
100
AcDbEntity
  8
0
100
AcDbCircle
 62
9
  6
BYLAYER
 10
80.3461848588
 20
230.8701053839
 30
0.0
 40
1.591424784
  0
CIRCLE
  5
608
100
AcDbEntity
  8
0
100
AcDbCircle
 62
7
  6
BYLAYER
 10
80.3461848588
 20
230.8701053839
 30
0.0
 40
1.5565146541
  0
ARC
  5
609
100
AcDbEntity
  8
0
100
AcDbCircle
 62
9
  6
BYLAYER
 10
91.6867674517
 20
232.8995451833
 30
0.0
 40
1.499711999
100
AcDbArc
 50
269.9988527145
 51
296.3184053867
  0
ARC
  5
60A
100
AcDbEntity
  8
0
100
AcDbCircle
 62
9
  6
BYLAYER
 10
91.5159132439
 20
242.2284760338
 30
0.0
 40
20.497940249
100
AcDbArc
 50
180.0001346991
 51
191.7258801017
  0
ARC
  5
60B
100
AcDbEntity
  8
0
100
AcDbCircle
 62
9
  6
BYLAYER
 10
91.5948212722
 20
242.2365788983
 30
0.0
 40
19.9981169343
100
AcDbArc
 50
180.0001718998
 51
191.725842901
  0
ARC
  5
60C
100
AcDbEntity
  8
0
100
AcDbCircle
 62
9
  6
BYLAYER
 10
91.5157809568
 20
242.2284624496
 30
0.0
 40
19.9978696458
100
AcDbArc
 50
180.0000991474
 51
191.7259156534
  0
ARC
  5
60D
100
AcDbEntity
  8
0
100
AcDbCircle
 62
9
  6
BYLAYER
 10
91.5946835067
 20
242.2365647515
 30
0.0
 40
19.4980408525
100
AcDbArc
 50
180.0001347377
 51
191.7258800631
  0
ARC
  5
60E
100
AcDbEntity
  8
0
100
AcDbCircle
 62
9
  6
BYLAYER
 10
79.9288217662
 20
235.8785533407
 30
0.0
 40
1.4997965883
100
AcDbArc
 50
225.0003963194
 51
269.9996036806
  0
ARC
  5
60F
100
AcDbEntity
  8
0
100
AcDbCircle
 62
9
  6
BYLAYER
 10
81.3258826513
 20
237.5442498956
 30
0.0
 40
0.9998802456
100
AcDbArc
 50
225.0000857602
 51
269.9999142399
  0
ARC
  5
610
100
AcDbEntity
  8
0
100
AcDbCircle
 62
9
  6
BYLAYER
 10
79.9650853268
 20
235.9661013204
 30
0.0
 40
0.9998407629
100
AcDbArc
 50
224.9998354536
 51
270.0001645464
  0
ARC
  5
611
100
AcDbEntity
  8
0
100
AcDbCircle
 62
9
  6
BYLAYER
 10
79.9287499234
 20
235.8783798966
 30
0.0
 40
0.9996992986
100
AcDbArc
 50
224.9964770458
 51
270.0035229542
  0
ARC
  5
612
100
AcDbEntity
  8
0
100
AcDbCircle
 62
7
  6
BYLAYER
 10
81.3779542728
 20
237.6699619105
 30
0.0
 40
0.4998565268
100
AcDbArc
 50
224.9983944905
 51
270.0016055096
  0
ARC
  5
613
100
AcDbEntity
  8
0
100
AcDbCircle
 62
9
  6
BYLAYER
 10
79.9650505903
 20
235.9660174589
 30
0.0
 40
0.4998330553
100
AcDbArc
 50
224.9956890034
 51
270.0043109966
  0
ARC
  5
614
100
AcDbEntity
  8
0
100
AcDbCircle
 62
9
  6
BYLAYER
 10
81.3258266043
 20
237.5441145864
 30
0.0
 40
0.4998066232
100
AcDbArc
 50
224.9934701926
 51
270.0062534331
  0
ARC
  5
615
100
AcDbEntity
  8
0
100
AcDbCircle
 62
9
  6
BYLAYER
 10
103.6709069203
 20
230.9701053839
 30
0.0
 40
3.531480202
100
AcDbArc
 50
68.0210421571
 51
74.8442901867
  0
ARC
  5
616
100
AcDbEntity
  8
0
100
AcDbCircle
 62
9
  6
BYLAYER
 10
103.6709069203
 20
230.9701053839
 30
0.0
 40
3.531480202
100
AcDbArc
 50
105.1557098133
 51
111.9789578429
  0
ARC
  5
617
100
AcDbEntity
  8
0
100
AcDbCircle
 62
9
  6
BYLAYER
 10
103.6709069203
 20
230.9701053839
 30
0.0
 40
3.0315418858
100
AcDbArc
 50
68.0210421571
 51
74.8442901867
  0
ARC
  5
618
100
AcDbEntity
  8
0
100
AcDbCircle
 62
9
  6
BYLAYER
 10
103.6709069203
 20
230.9701053839
 30
0.0
 40
3.0315418858
100
AcDbArc
 50
105.1557098133
 51
111.978957843
  0
ARC
  5
619
100
AcDbEntity
  8
0
100
AcDbCircle
 62
9
  6
BYLAYER
 10
103.6709069203
 20
230.9735224442
 30
0.0
 40
3.0282438064
100
AcDbArc
 50
74.8273872688
 51
105.1726127312
  0
ARC
  5
61A
100
AcDbEntity
  8
0
100
AcDbCircle
 62
7
  6
BYLAYER
 10
103.6709069203
 20
230.9701053839
 30
0.0
 40
3.0
100
AcDbArc
 50
67.9639133052
 51
112.0360866948
  0
ARC
  5
61B
100
AcDbEntity
  8
0
100
AcDbCircle
 62
9
  6
BYLAYER
 10
94.2231422843
 20
241.4830831349
 30
0.0
 40
24.9915350335
100
AcDbArc
 50
164.5410978394
 51
191.7259583104
  0
ARC
  5
61C
100
AcDbEntity
  8
0
100
AcDbCircle
 62
7
  6
BYLAYER
 10
94.1685790113
 20
241.4848612215
 30
0.0
 40
24.9911864022
100
AcDbArc
 50
164.5409045834
 51
191.7261515663
  0
ARC
  5
61D
100
AcDbEntity
  8
0
100
AcDbCircle
 62
9
  6
BYLAYER
 10
94.2227839628
 20
241.4830948117
 30
0.0
 40
24.4913579006
100
AcDbArc
 50
164.5409018833
 51
191.7261542664
  0
ARC
  5
61E
100
AcDbEntity
  8
0
100
AcDbCircle
 62
9
  6
BYLAYER
 10
101.785052775
 20
235.6479221971
 30
0.0
 40
2.012109743
100
AcDbArc
 50
274.05022554
 51
291.9232825854
  0
ARC
  5
61F
100
AcDbEntity
  8
0
100
AcDbCircle
 62
7
  6
BYLAYER
 10
101.792246885
 20
235.6167345082
 30
0.0
 40
2.0120386495
100
AcDbArc
 50
274.0395130154
 51
291.9805178448
  0
ARC
  5
620
100
AcDbEntity
  8
0
100
AcDbCircle
 62
9
  6
BYLAYER
 10
101.7857701285
 20
235.6448117183
 30
0.0
 40
1.509018285
100
AcDbArc
 50
274.0498432785
 51
291.923664824
  0
ARC
  5
621
100
AcDbEntity
  8
0
100
AcDbCircle
 62
7
  6
BYLAYER
 10
76.5088346193
 20
343.7427778854
 30
0.0
 40
103.1196958566
100
AcDbArc
 50
269.9828264033
 51
270.4053316342
  0
ARC
  5
622
100
AcDbEntity
  8
0
100
AcDbCircle
 62
9
  6
BYLAYER
 10
129.3403169253
 20
215.1002781734
 30
0.0
 40
49.0037923207
100
AcDbArc
 50
181.8347402419
 51
185.1926651118
  0
ARC
  5
623
100
AcDbEntity
  8
0
100
AcDbCircle
 62
7
  6
BYLAYER
 10
106.7795317933
 20
210.027052542
 30
0.0
 40
26.1493542642
100
AcDbArc
 50
172.4916271465
 51
178.8020111535
  0
ARC
  5
624
100
AcDbEntity
  8
0
100
AcDbCircle
 62
9
  6
BYLAYER
 10
105.6709069203
 20
210.1701053839
 30
0.0
 40
25.625735734
100
AcDbArc
 50
182.6441179351
 51
215.3940150703
  0
ARC
  5
625
100
AcDbEntity
  8
0
100
AcDbCircle
 62
9
  6
BYLAYER
 10
105.6709069203
 20
210.1701053839
 30
0.0
 40
25.531480202
100
AcDbArc
 50
158.5261362823
 51
172.4350285663
  0
ARC
  5
626
100
AcDbEntity
  8
0
100
AcDbCircle
 62
9
  6
BYLAYER
 10
106.004959991
 20
210.0285152641
 30
0.0
 40
25.3749254641
100
AcDbArc
 50
178.768747161
 51
182.1908725451
  0
ARC
  5
627
100
AcDbEntity
  8
0
100
AcDbCircle
 62
9
  6
BYLAYER
 10
105.6709069203
 20
210.1701053839
 30
0.0
 40
25.1257974177
100
AcDbArc
 50
182.6441179351
 51
215.3940150703
  0
ARC
  5
628
100
AcDbEntity
  8
0
100
AcDbCircle
 62
9
  6
BYLAYER
 10
105.6709069203
 20
210.1701053839
 30
0.0
 40
25.0315418858
100
AcDbArc
 50
158.5261362825
 51
172.4350285663
  0
ARC
  5
629
100
AcDbEntity
  8
0
100
AcDbCircle
 62
7
  6
BYLAYER
 10
105.6709069203
 20
210.1701053839
 30
0.0
 40
25.0
100
AcDbArc
 50
158.5129768104
 51
215.5932604688
  0
ARC
  5
62A
100
AcDbEntity
  8
0
100
AcDbCircle
 62
9
  6
BYLAYER
 10
116.0072313512
 20
197.8480583659
 30
0.0
 40
16.8015131258
100
AcDbArc
 50
49.279584503
 51
49.620481633
  0
ARC
  5
62B
100
AcDbEntity
  8
0
100
AcDbCircle
 62
9
  6
BYLAYER
 10
118.5665033323
 20
195.837755454
 30
0.0
 40
15.5187276387
100
AcDbArc
 50
58.0879960554
 51
58.4210956629
  0
ARC
  5
62C
100
AcDbEntity
  8
0
100
AcDbCircle
 62
7
  6
BYLAYER
 10
116.3320940441
 20
207.5421037387
 30
0.0
 40
15.0
100
AcDbArc
 50
305.3140642869
 51
348.2739851992
  0
ARC
  5
62D
100
AcDbEntity
  8
0
100
AcDbCircle
 62
9
  6
BYLAYER
 10
116.3320940441
 20
207.5421037387
 30
0.0
 40
14.9472854231
100
AcDbArc
 50
305.5155746024
 51
348.2739851992
  0
ARC
  5
62E
100
AcDbEntity
  8
0
100
AcDbCircle
 62
9
  6
BYLAYER
 10
116.3320940441
 20
207.5421037387
 30
0.0
 40
14.4474567598
100
AcDbArc
 50
317.9112236801
 51
348.2739851992
  0
ARC
  5
62F
100
AcDbEntity
  8
0
100
AcDbCircle
 62
9
  6
BYLAYER
 10
126.8259725833
 20
220.0656605882
 30
0.0
 40
1.9999090802
100
AcDbArc
 50
168.275407086
 51
201.4729114898
  0
ARC
  5
630
100
AcDbEntity
  8
0
100
AcDbCircle
 62
7
  6
BYLAYER
 10
126.7939768427
 20
220.0598411511
 30
0.0
 40
1.9995465864
100
AcDbArc
 50
168.2731008119
 51
201.4874214915
  0
ARC
  5
631
100
AcDbEntity
  8
0
100
AcDbCircle
 62
9
  6
BYLAYER
 10
126.8258438962
 20
220.0656379101
 30
0.0
 40
1.4998427075
100
AcDbArc
 50
168.2740338211
 51
201.4735874451
  0
ARC
  5
632
100
AcDbEntity
  8
0
100
AcDbCircle
 62
7
  6
BYLAYER
 10
125.294496392
 20
194.8915951688
 30
0.0
 40
0.5035490862
100
AcDbArc
 50
125.3840161358
 51
144.6885844522
  0
ARC
  5
633
100
AcDbEntity
  8
0
100
AcDbCircle
 62
9
  6
BYLAYER
 10
125.30783897
 20
194.9662190899
 30
0.0
 40
0.503179711
100
AcDbArc
 50
125.5429041632
 51
144.8059795574
  0
ARC
  5
634
100
AcDbEntity
  8
0
100
AcDbCircle
 62
9
  6
BYLAYER
 10
123.3523081617
 20
194.1975943104
 30
0.0
 40
0.5001370069
100
AcDbArc
 50
215.0293475587
 51
320.9088919926
  0
ARC
  5
635
100
AcDbEntity
  8
0
100
AcDbCircle
 62
9
  6
BYLAYER
 10
122.5608747575
 20
195.3277805678
 30
0.0
 40
0.5000754973
100
AcDbArc
 50
144.6170703214
 51
214.9889114382
  0
ARC
  5
636
100
AcDbEntity
  8
0
100
AcDbCircle
 62
7
  6
BYLAYER
 10
123.3445673602
 20
193.9889333221
 30
0.0
 40
0.4999090611
100
AcDbArc
 50
215.0022226443
 51
320.561155567
  0
ARC
  5
637
100
AcDbEntity
  8
0
100
AcDbCircle
 62
7
  6
BYLAYER
 10
122.4066242216
 20
195.3284447837
 30
0.0
 40
0.4998992431
100
AcDbArc
 50
144.4035690162
 51
215.0031705145
  0
ARC
  5
638
100
AcDbEntity
  8
0
100
AcDbCircle
 62
9
  6
BYLAYER
 10
113.1186716134
 20
241.4830831367
 30
0.0
 40
24.9915349779
100
AcDbArc
 50
348.2740416588
 51
15.4589021915
  0
ARC
  5
639
100
AcDbEntity
  8
0
100
AcDbCircle
 62
7
  6
BYLAYER
 10
113.1732348292
 20
241.4848612215
 30
0.0
 40
24.9911864022
100
AcDbArc
 50
348.2738484337
 51
15.4590954166
  0
ARC
  5
63A
100
AcDbEntity
  8
0
100
AcDbCircle
 62
9
  6
BYLAYER
 10
113.1190298992
 20
241.4830948124
 30
0.0
 40
24.4913578797
100
AcDbArc
 50
348.2738457217
 51
15.4590981285
  0
ARC
  5
63B
100
AcDbEntity
  8
0
100
AcDbCircle
 62
9
  6
BYLAYER
 10
115.8259005967
 20
242.2284760338
 30
0.0
 40
20.497940249
100
AcDbArc
 50
348.2741198983
 51
359.9998653009
  0
ARC
  5
63C
100
AcDbEntity
  8
0
100
AcDbCircle
 62
9
  6
BYLAYER
 10
115.7469925683
 20
242.2365788983
 30
0.0
 40
19.9981169343
100
AcDbArc
 50
348.274157099
 51
359.9998281002
  0
ARC
  5
63D
100
AcDbEntity
  8
0
100
AcDbCircle
 62
9
  6
BYLAYER
 10
115.8260328837
 20
242.2284624496
 30
0.0
 40
19.9978696458
100
AcDbArc
 50
348.2740843466
 51
359.9999008526
  0
ARC
  5
63E
100
AcDbEntity
  8
0
100
AcDbCircle
 62
9
  6
BYLAYER
 10
115.7471303339
 20
242.2365647515
 30
0.0
 40
19.4980408525
100
AcDbArc
 50
348.2741199369
 51
359.9998652623
  0
ARC
  5
63F
100
AcDbEntity
  8
0
100
AcDbCircle
 62
9
  6
BYLAYER
 10
122.1175940003
 20
226.9006016232
 30
0.0
 40
4.4992157858
100
AcDbArc
 50
348.2697089844
 51
90.0042762185
  0
ARC
  5
640
100
AcDbEntity
  8
0
100
AcDbCircle
 62
9
  6
BYLAYER
 10
122.1177669919
 20
226.9007423952
 30
0.0
 40
3.9991287085
100
AcDbArc
 50
348.2666958008
 51
90.0072894028
  0
ARC
  5
641
100
AcDbEntity
  8
0
100
AcDbCircle
 62
7
  6
BYLAYER
 10
122.0812061186
 20
226.8709909639
 30
0.0
 40
3.9990977853
100
AcDbArc
 50
348.2661430842
 51
90.007842115
  0
ARC
  5
642
100
AcDbEntity
  8
0
100
AcDbCircle
 62
9
  6
BYLAYER
 10
105.5567610651
 20
235.6479221952
 30
0.0
 40
2.0121097415
100
AcDbArc
 50
248.0767174059
 51
265.9497744687
  0
ARC
  5
643
100
AcDbEntity
  8
0
100
AcDbCircle
 62
7
  6
BYLAYER
 10
105.5495334053
 20
235.6165891658
 30
0.0
 40
2.0118913321
100
AcDbArc
 50
248.0193398322
 51
265.9603446615
  0
CIRCLE
  5
644
100
AcDbEntity
  8
_26_DATUM_AXIS
100
AcDbCircle
 62
7
  6
BYLAYER
 10
128.3709069203
 20
231.5701053839
 30
0.0
 40
2.0
  0
ARC
  5
645
100
AcDbEntity
  8
0
100
AcDbCircle
 62
9
  6
BYLAYER
 10
115.6550780324
 20
232.8996162501
 30
0.0
 40
1.9997280449
100
AcDbArc
 50
243.6819269021
 51
269.9999537705
  0
ARC
  5
646
100
AcDbEntity
  8
0
100
AcDbCircle
 62
7
  6
BYLAYER
 10
115.6441408386
 20
232.8698072537
 30
0.0
 40
1.9997018698
100
AcDbArc
 50
243.6759649574
 51
269.9997248503
  0
ARC
  5
647
100
AcDbEntity
  8
0
100
AcDbCircle
 62
9
  6
BYLAYER
 10
105.5560437111
 20
235.6448117145
 30
0.0
 40
1.5090182814
100
AcDbArc
 50
248.076335153
 51
265.9501567444
  0
ARC
  5
648
100
AcDbEntity
  8
0
100
AcDbCircle
 62
9
  6
BYLAYER
 10
127.4129920743
 20
235.8785533407
 30
0.0
 40
1.4997965883
100
AcDbArc
 50
270.0003963194
 51
314.9996036806
  0
ARC
  5
649
100
AcDbEntity
  8
0
100
AcDbCircle
 62
9
  6
BYLAYER
 10
131.2050369666
 20
236.9663878197
 30
0.0
 40
1.4997965854
100
AcDbArc
 50
90.0003962726
 51
134.9996037274
  0
ARC
  5
64A
100
AcDbEntity
  8
0
100
AcDbCircle
 62
9
  6
BYLAYER
 10
115.6550451356
 20
232.8995398227
 30
0.0
 40
1.4997066383
100
AcDbArc
 50
243.6815467294
 51
270.0011951693
  0
ARC
  5
64B
100
AcDbEntity
  8
0
100
AcDbCircle
 62
9
  6
BYLAYER
 10
130.1372274761
 20
239.5443079737
 30
0.0
 40
0.9999999938
100
AcDbArc
 50
90.0029276657
 51
134.9970723343
  0
ARC
  5
64C
100
AcDbEntity
  8
0
100
AcDbCircle
 62
9
  6
BYLAYER
 10
131.3154925977
 20
236.8786818682
 30
0.0
 40
0.999998749
100
AcDbArc
 50
348.2846196252
 51
89.989365574
  0
ARC
  5
64D
100
AcDbEntity
  8
0
100
AcDbCircle
 62
9
  6
BYLAYER
 10
130.1045960373
 20
239.6230872356
 30
0.0
 40
0.9999982962
100
AcDbArc
 50
90.0028873826
 51
134.9971126179
  0
ARC
  5
64E
100
AcDbEntity
  8
0
100
AcDbCircle
 62
9
  6
BYLAYER
 10
126.0159311892
 20
237.5442498956
 30
0.0
 40
0.9998802456
100
AcDbArc
 50
270.0000857602
 51
314.9999142398
  0
ARC
  5
64F
100
AcDbEntity
  8
0
100
AcDbCircle
 62
9
  6
BYLAYER
 10
131.2413004438
 20
236.8788400411
 30
0.0
 40
0.9998405588
100
AcDbArc
 50
89.9998306088
 51
135.0001693912
  0
ARC
  5
650
100
AcDbEntity
  8
0
100
AcDbCircle
 62
9
  6
BYLAYER
 10
127.3767289175
 20
235.9661003454
 30
0.0
 40
0.999839788
100
AcDbArc
 50
269.9998123164
 51
315.000142181
  0
ARC
  5
651
100
AcDbEntity
  8
0
100
AcDbCircle
 62
9
  6
BYLAYER
 10
127.4130639172
 20
235.8783798966
 30
0.0
 40
0.9996992986
100
AcDbArc
 50
269.9964770458
 51
315.0035229542
  0
ARC
  5
652
100
AcDbEntity
  8
0
100
AcDbCircle
 62
9
  6
BYLAYER
 10
131.2049651241
 20
236.9665612627
 30
0.0
 40
0.9996992966
100
AcDbArc
 50
89.9964769993
 51
135.0035230007
  0
ARC
  5
653
100
AcDbEntity
  8
0
100
AcDbCircle
 62
9
  6
BYLAYER
 10
130.1371742746
 20
239.5444364134
 30
0.0
 40
0.4999332366
100
AcDbArc
 50
89.9997588594
 51
135.0002411406
  0
ARC
  5
654
100
AcDbEntity
  8
0
100
AcDbCircle
 62
7
  6
BYLAYER
 10
125.9638370108
 20
237.6700163678
 30
0.0
 40
0.499910984
100
AcDbArc
 50
269.9987024261
 51
315.0012975739
  0
ARC
  5
655
100
AcDbEntity
  8
0
100
AcDbCircle
 62
9
  6
BYLAYER
 10
131.3157314093
 20
236.8788769646
 30
0.0
 40
0.4998787617
100
AcDbArc
 50
348.2678011103
 51
90.0060984301
  0
ARC
  5
656
100
AcDbEntity
  8
0
100
AcDbCircle
 62
9
  6
BYLAYER
 10
131.2412657518
 20
236.8789237951
 30
0.0
 40
0.4998329587
100
AcDbArc
 50
89.9956844165
 51
135.0043155835
  0
ARC
  5
657
100
AcDbEntity
  8
0
100
AcDbCircle
 62
9
  6
BYLAYER
 10
127.3767634517
 20
235.9660169727
 30
0.0
 40
0.4998325691
100
AcDbArc
 50
269.9956659117
 51
315.0043340883
  0
ARC
  5
658
100
AcDbEntity
  8
0
100
AcDbCircle
 62
9
  6
BYLAYER
 10
126.0159872177
 20
237.5441146319
 30
0.0
 40
0.4998066686
100
AcDbArc
 50
269.9937486923
 51
315.006930967
  0
ARC
  5
659
100
AcDbEntity
  8
0
100
AcDbCircle
 62
9
  6
BYLAYER
 10
148.6299932951
 20
196.7982641937
 30
0.0
 40
65.0940097639
100
AcDbArc
 50
182.5675507806
 51
182.7533126589
  0
ARC
  5
65A
100
AcDbEntity
  8
0
100
AcDbCircle
 62
9
  6
BYLAYER
 10
148.0976429273
 20
196.1694267774
 30
0.0
 40
63.7386409255
100
AcDbArc
 50
182.0309954305
 51
182.2183556869
  0
ARC
  5
65B
100
AcDbEntity
  8
0
100
AcDbCircle
 62
9
  6
BYLAYER
 10
157.1124272276
 20
207.7651604308
 30
0.0
 40
30.4466767631
100
AcDbArc
 50
174.5343304668
 51
177.5654715947
  0
ARC
  5
65C
100
AcDbEntity
  8
0
100
AcDbCircle
 62
9
  6
BYLAYER
 10
136.6993964883
 20
208.6127330639
 30
0.0
 40
10.0160886496
100
AcDbArc
 50
168.2820215467
 51
177.4493935019
  0
ARC
  5
65D
100
AcDbEntity
  8
0
100
AcDbCircle
 62
9
  6
BYLAYER
 10
136.7747637355
 20
208.547628548
 30
0.0
 40
10.0155343561
100
AcDbArc
 50
168.2806855198
 51
177.3482630571
  0
ARC
  5
65E
100
AcDbEntity
  8
0
100
AcDbCircle
 62
9
  6
BYLAYER
 10
136.7739341247
 20
208.5478253762
 30
0.0
 40
9.514758216
100
AcDbArc
 50
168.281183396
 51
177.3488155873
  0
ARC
  5
65F
100
AcDbEntity
  8
0
100
AcDbCircle
 62
9
  6
BYLAYER
 10
137.5233044689
 20
209.3068499252
 30
0.0
 40
8.5160465062
100
AcDbArc
 50
168.2843186429
 51
178.5315067341
  0
ARC
  5
660
100
AcDbEntity
  8
0
100
AcDbCircle
 62
9
  6
BYLAYER
 10
137.6009316756
 20
209.2978731533
 30
0.0
 40
8.0151466978
100
AcDbArc
 50
168.2843347745
 51
178.5195278477
  0
ARC
  5
661
100
AcDbEntity
  8
0
100
AcDbCircle
 62
9
  6
BYLAYER
 10
137.5221405589
 20
209.3069844313
 30
0.0
 40
8.0149412233
100
AcDbArc
 50
168.28421521
 51
178.5316101671
  0
ARC
  5
662
100
AcDbEntity
  8
0
100
AcDbCircle
 62
9
  6
BYLAYER
 10
137.5998486337
 20
209.2979984285
 30
0.0
 40
7.5141224727
100
AcDbArc
 50
168.2842818127
 51
178.5195808095
  0
ARC
  5
663
100
AcDbEntity
  8
0
100
AcDbCircle
 62
9
  6
BYLAYER
 10
139.3065582915
 20
253.3664990354
 30
0.0
 40
3.4683901446
100
AcDbArc
 50
186.2683919016
 51
189.1235593186
  0
ARC
  5
664
100
AcDbEntity
  8
0
100
AcDbCircle
 62
9
  6
BYLAYER
 10
139.1036407448
 20
253.3446495891
 30
0.0
 40
3.2643001492
100
AcDbArc
 50
179.7526325424
 51
186.2760610259
  0
ARC
  5
665
100
AcDbEntity
  8
0
100
AcDbCircle
 62
7
  6
BYLAYER
 10
137.8806934686
 20
253.442783038
 30
0.0
 40
2.0097867243
100
AcDbArc
 50
180.0239776513
 51
193.7725374103
  0
ARC
  5
666
100
AcDbEntity
  8
0
100
AcDbCircle
 62
9
  6
BYLAYER
 10
137.8475737707
 20
253.3587598834
 30
0.0
 40
2.0082087335
100
AcDbArc
 50
180.0005055349
 51
190.2805057477
  0
ARC
  5
667
100
AcDbEntity
  8
0
100
AcDbCircle
 62
9
  6
BYLAYER
 10
137.843231634
 20
253.3583851792
 30
0.0
 40
2.0038694749
100
AcDbArc
 50
190.2921212354
 51
195.4445273962
  0
ARC
  5
668
100
AcDbEntity
  8
0
100
AcDbCircle
 62
7
  6
BYLAYER
 10
137.8735962698
 20
253.4419673636
 30
0.0
 40
2.0026995958
100
AcDbArc
 50
193.7982111737
 51
195.4586859379
  0
ARC
  5
669
100
AcDbEntity
  8
0
100
AcDbCircle
 62
9
  6
BYLAYER
 10
133.7452627435
 20
253.5444612072
 30
0.0
 40
1.9998492563
100
AcDbArc
 50
0.0026786131
 51
89.9973213878
  0
ARC
  5
66A
100
AcDbEntity
  8
0
100
AcDbCircle
 62
7
  6
BYLAYER
 10
133.8713654522
 20
253.6705639159
 30
0.0
 40
1.999536001
100
AcDbArc
 50
359.9939311846
 51
90.0060688151
  0
ARC
  5
66B
100
AcDbEntity
  8
0
100
AcDbCircle
 62
9
  6
BYLAYER
 10
133.7454151819
 20
253.5446136456
 30
0.0
 40
1.4997560056
100
AcDbArc
 50
359.9977481264
 51
90.0022518736
  0
ARC
  5
66C
100
AcDbEntity
  8
0
100
AcDbCircle
 62
9
  6
BYLAYER
 10
132.1968983839
 20
241.5441139203
 30
0.0
 40
1.499744272
100
AcDbArc
 50
269.9972998247
 51
0.0027001753
  0
ARC
  5
66D
100
AcDbEntity
  8
0
100
AcDbCircle
 62
9
  6
BYLAYER
 10
131.423445198
 20
236.9665300247
 30
0.0
 40
1.4996530013
100
AcDbArc
 50
348.2685002746
 51
90.0054226036
  0
ARC
  5
66E
100
AcDbEntity
  8
0
100
AcDbCircle
 62
9
  6
BYLAYER
 10
132.3968642514
 20
252.196062715
 30
0.0
 40
1.2997784043
100
AcDbArc
 50
359.9973013774
 51
90.0026986226
  0
ARC
  5
66F
100
AcDbEntity
  8
0
100
AcDbCircle
 62
9
  6
BYLAYER
 10
132.8089699322
 20
254.5442572606
 30
0.0
 40
1.0000553666
100
AcDbArc
 50
90.0063536002
 51
154.9936464023
  0
ARC
  5
670
100
AcDbEntity
  8
0
100
AcDbCircle
 62
9
  6
BYLAYER
 10
132.1179119257
 20
241.6231003786
 30
0.0
 40
1.0000177891
100
AcDbArc
 50
270.0079190431
 51
359.9920809514
  0
ARC
  5
671
100
AcDbEntity
  8
0
100
AcDbCircle
 62
9
  6
BYLAYER
 10
132.1024350487
 20
244.4712595679
 30
0.0
 40
0.9999982961
100
AcDbArc
 50
315.0028873801
 51
359.9971126204
  0
ARC
  5
672
100
AcDbEntity
  8
0
100
AcDbCircle
 62
7
  6
BYLAYER
 10
132.7286715942
 20
254.6703004035
 30
0.0
 40
0.9998049806
100
AcDbArc
 50
90.0008870481
 51
154.9991129519
  0
ARC
  5
673
100
AcDbEntity
  8
0
100
AcDbCircle
 62
9
  6
BYLAYER
 10
132.1970462956
 20
241.5439660086
 30
0.0
 40
0.9996557302
100
AcDbArc
 50
269.987471427
 51
0.0125285745
  0
ARC
  5
674
100
AcDbEntity
  8
0
100
AcDbCircle
 62
9
  6
BYLAYER
 10
131.4236780914
 20
236.9667189864
 30
0.0
 40
0.9995403857
100
AcDbArc
 50
348.2524371997
 51
90.0214856847
  0
ARC
  5
675
100
AcDbEntity
  8
0
100
AcDbCircle
 62
7
  6
BYLAYER
 10
132.071382213
 20
244.4841220736
 30
0.0
 40
0.9993756888
100
AcDbArc
 50
314.988103322
 51
0.011896678
  0
ARC
  5
676
100
AcDbEntity
  8
0
100
AcDbCircle
 62
7
  6
BYLAYER
 10
132.2710410197
 20
252.0702394834
 30
0.0
 40
0.7998694158
100
AcDbArc
 50
0.0029622421
 51
89.9970377577
  0
ARC
  5
677
100
AcDbEntity
  8
0
100
AcDbCircle
 62
9
  6
BYLAYER
 10
132.3970123939
 20
252.1962108576
 30
0.0
 40
0.7996897577
100
AcDbArc
 50
359.9849997808
 51
90.0150002207
  0
ARC
  5
678
100
AcDbEntity
  8
0
100
AcDbCircle
 62
7
  6
BYLAYER
 10
131.5709069203
 20
253.3701053839
 30
0.0
 40
0.5
100
AcDbArc
 50
155.0
 51
270.0
  0
ARC
  5
679
100
AcDbEntity
  8
0
100
AcDbCircle
 62
9
  6
BYLAYER
 10
132.8088697765
 20
254.5444144735
 30
0.0
 40
0.4999551766
100
AcDbArc
 50
90.0012309582
 51
154.9987690418
  0
ARC
  5
67A
100
AcDbEntity
  8
0
100
AcDbCircle
 62
9
  6
BYLAYER
 10
132.1180678611
 20
241.6229444431
 30
0.0
 40
0.4989217533
100
AcDbArc
 50
269.9979650502
 51
0.002034946
  0
ARC
  5
67B
100
AcDbEntity
  8
0
100
AcDbCircle
 62
9
  6
BYLAYER
 10
131.5709069203
 20
253.3701053839
 30
0.0
 40
0.374202249
100
AcDbArc
 50
155.0
 51
270.0
  0
ARC
  5
67C
100
AcDbEntity
  8
0
100
AcDbCircle
 62
9
  6
BYLAYER
 10
109.2121800522
 20
339.2725450959
 30
0.0
 40
103.4677579885
100
AcDbArc
 50
251.5482181904
 51
251.886549423
  0
ARC
  5
67D
100
AcDbEntity
  8
0
100
AcDbCircle
 62
9
  6
BYLAYER
 10
77.5581099749
 20
95.1334813436
 30
0.0
 40
65.2472801411
100
AcDbArc
 50
89.6895997287
 51
90.3104002713
  0
ARC
  5
67E
100
AcDbEntity
  8
0
100
AcDbCircle
 62
9
  6
BYLAYER
 10
71.9182317261
 20
154.3689593651
 30
0.0
 40
0.5195844281
100
AcDbArc
 50
160.2014189453
 51
178.5153586652
  0
ARC
  5
67F
100
AcDbEntity
  8
0
100
AcDbCircle
 62
9
  6
BYLAYER
 10
71.9437547946
 20
152.3683422708
 30
0.0
 40
0.5137180324
100
AcDbArc
 50
181.4499911213
 51
199.5890828887
  0
ARC
  5
680
100
AcDbEntity
  8
0
100
AcDbCircle
 62
7
  6
BYLAYER
 10
69.6775775336
 20
154.3693327935
 30
0.0
 40
0.5
100
AcDbArc
 50
90.0
 51
178.4576152209
  0
ARC
  5
681
100
AcDbEntity
  8
0
100
AcDbCircle
 62
7
  6
BYLAYER
 10
69.7314284288
 20
152.3693327935
 30
0.0
 40
0.5
100
AcDbArc
 50
181.5423842906
 51
270.0
  0
ARC
  5
682
100
AcDbEntity
  8
0
100
AcDbCircle
 62
7
  6
BYLAYER
 10
72.0966426542
 20
146.3693327935
 30
0.0
 40
0.5
100
AcDbArc
 50
180.9
 51
270.0
  0
ARC
  5
683
100
AcDbEntity
  8
0
100
AcDbCircle
 62
7
  6
BYLAYER
 10
72.096698686
 20
160.3693327935
 30
0.0
 40
0.5
100
AcDbArc
 50
90.0
 51
178.8
  0
ARC
  5
684
100
AcDbEntity
  8
0
100
AcDbCircle
 62
7
  6
BYLAYER
 10
71.0179729949
 20
151.3693327935
 30
0.0
 40
0.5
100
AcDbArc
 50
0.9
 51
90.0
  0
ARC
  5
685
100
AcDbEntity
  8
0
100
AcDbCircle
 62
7
  6
BYLAYER
 10
70.9917442519
 20
155.3693327935
 30
0.0
 40
0.5
100
AcDbArc
 50
270.0
 51
358.8
  0
ARC
  5
686
100
AcDbEntity
  8
0
100
AcDbCircle
 62
9
  6
BYLAYER
 10
70.9680435619
 20
154.3977376198
 30
0.0
 40
0.4842362484
100
AcDbArc
 50
17.6986037427
 51
31.2017087463
  0
ARC
  5
687
100
AcDbEntity
  8
0
100
AcDbCircle
 62
9
  6
BYLAYER
 10
75.6279702598
 20
146.3682905527
 30
0.0
 40
0.4821336677
100
AcDbArc
 50
347.8286392552
 51
359.1905180887
  0
ARC
  5
688
100
AcDbEntity
  8
0
100
AcDbCircle
 62
9
  6
BYLAYER
 10
70.9776097323
 20
154.4029639545
 30
0.0
 40
0.473346569
100
AcDbArc
 50
31.2604683103
 51
32.5676776714
  0
ARC
  5
689
100
AcDbEntity
  8
0
100
AcDbCircle
 62
7
  6
BYLAYER
 10
81.2012303543
 20
310.1769048982
 30
0.0
 40
155.8076723446
100
AcDbArc
 50
269.9350074408
 51
270.0649925592
  0
ARC
  5
68A
100
AcDbEntity
  8
0
100
AcDbCircle
 62
9
  6
BYLAYER
 10
77.5581472355
 20
249.6062347545
 30
0.0
 40
103.2453608262
100
AcDbArc
 50
269.8038201672
 51
270.1961798328
  0
ARC
  5
68B
100
AcDbEntity
  8
0
100
AcDbCircle
 62
9
  6
BYLAYER
 10
135.3923480903
 20
152.369688827
 30
0.0
 40
0.5195503101
100
AcDbArc
 50
340.4821690768
 51
358.5171800921
  0
ARC
  5
68C
100
AcDbEntity
  8
0
100
AcDbCircle
 62
9
  6
BYLAYER
 10
135.429459482
 20
154.3703646514
 30
0.0
 40
0.5135789209
100
AcDbArc
 50
1.4482245005
 51
19.8731634871
  0
ARC
  5
68D
100
AcDbEntity
  8
0
100
AcDbCircle
 62
9
  6
BYLAYER
 10
136.3916378921
 20
154.3916220107
 30
0.0
 40
0.5031175267
100
AcDbArc
 50
161.0101009703
 51
162.2565020169
  0
ARC
  5
68E
100
AcDbEntity
  8
0
100
AcDbCircle
 62
7
  6
BYLAYER
 10
137.6642377752
 20
154.3693327935
 30
0.0
 40
0.5
100
AcDbArc
 50
1.5423842906
 51
90.0
  0
ARC
  5
68F
100
AcDbEntity
  8
0
100
AcDbCircle
 62
7
  6
BYLAYER
 10
137.6103839435
 20
152.3693327935
 30
0.0
 40
0.5
100
AcDbArc
 50
270.0
 51
358.4576152209
  0
ARC
  5
690
100
AcDbEntity
  8
0
100
AcDbCircle
 62
7
  6
BYLAYER
 10
135.2451711863
 20
146.3693327935
 30
0.0
 40
0.5
100
AcDbArc
 50
270.0
 51
359.1
  0
ARC
  5
691
100
AcDbEntity
  8
0
100
AcDbCircle
 62
7
  6
BYLAYER
 10
135.2451151545
 20
160.3693327935
 30
0.0
 40
0.5
100
AcDbArc
 50
1.2
 51
90.0
  0
ARC
  5
692
100
AcDbEntity
  8
0
100
AcDbCircle
 62
7
  6
BYLAYER
 10
136.3500695887
 20
155.3693327935
 30
0.0
 40
0.5
100
AcDbArc
 50
181.2
 51
270.0
  0
ARC
  5
693
100
AcDbEntity
  8
0
100
AcDbCircle
 62
7
  6
BYLAYER
 10
136.3238408457
 20
151.3693327935
 30
0.0
 40
0.5
100
AcDbArc
 50
90.0
 51
179.1
  0
ARC
  5
694
100
AcDbEntity
  8
0
100
AcDbCircle
 62
9
  6
BYLAYER
 10
136.3471444596
 20
152.3464800343
 30
0.0
 40
0.48878432
100
AcDbArc
 50
202.3046830456
 51
209.0720685536
  0
ARC
  5
695
100
AcDbEntity
  8
0
100
AcDbCircle
 62
9
  6
BYLAYER
 10
136.3731816527
 20
154.398125606
 30
0.0
 40
0.4835494925
100
AcDbArc
 50
152.5769505414
 51
161.0271583271
  0
ARC
  5
696
100
AcDbEntity
  8
0
100
AcDbCircle
 62
9
  6
BYLAYER
 10
131.7042094667
 20
160.3711345732
 30
0.0
 40
0.4724500616
100
AcDbArc
 50
172.3532939097
 51
178.9485668783
  0
ARC
  5
697
100
AcDbEntity
  8
0
100
AcDbCircle
 62
9
  6
BYLAYER
 10
129.7836666051
 20
233.3831014093
 30
0.0
 40
87.0223403066
100
AcDbArc
 50
269.7672474254
 51
270.2327525746
  0
SPLINE
  5
698
100
AcDbEntity
  8
0
100
AcDbSpline
 62
7
  6
BYLAYER
 70
0
 71
3
 72
10
 73
6
 74
0
 42
0.0000001
 43
0.0000001
 44
0.0000000001
 40
0.0
 40
0.0
 40
0.0
 40
0.0
 40
0.5130059297
 40
0.7649415261
 40
1.0
 40
1.0
 40
1.0
 40
1.0
 10
135.823902932
 20
249.4862057535
 30
0.0
 10
135.8239206284
 20
250.0770834261
 30
0.0
 10
135.8246351339
 20
250.9581417347
 30
0.0
 10
135.8283729536
 20
252.1099272586
 30
0.0
 10
135.8309902271
 20
252.6708459456
 30
0.0
 10
135.8341692543
 20
252.9415664595
 30
0.0
  0
SPLINE
  5
699
100
AcDbEntity
  8
0
100
AcDbSpline
 62
7
  6
BYLAYER
 70
0
 71
3
 72
10
 73
6
 74
0
 42
0.0000001
 43
0.0000001
 44
0.0000000001
 40
0.0
 40
0.0
 40
0.0
 40
0.0
 40
0.2350877123
 40
0.4870195219
 40
1.0
 40
1.0
 40
1.0
 40
1.0
 10
71.5076445862
 20
252.9415664653
 30
0.0
 10
71.510813925
 20
252.670812093
 30
0.0
 10
71.5134461128
 20
252.1098641283
 30
0.0
 10
71.5171756903
 20
250.9580782296
 30
0.0
 10
71.5178932637
 20
250.0770534196
 30
0.0
 10
71.5179109104
 20
249.4862049183
 30
0.0
  0
LINE
  5
69A
100
AcDbEntity
  8
0
100
AcDbLine
 62
7
  6
BYLAYER
 10
77.0607180853
 20
241.2803398403
 30
0.0
 11
76.8955187899
 21
241.4455183852
 31
0.0
  0
LINE
  5
69B
100
AcDbEntity
  8
0
100
AcDbLine
 62
9
  6
BYLAYER
 10
124.867790249
 20
220.4720572843
 30
0.0
 11
124.8361739484
 21
220.4662822692
 31
0.0
  0
LINE
  5
69C
100
AcDbEntity
  8
0
100
AcDbLine
 62
9
  6
BYLAYER
 10
122.1531630309
 20
195.6173434298
 30
0.0
 11
122.0001376404
 21
195.6194222959
 31
0.0
  0
LINE
  5
69D
100
AcDbEntity
  8
0
100
AcDbLine
 62
9
  6
BYLAYER
 10
85.1886508096
 20
195.6173434298
 30
0.0
 11
85.3416762001
 21
195.6194222959
 31
0.0
  0
SPLINE
  5
69E
100
AcDbEntity
  8
0
100
AcDbSpline
 62
9
  6
BYLAYER
 70
0
 71
3
 72
22
 73
18
 74
0
 42
0.0000001
 43
0.0000001
 44
0.0000000001
 40
0.0
 40
0.0
 40
0.0
 40
0.0
 40
0.0026009532
 40
0.010540936
 40
0.0234651457
 40
0.0407447512
 40
0.0616437452
 40
0.0854536126
 40
0.1395416129
 40
0.199667351
 40
0.2639101615
 40
0.331157145
 40
0.4007207685
 40
0.5450750702
 40
0.694396117
 40
0.8466453056
 40
1.0
 40
1.0
 40
1.0
 40
1.0
 10
130.1045456612
 20
240.6230855306
 30
0.0
 10
130.1039217843
 20
240.623585282
 30
0.0
 10
130.1087885441
 20
240.6263841987
 30
0.0
 10
130.1124970089
 20
240.6297037207
 30
0.0
 10
130.1236658167
 20
240.6363603305
 30
0.0
 10
130.1365812001
 20
240.6443256507
 30
0.0
 10
130.1531580957
 20
240.6540949888
 30
0.0
 10
130.179268775
 20
240.6694365788
 30
0.0
 10
130.2158961229
 20
240.6909234562
 30
0.0
 10
130.2629152137
 20
240.7191292785
 30
0.0
 10
130.3130042435
 20
240.7501120712
 30
0.0
 10
130.36504126
 20
240.7834337204
 30
0.0
 10
130.4370807523
 20
240.8311612714
 30
0.0
 10
130.5287772158
 20
240.8948504681
 30
0.0
 10
130.6401640017
 20
240.9747030991
 30
0.0
 10
130.7549147406
 20
241.0545520314
 30
0.0
 10
130.8356828975
 20
241.1029586382
 30
0.0
 10
130.8778443429
 20
241.1240237235
 30
0.0
  0
SPLINE
  5
69F
100
AcDbEntity
  8
0
100
AcDbSpline
 62
9
  6
BYLAYER
 70
0
 71
3
 72
22
 73
18
 74
0
 42
0.0000001
 43
0.0000001
 44
0.0000000001
 40
0.0
 40
0.0
 40
0.0
 40
0.0
 40
0.0026009513
 40
0.0105409328
 40
0.0234651397
 40
0.040744742
 40
0.0616437323
 40
0.0854535968
 40
0.139541591
 40
0.1996673217
 40
0.2639101279
 40
0.3311571084
 40
0.4007207283
 40
0.5450750188
 40
0.6943960833
 40
0.8466453077
 40
1.0
 40
1.0
 40
1.0
 40
1.0
 10
132.8095762454
 20
243.7641896137
 30
0.0
 10
132.8103707707
 20
243.7642773783
 30
0.0
 10
132.8089085874
 20
243.7588569417
 30
0.0
 10
132.8086335607
 20
243.7538873933
 30
0.0
 10
132.805442957
 20
243.7412829289
 30
0.0
 10
132.8019427336
 20
243.7265180417
 30
0.0
 10
132.7971290647
 20
243.7078884451
 30
0.0
 10
132.7895141694
 20
243.6785772676
 30
0.0
 10
132.7788082407
 20
243.6374843099
 30
0.0
 10
132.7655052528
 20
243.5842922687
 30
0.0
 10
132.7519951032
 20
243.5269658377
 30
0.0
 10
132.7387613392
 20
243.4666081497
 30
0.0
 10
132.7215702018
 20
243.3819200664
 30
0.0
 10
132.7017660709
 20
243.2720458109
 30
0.0
 10
132.6794680787
 20
243.1368191078
 30
0.0
 10
132.6547888111
 20
242.9992163271
 30
0.0
 10
132.6319055643
 20
242.9078760229
 30
0.0
 10
132.6169882958
 20
242.8631680778
 30
0.0
  0
SPLINE
  5
6A0
100
AcDbEntity
  8
0
100
AcDbSpline
 62
9
  6
BYLAYER
 70
0
 71
3
 72
10
 73
6
 74
0
 42
0.0000001
 43
0.0000001
 44
0.0000000001
 40
0.0
 40
0.0
 40
0.0
 40
0.0
 40
0.3353650006
 40
0.6097878881
 40
1.0
 40
1.0
 40
1.0
 40
1.0
 10
126.8041775564
 20
210.6651852092
 30
0.0
 10
126.7899069813
 20
210.6590206779
 30
0.0
 10
126.764376739
 20
210.6462696672
 30
0.0
 10
126.7267011024
 20
210.6203193763
 30
0.0
 10
126.7065124824
 20
210.5918437179
 30
0.0
 10
126.705920525
 20
210.5737659677
 30
0.0
  0
SPLINE
  5
6A1
100
AcDbEntity
  8
0
100
AcDbSpline
 62
9
  6
BYLAYER
 70
0
 71
3
 72
11
 73
7
 74
0
 42
0.0000001
 43
0.0000001
 44
0.0000000001
 40
0.0
 40
0.0
 40
0.0
 40
0.0
 40
0.3329843972
 40
0.6133958901
 40
0.8314939608
 40
1.0
 40
1.0
 40
1.0
 40
1.0
 10
77.0441053682
 20
240.9323577345
 30
0.0
 10
77.0518164944
 20
240.8904451467
 30
0.0
 10
77.0709765799
 20
240.8139326221
 30
0.0
 10
77.1145769171
 20
240.7161682349
 30
0.0
 10
77.1683298192
 20
240.6479248137
 30
0.0
 10
77.2167759689
 20
240.6263873327
 30
0.0
 10
77.2383295336
 20
240.6256623764
 30
0.0
  0
SPLINE
  5
6A2
100
AcDbEntity
  8
0
100
AcDbSpline
 62
9
  6
BYLAYER
 70
0
 71
3
 72
10
 73
6
 74
0
 42
0.0000001
 43
0.0000001
 44
0.0000000001
 40
0.0
 40
0.0
 40
0.0
 40
0.0
 40
0.3353635208
 40
0.6097858698
 40
1.0
 40
1.0
 40
1.0
 40
1.0
 10
80.5376364683
 20
210.6651860648
 30
0.0
 10
80.5519070738
 20
210.6590214187
 30
0.0
 10
80.5774373767
 20
210.646270172
 30
0.0
 10
80.6151131765
 20
210.6203193121
 30
0.0
 10
80.6353016711
 20
210.5918431806
 30
0.0
 10
80.6358936202
 20
210.5737651712
 30
0.0
  0
SPLINE
  5
6A3
100
AcDbEntity
  8
0
100
AcDbSpline
 62
9
  6
BYLAYER
 70
0
 71
3
 72
9
 73
5
 74
0
 42
0.0000001
 43
0.0000001
 44
0.0000000001
 40
0.0
 40
0.0
 40
0.0
 40
0.0
 40
0.4999983096
 40
1.0
 40
1.0
 40
1.0
 40
1.0
 10
102.7476256708
 20
234.3787567524
 30
0.0
 10
103.0532774396
 20
234.4201418465
 30
0.0
 10
103.6709061038
 20
234.4603219657
 30
0.0
 10
104.288533845
 20
234.4201385131
 30
0.0
 10
104.5941881698
 20
234.3787567524
 30
0.0
  0
SPLINE
  5
6A4
100
AcDbEntity
  8
0
100
AcDbSpline
 62
9
  6
BYLAYER
 70
0
 71
3
 72
9
 73
5
 74
0
 42
0.0000001
 43
0.0000001
 44
0.0000000001
 40
0.0
 40
0.0
 40
0.0
 40
0.0
 40
0.248065118
 40
1.0
 40
1.0
 40
1.0
 40
1.0
 10
77.4696517837
 20
240.7284232657
 30
0.0
 10
77.4365084792
 20
240.7491080681
 30
0.0
 10
77.3009672975
 20
240.8292243856
 30
0.0
 10
77.1566667505
 20
240.8955808067
 30
0.0
 10
77.0440995003
 20
240.9323623791
 30
0.0
  0
SPLINE
  5
6A5
100
AcDbEntity
  8
0
100
AcDbSpline
 62
9
  6
BYLAYER
 70
0
 71
3
 72
9
 73
5
 74
0
 42
0.0000001
 43
0.0000001
 44
0.0000000001
 40
0.0
 40
0.0
 40
0.0
 40
0.0
 40
0.2494355127
 40
1.0
 40
1.0
 40
1.0
 40
1.0
 10
77.9507053335
 20
240.3457218754
 30
0.0
 10
77.9142925828
 20
240.3816676569
 30
0.0
 10
77.7646260221
 20
240.5219504842
 30
0.0
 10
77.6002645018
 20
240.6469087709
 30
0.0
 10
77.4696517837
 20
240.7284232657
 30
0.0
  0
SPLINE
  5
6A6
100
AcDbEntity
  8
0
100
AcDbSpline
 62
9
  6
BYLAYER
 70
0
 71
3
 72
9
 73
5
 74
0
 42
0.0000001
 43
0.0000001
 44
0.0000000001
 40
0.0
 40
0.0
 40
0.0
 40
0.0
 40
0.2442894714
 40
1.0
 40
1.0
 40
1.0
 40
1.0
 10
77.9507053335
 20
240.3457218754
 30
0.0
 10
77.9261415578
 20
240.3693519794
 30
0.0
 10
77.8206751713
 20
240.4608557469
 30
0.0
 10
77.6955860517
 20
240.529607531
 30
0.0
 10
77.5963861773
 20
240.56534502
 30
0.0
  0
SPLINE
  5
6A7
100
AcDbEntity
  8
0
100
AcDbSpline
 62
9
  6
BYLAYER
 70
0
 71
3
 72
22
 73
18
 74
0
 42
0.0000001
 43
0.0000001
 44
0.0000000001
 40
0.0
 40
0.0
 40
0.0
 40
0.0
 40
0.1533546944
 40
0.305603883
 40
0.4549249298
 40
0.5992792315
 40
0.668842855
 40
0.7360898385
 40
0.800332649
 40
0.8604583871
 40
0.9145463874
 40
0.9383562548
 40
0.9592552488
 40
0.9765348543
 40
0.989459064
 40
0.9973990468
 40
1.0
 40
1.0
 40
1.0
 40
1.0
 10
74.7248255437
 20
242.8631680789
 30
0.0
 10
74.7099081644
 20
242.9078759875
 30
0.0
 10
74.6870250928
 20
242.9992163388
 30
0.0
 10
74.6623457888
 20
243.136819086
 30
0.0
 10
74.640047774
 20
243.2720457745
 30
0.0
 10
74.6202436457
 20
243.3819200285
 30
0.0
 10
74.6030525071
 20
243.466608117
 30
0.0
 10
74.589818744
 20
243.5269658083
 30
0.0
 10
74.5763085942
 20
243.5842922437
 30
0.0
 10
74.5630056044
 20
243.6374842899
 30
0.0
 10
74.5522996751
 20
243.6785772527
 30
0.0
 10
74.544684779
 20
243.7078884335
 30
0.0
 10
74.5398711089
 20
243.726518034
 30
0.0
 10
74.5363708857
 20
243.741282921
 30
0.0
 10
74.5331802799
 20
243.7538873948
 30
0.0
 10
74.5329052558
 20
243.7588569319
 30
0.0
 10
74.5314430699
 20
243.7642773837
 30
0.0
 10
74.5322375951
 20
243.7641896137
 30
0.0
  0
LINE
  5
6A8
100
AcDbEntity
  8
0
100
AcDbLine
 62
9
  6
BYLAYER
 10
71.502448806
 20
253.358742157
 30
0.0
 11
71.5076445862
 21
252.9415664653
 31
0.0
  0
LINE
  5
6A9
100
AcDbEntity
  8
0
100
AcDbLine
 62
9
  6
BYLAYER
 10
77.5890519566
 20
210.9253889011
 30
0.0
 11
77.6676384831
 21
210.9344748336
 31
0.0
  0
LINE
  5
6AA
100
AcDbEntity
  8
0
100
AcDbLine
 62
9
  6
BYLAYER
 10
82.4451758466
 20
195.2562252225
 30
0.0
 11
82.4582644389
 21
195.1826006238
 31
0.0
  0
SPLINE
  5
6AB
100
AcDbEntity
  8
0
100
AcDbSpline
 62
9
  6
BYLAYER
 70
0
 71
3
 72
25
 73
21
 74
0
 42
0.0000001
 43
0.0000001
 44
0.0000000001
 40
0.0
 40
0.0
 40
0.0
 40
0.0
 40
0.1371626404
 40
0.2741686231
 40
0.4107630414
 40
0.5464904031
 40
0.6137794835
 40
0.6804528268
 40
0.7462099816
 40
0.8105381729
 40
0.8724711546
 40
0.9019680507
 40
0.9299120376
 40
0.9555136441
 40
0.9670426613
 40
0.977409259
 40
0.9862893716
 40
0.9932887564
 40
0.9979782424
 40
1.0
 40
1.0
 40
1.0
 40
1.0
 10
80.7305230906
 20
198.0911650158
 30
0.0
 10
80.8011350197
 20
197.9570585047
 30
0.0
 10
80.9445712287
 20
197.6901988895
 30
0.0
 10
81.1662283517
 20
197.2940996467
 30
0.0
 10
81.3937252369
 20
196.9031589126
 30
0.0
 10
81.5878283885
 20
196.581977549
 30
0.0
 10
81.7450465059
 20
196.3288226463
 30
0.0
 10
81.8629493079
 20
196.1422712482
 30
0.0
 10
81.9805008805
 20
195.9593761432
 30
0.0
 10
82.0965023952
 20
195.7817180716
 30
0.0
 10
82.1915343511
 20
195.6382247113
 30
0.0
 10
82.2647979954
 20
195.5285370475
 30
0.0
 10
82.3159019843
 20
195.4523272709
 30
0.0
 10
82.3560122305
 20
195.3926437854
 30
0.0
 10
82.3852123071
 20
195.3490422182
 30
0.0
 10
82.404141054
 20
195.3207702762
 30
0.0
 10
82.4200113113
 20
195.296556452
 30
0.0
 10
82.4327987458
 20
195.277608782
 30
0.0
 10
82.4401337606
 20
195.2646163075
 30
0.0
 10
82.4447951429
 20
195.2584265254
 30
0.0
 10
82.4451758466
 20
195.2562252225
 30
0.0
  0
LINE
  5
6AC
100
AcDbEntity
  8
0
100
AcDbLine
 62
9
  6
BYLAYER
 10
85.1906324367
 20
195.0410283072
 30
0.0
 11
85.3446672388
 21
195.041691698
 31
0.0
  0
SPLINE
  5
6AD
100
AcDbEntity
  8
0
100
AcDbSpline
 62
9
  6
BYLAYER
 70
0
 71
3
 72
16
 73
12
 74
0
 42
0.0000001
 43
0.0000001
 44
0.0000000001
 40
0.0
 40
0.0
 40
0.0
 40
0.0
 40
0.0063919221
 40
0.0226682816
 40
0.048619405
 40
0.0838668453
 40
0.1805139742
 40
0.3082214446
 40
0.4605467966
 40
0.6309346471
 40
1.0
 40
1.0
 40
1.0
 40
1.0
 10
131.570900489
 20
252.9959028016
 30
0.0
 10
131.570859041
 20
252.9970489887
 30
0.0
 10
131.5723765617
 20
253.0009636561
 30
0.0
 10
131.5743454648
 20
253.0093714498
 30
0.0
 10
131.5785589557
 20
253.0226794919
 30
0.0
 10
131.5865383884
 20
253.0498218761
 30
0.0
 10
131.6005374307
 20
253.0942849358
 30
0.0
 10
131.6233451292
 20
253.157908756
 30
0.0
 10
131.6515499078
 20
253.2336604124
 30
0.0
 10
131.6981222255
 20
253.348713005
 30
0.0
 10
131.7378509418
 20
253.4371508606
 30
0.0
 10
131.7685264092
 20
253.4958411179
 30
0.0
  0
SPLINE
  5
6AE
100
AcDbEntity
  8
0
100
AcDbSpline
 62
9
  6
BYLAYER
 70
0
 71
3
 72
9
 73
5
 74
0
 42
0.0000001
 43
0.0000001
 44
0.0000000001
 40
0.0
 40
0.0
 40
0.0
 40
0.0
 40
0.5190460634
 40
1.0
 40
1.0
 40
1.0
 40
1.0
 10
71.4597700647
 20
252.8165358516
 30
0.0
 10
71.474218626
 20
252.8350335431
 30
0.0
 10
71.4977768617
 20
252.8745039506
 30
0.0
 10
71.5071931447
 20
252.9198216202
 30
0.0
 10
71.5076468296
 20
252.9415661247
 30
0.0
  0
SPLINE
  5
6AF
100
AcDbEntity
  8
0
100
AcDbSpline
 62
9
  6
BYLAYER
 70
0
 71
3
 72
9
 73
5
 74
0
 42
0.0000001
 43
0.0000001
 44
0.0000000001
 40
0.0
 40
0.0
 40
0.0
 40
0.0
 40
0.5190683548
 40
1.0
 40
1.0
 40
1.0
 40
1.0
 10
135.8820454233
 20
252.8165387652
 30
0.0
 10
135.8675974494
 20
252.8350371558
 30
0.0
 10
135.8440404073
 20
252.8745060511
 30
0.0
 10
135.8346229701
 20
252.9198218441
 30
0.0
 10
135.8341692321
 20
252.9415645806
 30
0.0
  0
SPLINE
  5
6B0
100
AcDbEntity
  8
0
100
AcDbSpline
 62
9
  6
BYLAYER
 70
0
 71
3
 72
16
 73
12
 74
0
 42
0.0000001
 43
0.0000001
 44
0.0000000001
 40
0.0
 40
0.0
 40
0.0
 40
0.0
 40
0.3690747687
 40
0.5394611986
 40
0.6917983657
 40
0.8194168293
 40
0.9162336181
 40
0.9514949322
 40
0.9773893504
 40
0.9936109704
 40
1.0
 40
1.0
 40
1.0
 40
1.0
 10
131.7683787011
 20
253.4960688919
 30
0.0
 10
131.7022211115
 20
253.4930687875
 30
0.0
 10
131.6052729791
 20
253.494365712
 30
0.0
 10
131.4813220973
 20
253.5008736858
 30
0.0
 10
131.4007389286
 20
253.5071083641
 30
0.0
 10
131.3334823071
 20
253.5139192071
 30
0.0
 10
131.2871885239
 20
253.5194660623
 30
0.0
 10
131.2591691515
 20
253.5235836873
 30
0.0
 10
131.2453805258
 20
253.5255633702
 30
0.0
 10
131.2369402796
 20
253.5273829543
 30
0.0
 10
131.2327973205
 20
253.5277532739
 30
0.0
 10
131.2317642759
 20
253.5282503787
 30
0.0
  0
SPLINE
  5
6B1
100
AcDbEntity
  8
0
100
AcDbSpline
 62
9
  6
BYLAYER
 70
0
 71
3
 72
26
 73
22
 74
0
 42
0.0000001
 43
0.0000001
 44
0.0000000001
 40
0.0
 40
0.0
 40
0.0
 40
0.0
 40
0.0015900247
 40
0.005063062
 40
0.009841701
 40
0.0154548378
 40
0.0281592747
 40
0.0419758544
 40
0.0712419385
 40
0.1016132069
 40
0.1325643339
 40
0.163868075
 40
0.2271100741
 40
0.2908550164
 40
0.3548959341
 40
0.4191256341
 40
0.483481923
 40
0.6124286779
 40
0.741552637
 40
0.8707603427
 40
1.0
 40
1.0
 40
1.0
 40
1.0
 10
125.0153343742
 20
195.3756466182
 30
0.0
 10
125.0161284709
 20
195.3771544599
 30
0.0
 10
125.0201169535
 20
195.3809949571
 30
0.0
 10
125.0269112217
 20
195.388973447
 30
0.0
 10
125.0371652863
 20
195.3997780199
 30
0.0
 10
125.0540204978
 20
195.4178860314
 30
0.0
 10
125.0776645864
 20
195.4429410971
 30
0.0
 10
125.1186531027
 20
195.486467117
 30
0.0
 10
125.1725904003
 20
195.5438171271
 30
0.0
 10
125.2388644325
 20
195.6147705608
 30
0.0
 10
125.3063475838
 20
195.6875833596
 30
0.0
 10
125.3973515468
 20
195.7866294145
 30
0.0
 10
125.511282486
 20
195.9123393359
 30
0.0
 10
125.6473169878
 20
196.0653579322
 30
0.0
 10
125.782534145
 20
196.2205065047
 30
0.0
 10
125.9166148024
 20
196.3775013895
 30
0.0
 10
126.0937335216
 20
196.5892039407
 30
0.0
 10
126.3113932246
 20
196.8576493491
 30
0.0
 10
126.5660703202
 20
197.185452834
 30
0.0
 10
126.8139922232
 20
197.518785417
 30
0.0
 10
126.974571441
 20
197.7445219156
 30
0.0
 10
127.0536551015
 20
197.8582442128
 30
0.0
  0
SPLINE
  5
6B2
100
AcDbEntity
  8
0
100
AcDbSpline
 62
9
  6
BYLAYER
 70
0
 71
3
 72
9
 73
5
 74
0
 42
0.0000001
 43
0.0000001
 44
0.0000000001
 40
0.0
 40
0.0
 40
0.0
 40
0.0
 40
0.5035827057
 40
1.0
 40
1.0
 40
1.0
 40
1.0
 10
136.3238408457
 20
249.4593645098
 30
0.0
 10
136.2488004728
 20
250.0227861217
 30
0.0
 10
136.1005784283
 20
251.1417158628
 30
0.0
 10
135.9529223294
 20
252.2607277839
 30
0.0
 10
135.8820437729
 20
252.8165358703
 30
0.0
  0
SPLINE
  5
6B3
100
AcDbEntity
  8
0
100
AcDbSpline
 62
9
  6
BYLAYER
 70
0
 71
3
 72
9
 73
5
 74
0
 42
0.0000001
 43
0.0000001
 44
0.0000000001
 40
0.0
 40
0.0
 40
0.0
 40
0.0
 40
0.4964257734
 40
1.0
 40
1.0
 40
1.0
 40
1.0
 10
71.4597700671
 20
252.8165358704
 30
0.0
 10
71.3888298595
 20
252.2607260014
 30
0.0
 10
71.2412643808
 20
251.1417025217
 30
0.0
 10
71.0930130721
 20
250.0227765062
 30
0.0
 10
71.0179729949
 20
249.4593645098
 30
0.0
  0
SPLINE
  5
6B4
100
AcDbEntity
  8
0
100
AcDbSpline
 62
9
  6
BYLAYER
 70
0
 71
3
 72
16
 73
12
 74
0
 42
0.0000001
 43
0.0000001
 44
0.0000000001
 40
0.0
 40
0.0
 40
0.0
 40
0.0
 40
0.0063933385
 40
0.0226720825
 40
0.0486234076
 40
0.0838701285
 40
0.1805168652
 40
0.3082237531
 40
0.460548528
 40
0.6309357179
 40
1.0
 40
1.0
 40
1.0
 40
1.0
 10
76.1100558104
 20
253.5282369846
 30
0.0
 10
76.1090343097
 20
253.5277148866
 30
0.0
 10
76.1048428419
 20
253.5274427139
 30
0.0
 10
76.096390046
 20
253.5256754782
 30
0.0
 10
76.0825476075
 20
253.5238701743
 30
0.0
 10
76.0545765433
 20
253.5196288663
 30
0.0
 10
76.0083629909
 20
253.5135271131
 30
0.0
 10
75.9410615867
 20
253.507308599
 30
0.0
 10
75.8604875727
 20
253.5008568432
 30
0.0
 10
75.7365324138
 20
253.4944430853
 30
0.0
 10
75.6395905993
 20
253.4930712755
 30
0.0
 10
75.5734352175
 20
253.4960687244
 30
0.0
  0
LINE
  5
6B5
100
AcDbEntity
  8
0
100
AcDbLine
 62
9
  6
BYLAYER
 10
122.1511814038
 20
195.0410283072
 30
0.0
 11
121.9971466017
 21
195.041691698
 31
0.0
  0
SPLINE
  5
6B6
100
AcDbEntity
  8
0
100
AcDbSpline
 62
9
  6
BYLAYER
 70
0
 71
3
 72
25
 73
21
 74
0
 42
0.0000001
 43
0.0000001
 44
0.0000000001
 40
0.0
 40
0.0
 40
0.0
 40
0.0
 40
0.0020167238
 40
0.0067033321
 40
0.0136983448
 40
0.0225758075
 40
0.0329413925
 40
0.0444709796
 40
0.0700740826
 40
0.0980198599
 40
0.1275182258
 40
0.1894531132
 40
0.2537826385
 40
0.3195409192
 40
0.3862151526
 40
0.453505091
 40
0.5892339288
 40
0.7258294891
 40
0.8628364412
 40
1.0
 40
1.0
 40
1.0
 40
1.0
 10
124.8966379939
 20
195.2562252225
 30
0.0
 10
124.8970223974
 20
195.2584202357
 30
0.0
 10
124.9016652384
 20
195.264606045
 30
0.0
 10
124.9090039971
 20
195.2775841063
 30
0.0
 10
124.9217795994
 20
195.2965244051
 30
0.0
 10
124.9376468274
 20
195.3207303741
 30
0.0
 10
124.9565728586
 20
195.3489997578
 30
0.0
 10
124.9857738646
 20
195.3926022094
 30
0.0
 10
125.025886244
 20
195.4522893397
 30
0.0
 10
125.0769933142
 20
195.5285034013
 30
0.0
 10
125.1502602357
 20
195.6381957365
 30
0.0
 10
125.2452952022
 20
195.781693353
 30
0.0
 10
125.3612994798
 20
195.9593553859
 30
0.0
 10
125.4788532324
 20
196.1422534962
 30
0.0
 10
125.596757843
 20
196.3288075139
 30
0.0
 10
125.7539779605
 20
196.5819653759
 30
0.0
 10
125.94808326
 20
196.9031499391
 30
0.0
 10
126.1755822844
 20
197.2940940268
 30
0.0
 10
126.3972411324
 20
197.6901961527
 30
0.0
 10
126.5406783432
 20
197.9570576055
 30
0.0
 10
126.6112907499
 20
198.0911650158
 30
0.0
  0
LINE
  5
6B7
100
AcDbEntity
  8
0
100
AcDbLine
 62
9
  6
BYLAYER
 10
124.8835494016
 20
195.1826006238
 30
0.0
 11
124.8966379939
 21
195.2562252225
 31
0.0
  0
LINE
  5
6B8
100
AcDbEntity
  8
0
100
AcDbLine
 62
9
  6
BYLAYER
 10
129.752761884
 20
210.9253889011
 30
0.0
 11
129.6741753574
 21
210.9344748336
 31
0.0
  0
SPLINE
  5
6B9
100
AcDbEntity
  8
0
100
AcDbSpline
 62
9
  6
BYLAYER
 70
0
 71
3
 72
16
 73
12
 74
0
 42
0.0000001
 43
0.0000001
 44
0.0000000001
 40
0.0
 40
0.0
 40
0.0
 40
0.0
 40
0.3690747584
 40
0.5394611395
 40
0.6917982836
 40
0.8194167249
 40
0.9162334761
 40
0.9514947786
 40
0.9773892383
 40
0.993610934
 40
1.0
 40
1.0
 40
1.0
 40
1.0
 10
75.5732904548
 20
253.4958411179
 30
0.0
 10
75.6039685056
 20
253.4371497018
 30
0.0
 10
75.6437650777
 20
253.3487367836
 30
0.0
 10
75.6902508287
 20
253.2336488146
 30
0.0
 10
75.7186561425
 20
253.1579807846
 30
0.0
 10
75.7409073425
 20
253.0941472466
 30
0.0
 10
75.7554447687
 20
253.049846644
 30
0.0
 10
75.7635543452
 20
253.0227122702
 30
0.0
 10
75.7675875156
 20
253.0093788736
 30
0.0
 10
75.7695054818
 20
253.0009604252
 30
0.0
 10
75.7709209594
 20
252.9970491498
 30
0.0
 10
75.7709070104
 20
252.9959028016
 30
0.0
  0
LINE
  5
6BA
100
AcDbEntity
  8
0
100
AcDbLine
 62
9
  6
BYLAYER
 10
135.8341692543
 20
252.9415664595
 30
0.0
 11
135.8393650345
 21
253.358742157
 31
0.0
  0
SPLINE
  5
6BB
100
AcDbEntity
  8
0
100
AcDbSpline
 62
9
  6
BYLAYER
 70
0
 71
3
 72
22
 73
18
 74
0
 42
0.0000001
 43
0.0000001
 44
0.0000000001
 40
0.0
 40
0.0
 40
0.0
 40
0.0
 40
0.1651174005
 40
0.330178436
 40
0.4929131142
 40
0.6473698714
 40
0.7190394689
 40
0.7854938603
 40
0.8454490307
 40
0.8975408674
 40
0.940376097
 40
0.9578715164
 40
0.9725109503
 40
0.9841345861
 40
0.9926410031
 40
0.9979441569
 40
1.0
 40
1.0
 40
1.0
 40
1.0
 10
133.1179267736
 20
242.8631683628
 30
0.0
 10
133.1178960352
 20
242.9516956933
 30
0.0
 10
133.1180321456
 20
243.1287201075
 30
0.0
 10
133.1180220387
 20
243.3929945501
 30
0.0
 10
133.1172835195
 20
243.6515525441
 30
0.0
 10
133.1160711919
 20
243.8600362642
 30
0.0
 10
133.1146659392
 20
244.0168970638
 30
0.0
 10
133.1134401107
 20
244.1230887079
 30
0.0
 10
133.1120338994
 20
244.2187853531
 30
0.0
 10
133.1104495383
 20
244.3017994527
 30
0.0
 10
133.1089623707
 20
244.3620832865
 30
0.0
 10
133.1076006439
 20
244.4022136408
 30
0.0
 10
133.1067106516
 20
244.4257495017
 30
0.0
 10
133.1055742766
 20
244.4441167853
 30
0.0
 10
133.1050105816
 20
244.4583048655
 30
0.0
 10
133.1033810768
 20
244.4656837005
 30
0.0
 10
133.1034556798
 20
244.4707971636
 30
0.0
 10
133.1024333435
 20
244.4712091737
 30
0.0
  0
SPLINE
  5
6BC
100
AcDbEntity
  8
0
100
AcDbSpline
 62
9
  6
BYLAYER
 70
0
 71
3
 72
22
 73
18
 74
0
 42
0.0000001
 43
0.0000001
 44
0.0000000001
 40
0.0
 40
0.0
 40
0.0
 40
0.0
 40
0.1651174598
 40
0.3301784431
 40
0.4929131295
 40
0.6473698832
 40
0.719039479
 40
0.7854938636
 40
0.8454490305
 40
0.8975408616
 40
0.9403760864
 40
0.9578715073
 40
0.9725109473
 40
0.9841345921
 40
0.9926410156
 40
0.9979441684
 40
1.0
 40
1.0
 40
1.0
 40
1.0
 10
130.5236271483
 20
241.4782405166
 30
0.0
 10
130.4610506094
 20
241.4156204588
 30
0.0
 10
130.3357792048
 20
241.2905415301
 30
0.0
 10
130.1489160519
 20
241.1036641697
 30
0.0
 10
129.9666101812
 20
240.920313854
 30
0.0
 10
129.8200471764
 20
240.7720363515
 30
0.0
 10
129.7101235077
 20
240.6601253586
 30
0.0
 10
129.6359014708
 20
240.5841697411
 30
0.0
 10
129.5692280712
 20
240.5155076587
 30
0.0
 10
129.5116485575
 20
240.4556875181
 30
0.0
 10
129.4700730405
 20
240.4120088245
 30
0.0
 10
129.4426594815
 20
240.3826694933
 30
0.0
 10
129.4266464224
 20
240.3653977985
 30
0.0
 10
129.414462329
 20
240.3516066332
 30
0.0
 10
129.4048284003
 20
240.3411755293
 30
0.0
 10
129.4007630546
 20
240.3348057129
 30
0.0
 10
129.3970944993
 20
240.3312426615
 30
0.0
 10
129.3975260959
 20
240.3302284453
 30
0.0
  0
SPLINE
  5
6BD
100
AcDbEntity
  8
0
100
AcDbSpline
 62
9
  6
BYLAYER
 70
0
 71
3
 72
22
 73
18
 74
0
 42
0.0000001
 43
0.0000001
 44
0.0000000001
 40
0.0
 40
0.0
 40
0.0
 40
0.0
 40
0.0020557634
 40
0.0073587692
 40
0.0158650821
 40
0.0274887659
 40
0.0421283269
 40
0.0596237394
 40
0.1024587058
 40
0.1545502898
 40
0.2145052972
 40
0.2809591646
 40
0.3526287613
 40
0.5070854656
 40
0.6698208128
 40
0.8348769683
 40
1.0
 40
1.0
 40
1.0
 40
1.0
 10
74.239380497
 20
244.4712091737
 30
0.0
 10
74.2383581868
 20
244.4707972131
 30
0.0
 10
74.2384327017
 20
244.4656838747
 30
0.0
 10
74.2368032588
 20
244.4583052312
 30
0.0
 10
74.236239547
 20
244.4441172418
 30
0.0
 10
74.2351032017
 20
244.4257499312
 30
0.0
 10
74.2342132237
 20
244.402213974
 30
0.0
 10
74.2328514943
 20
244.3620836983
 30
0.0
 10
74.2313643136
 20
244.3018001437
 30
0.0
 10
74.2297799593
 20
244.218786408
 30
0.0
 10
74.228373729
 20
244.1230902661
 30
0.0
 10
74.2271479489
 20
244.0168989895
 30
0.0
 10
74.225742713
 20
243.8600384984
 30
0.0
 10
74.224530139
 20
243.6515544486
 30
0.0
 10
74.2237916912
 20
243.3929987373
 30
0.0
 10
74.2237830337
 20
243.1287235316
 30
0.0
 10
74.2239178405
 20
242.9516987131
 30
0.0
 10
74.2238870669
 20
242.8631683628
 30
0.0
  0
SPLINE
  5
6BE
100
AcDbEntity
  8
0
100
AcDbSpline
 62
9
  6
BYLAYER
 70
0
 71
3
 72
26
 73
22
 74
0
 42
0.0000001
 43
0.0000001
 44
0.0000000001
 40
0.0
 40
0.0
 40
0.0
 40
0.0
 40
0.129235358
 40
0.2584387758
 40
0.3875584937
 40
0.5165009582
 40
0.5808550517
 40
0.6450825614
 40
0.7091213036
 40
0.7728641144
 40
0.8361038383
 40
0.8674063963
 40
0.8983564142
 40
0.9287258939
 40
0.9579909806
 40
0.971808501
 40
0.9845147186
 40
0.9901324527
 40
0.9949180215
 40
0.998397629
 40
1.0
 40
1.0
 40
1.0
 40
1.0
 10
80.288158739
 20
197.8582442128
 30
0.0
 10
80.3672397248
 20
197.7445256719
 30
0.0
 10
80.5278135991
 20
197.5187966767
 30
0.0
 10
80.7757268654
 20
197.1854748212
 30
0.0
 10
81.0303950165
 20
196.8576818006
 30
0.0
 10
81.2480468074
 20
196.5892447922
 30
0.0
 10
81.4251589439
 20
196.3775488659
 30
0.0
 10
81.5592345242
 20
196.2205588995
 30
0.0
 10
81.6944465458
 20
196.0654150947
 30
0.0
 10
81.830475799
 20
195.9124012782
 30
0.0
 10
81.9444022092
 20
195.7866953424
 30
0.0
 10
82.0354024257
 20
195.6876524986
 30
0.0
 10
82.1028823808
 20
195.6148426986
 30
0.0
 10
82.1691531204
 20
195.5438919256
 30
0.0
 10
82.2230891438
 20
195.4865433722
 30
0.0
 10
82.2640785848
 20
195.4430158058
 30
0.0
 10
82.2877290734
 20
195.4179557236
 30
0.0
 10
82.3045923684
 20
195.3998362232
 30
0.0
 10
82.3148646747
 20
195.3890210228
 30
0.0
 10
82.3216676976
 20
195.3810154897
 30
0.0
 10
82.3256827195
 20
195.3771680144
 30
0.0
 10
82.3264794663
 20
195.3756466182
 30
0.0
  0
LINE
  5
6BF
100
AcDbEntity
  8
0
100
AcDbLine
 62
9
  6
BYLAYER
 10
82.3264794658
 20
195.3756466176
 30
0.0
 11
82.3388506556
 21
195.3021679407
 31
0.0
  0
LINE
  5
6C0
100
AcDbEntity
  8
0
100
AcDbLine
 62
9
  6
BYLAYER
 10
125.0029631849
 20
195.3021679407
 30
0.0
 11
125.0153343747
 21
195.3756466176
 31
0.0
  0
LINE
  5
6C1
100
AcDbEntity
  8
0
100
AcDbLine
 62
9
  6
BYLAYER
 10
91.6867374216
 20
230.8998882052
 30
0.0
 11
91.6976530322
 21
230.8701053839
 31
0.0
  0
LINE
  5
6C2
100
AcDbEntity
  8
0
100
AcDbLine
 62
9
  6
BYLAYER
 10
86.0876111793
 20
230.8998882052
 30
0.0
 11
86.1088400912
 21
230.8701053839
 31
0.0
  0
LINE
  5
6C3
100
AcDbEntity
  8
0
100
AcDbLine
 62
9
  6
BYLAYER
 10
115.6441608084
 20
230.8701053839
 30
0.0
 11
115.6550764189
 21
230.8998882052
 31
0.0
  0
LINE
  5
6C4
100
AcDbEntity
  8
0
100
AcDbLine
 62
9
  6
BYLAYER
 10
81.4838644776
 20
225.2424461641
 30
0.0
 11
81.517340142
 21
225.227713105
 31
0.0
  0
LINE
  5
6C5
100
AcDbEntity
  8
0
100
AcDbLine
 62
9
  6
BYLAYER
 10
82.5056398921
 20
220.4662822692
 30
0.0
 11
82.4740235916
 21
220.4720572843
 31
0.0
  0
SPLINE
  5
6C6
100
AcDbEntity
  8
0
100
AcDbSpline
 62
9
  6
BYLAYER
 70
0
 71
3
 72
9
 73
5
 74
0
 42
0.0000001
 43
0.0000001
 44
0.0000000001
 40
0.0
 40
0.0
 40
0.0
 40
0.0
 40
0.3987428457
 40
1.0
 40
1.0
 40
1.0
 40
1.0
 10
130.2849364096
 20
154.7887208097
 30
0.0
 10
130.258501069
 20
154.8428083393
 30
0.0
 10
130.1942257505
 20
154.979432168
 30
0.0
 10
130.1303694749
 20
155.1162399909
 30
0.0
 10
130.0922249164
 20
155.1986145367
 30
0.0
  0
SPLINE
  5
6C7
100
AcDbEntity
  8
0
100
AcDbSpline
 62
9
  6
BYLAYER
 70
0
 71
3
 72
9
 73
5
 74
0
 42
0.0000001
 43
0.0000001
 44
0.0000000001
 40
0.0
 40
0.0
 40
0.0
 40
0.0
 40
0.2509786535
 40
1.0
 40
1.0
 40
1.0
 40
1.0
 10
130.2849371229
 20
154.7887204168
 30
0.0
 10
130.3314238956
 20
154.8031023712
 30
0.0
 10
130.5194369982
 20
154.8512672159
 30
0.0
 10
130.7144638645
 20
154.8693372795
 30
0.0
 10
130.8596868898
 20
154.8693327935
 30
0.0
  0
SPLINE
  5
6C8
100
AcDbEntity
  8
0
100
AcDbSpline
 62
9
  6
BYLAYER
 70
0
 71
3
 72
12
 73
8
 74
0
 42
0.0000001
 43
0.0000001
 44
0.0000000001
 40
0.0
 40
0.0
 40
0.0
 40
0.0
 40
0.2145471237
 40
0.3265328761
 40
0.4447768159
 40
0.7062562591
 40
1.0
 40
1.0
 40
1.0
 40
1.0
 10
77.0606648409
 20
154.3713874942
 30
0.0
 10
77.1670489233
 20
154.3713873499
 30
0.0
 10
77.331969739
 20
154.3933113073
 30
0.0
 10
77.5315213392
 20
154.4911855405
 30
0.0
 10
77.723288968
 20
154.6447333597
 30
0.0
 10
77.9071673636
 20
154.9354184809
 30
0.0
 10
77.9563723655
 20
155.214191786
 30
0.0
 10
77.9551417245
 20
155.3598406411
 30
0.0
  0
SPLINE
  5
6C9
100
AcDbEntity
  8
0
100
AcDbSpline
 62
9
  6
BYLAYER
 70
0
 71
3
 72
9
 73
5
 74
0
 42
0.0000001
 43
0.0000001
 44
0.0000000001
 40
0.0
 40
0.0
 40
0.0
 40
0.0
 40
0.5074984169
 40
1.0
 40
1.0
 40
1.0
 40
1.0
 10
76.872535908
 20
154.3715244984
 30
0.0
 10
76.8672205073
 20
154.3751588433
 30
0.0
 10
76.8550404156
 20
154.3809416112
 30
0.0
 10
76.8417162786
 20
154.3773159563
 30
0.0
 10
76.8363712828
 20
154.3740788697
 30
0.0
  0
SPLINE
  5
6CA
100
AcDbEntity
  8
0
100
AcDbSpline
 62
9
  6
BYLAYER
 70
0
 71
3
 72
9
 73
5
 74
0
 42
0.0000001
 43
0.0000001
 44
0.0000000001
 40
0.0
 40
0.0
 40
0.0
 40
0.0
 40
0.2506358506
 40
1.0
 40
1.0
 40
1.0
 40
1.0
 10
130.0922249328
 20
155.1986145439
 30
0.0
 10
130.1519541087
 20
155.2262574575
 30
0.0
 10
130.397218863
 20
155.3212811636
 30
0.0
 10
130.6629164697
 20
155.359859305
 30
0.0
 10
130.8596956565
 20
155.3598439916
 30
0.0
  0
SPLINE
  5
6CB
100
AcDbEntity
  8
0
100
AcDbSpline
 62
9
  6
BYLAYER
 70
0
 71
3
 72
9
 73
5
 74
0
 42
0.0000001
 43
0.0000001
 44
0.0000000001
 40
0.0
 40
0.0
 40
0.0
 40
0.0
 40
0.24133865
 40
1.0
 40
1.0
 40
1.0
 40
1.0
 10
129.8575115889
 20
154.6245095064
 30
0.0
 10
129.8911240672
 20
154.6396038265
 30
0.0
 10
130.0311020149
 20
154.7005236544
 30
0.0
 10
130.174291255
 20
154.7544628686
 30
0.0
 10
130.2849371229
 20
154.7887204168
 30
0.0
  0
SPLINE
  5
6CC
100
AcDbEntity
  8
0
100
AcDbSpline
 62
9
  6
BYLAYER
 70
0
 71
3
 72
9
 73
5
 74
0
 42
0.0000001
 43
0.0000001
 44
0.0000000001
 40
0.0
 40
0.0
 40
0.0
 40
0.0
 40
0.2375826978
 40
1.0
 40
1.0
 40
1.0
 40
1.0
 10
129.3781602968
 20
154.3788249458
 30
0.0
 10
129.4151228649
 20
154.400138048
 30
0.0
 10
129.5717464784
 20
154.4880091761
 30
0.0
 10
129.7326024635
 20
154.5684279619
 30
0.0
 10
129.8575115889
 20
154.6245095064
 30
0.0
  0
SPLINE
  5
6CD
100
AcDbEntity
  8
0
100
AcDbSpline
 62
9
  6
BYLAYER
 70
0
 71
3
 72
9
 73
5
 74
0
 42
0.0000001
 43
0.0000001
 44
0.0000000001
 40
0.0
 40
0.0
 40
0.0
 40
0.0
 40
0.2426844169
 40
1.0
 40
1.0
 40
1.0
 40
1.0
 10
129.3781602968
 20
154.3788249458
 30
0.0
 10
129.4029608441
 20
154.4210499132
 30
0.0
 10
129.5091148854
 20
154.5926569341
 30
0.0
 10
129.6308444197
 20
154.7548527853
 30
0.0
 10
129.7320664076
 20
154.86933419
 30
0.0
  0
SPLINE
  5
6CE
100
AcDbEntity
  8
0
100
AcDbSpline
 62
9
  6
BYLAYER
 70
0
 71
3
 72
13
 73
9
 74
0
 42
0.0000001
 43
0.0000001
 44
0.0000000001
 40
0.0
 40
0.0
 40
0.0
 40
0.0
 40
0.1386414672
 40
0.2719399688
 40
0.4001724779
 40
0.5238442224
 40
0.7601494969
 40
1.0
 40
1.0
 40
1.0
 40
1.0
 10
77.2481900942
 20
155.3598406411
 30
0.0
 10
77.2493754349
 20
155.3140194799
 30
0.0
 10
77.2274056116
 20
155.2224061475
 30
0.0
 10
77.1453439013
 20
155.1161126568
 30
0.0
 10
77.0469760599
 20
155.0343220284
 30
0.0
 10
76.9084863469
 20
154.9507126083
 30
0.0
 10
76.7200198139
 20
154.8809063455
 30
0.0
 10
76.5614174897
 20
154.8693341495
 30
0.0
 10
76.4821201085
 20
154.8693327935
 30
0.0
  0
SPLINE
  5
6CF
100
AcDbEntity
  8
0
100
AcDbSpline
 62
9
  6
BYLAYER
 70
0
 71
3
 72
11
 73
7
 74
0
 42
0.0000001
 43
0.0000001
 44
0.0000000001
 40
0.0
 40
0.0
 40
0.0
 40
0.0
 40
0.2098328128
 40
0.4449001577
 40
0.7119161818
 40
1.0
 40
1.0
 40
1.0
 40
1.0
 10
76.482117979
 20
154.8693327935
 30
0.0
 10
76.5284199014
 20
154.8693327935
 30
0.0
 10
76.6277541019
 20
154.8397603316
 30
0.0
 10
76.7424432303
 20
154.7259439847
 30
0.0
 10
76.8171666561
 20
154.5653832819
 30
0.0
 10
76.8353572381
 20
154.4423868091
 30
0.0
 10
76.8363009817
 20
154.3788249458
 30
0.0
  0
SPLINE
  5
6D0
100
AcDbEntity
  8
0
100
AcDbSpline
 62
9
  6
BYLAYER
 70
0
 71
3
 72
13
 73
9
 74
0
 42
0.0000001
 43
0.0000001
 44
0.0000000001
 40
0.0
 40
0.0
 40
0.0
 40
0.0
 40
0.1385695827
 40
0.2719297774
 40
0.4002540732
 40
0.5240101011
 40
0.7603630688
 40
1.0
 40
1.0
 40
1.0
 40
1.0
 10
130.1045456612
 20
151.3762021594
 30
0.0
 10
130.1036411734
 20
151.4223258555
 30
0.0
 10
130.1266403562
 20
151.5143678472
 30
0.0
 10
130.2098095923
 20
151.6209236849
 30
0.0
 10
130.3091228651
 20
151.7030888816
 30
0.0
 10
130.4487158833
 20
151.7871772713
 30
0.0
 10
130.638406553
 20
151.8575812802
 30
0.0
 10
130.7980644533
 20
151.8693343067
 30
0.0
 10
130.8778443429
 20
151.8693327935
 30
0.0
  0
SPLINE
  5
6D1
100
AcDbEntity
  8
0
100
AcDbSpline
 62
9
  6
BYLAYER
 70
0
 71
3
 72
11
 73
7
 74
0
 42
0.0000001
 43
0.0000001
 44
0.0000000001
 40
0.0
 40
0.0
 40
0.0
 40
0.0
 40
0.2097356794
 40
0.4448317551
 40
0.7119395755
 40
1.0
 40
1.0
 40
1.0
 40
1.0
 10
130.8778438987
 20
151.8693327935
 30
0.0
 10
130.8313827487
 20
151.8693327935
 30
0.0
 10
130.7316759559
 20
151.8991330292
 30
0.0
 10
130.6167909883
 20
152.01367883
 30
0.0
 10
130.5422072319
 20
152.1750961905
 30
0.0
 10
130.5243392667
 20
152.298655566
 30
0.0
 10
130.5236271445
 20
152.3624634275
 30
0.0
  0
SPLINE
  5
6D2
100
AcDbEntity
  8
0
100
AcDbSpline
 62
9
  6
BYLAYER
 70
0
 71
3
 72
9
 73
5
 74
0
 42
0.0000001
 43
0.0000001
 44
0.0000000001
 40
0.0
 40
0.0
 40
0.0
 40
0.0
 40
0.1642771865
 40
1.0
 40
1.0
 40
1.0
 40
1.0
 10
77.0441053682
 20
151.9513498203
 30
0.0
 10
77.0549943406
 20
151.9289589709
 30
0.0
 10
77.120386933
 20
151.7922279768
 30
0.0
 10
77.1847253858
 20
151.6549978046
 30
0.0
 10
77.2383295336
 20
151.5402357336
 30
0.0
  0
SPLINE
  5
6D3
100
AcDbEntity
  8
0
100
AcDbSpline
 62
9
  6
BYLAYER
 70
0
 71
3
 72
9
 73
5
 74
0
 42
0.0000001
 43
0.0000001
 44
0.0000000001
 40
0.0
 40
0.0
 40
0.0
 40
0.0
 40
0.250949111
 40
1.0
 40
1.0
 40
1.0
 40
1.0
 10
77.0440995003
 20
151.9513492536
 30
0.0
 10
76.9972054949
 20
151.9367299588
 30
0.0
 10
76.8074938391
 20
151.8877133701
 30
0.0
 10
76.6105823293
 20
151.8693351051
 30
0.0
 10
76.4639655209
 20
151.8693327935
 30
0.0
  0
SPLINE
  5
6D4
100
AcDbEntity
  8
0
100
AcDbSpline
 62
9
  6
BYLAYER
 70
0
 71
3
 72
13
 73
9
 74
0
 42
0.0000001
 43
0.0000001
 44
0.0000000001
 40
0.0
 40
0.0
 40
0.0
 40
0.0
 40
0.1093505405
 40
0.2186418233
 40
0.329603479
 40
0.4453987767
 40
0.702690897
 40
1.0
 40
1.0
 40
1.0
 40
1.0
 10
130.5236271483
 20
152.3624634275
 30
0.0
 10
130.4609835078
 20
152.3624061766
 30
0.0
 10
130.3360399631
 20
152.370823828
 30
0.0
 10
130.1463425359
 20
152.3675458209
 30
0.0
 10
129.9580119662
 20
152.3186180308
 30
0.0
 10
129.7121807413
 20
152.1842935591
 30
0.0
 10
129.4636546036
 20
151.8698492863
 30
0.0
 10
129.3963925035
 20
151.5465179141
 30
0.0
 10
129.3975260959
 20
151.3762021594
 30
0.0
  0
SPLINE
  5
6D5
100
AcDbEntity
  8
0
100
AcDbSpline
 62
7
  6
BYLAYER
 70
0
 71
3
 72
11
 73
7
 74
0
 42
0.0000001
 43
0.0000001
 44
0.0000000001
 40
0.0
 40
0.0
 40
0.0
 40
0.0
 40
0.2500020055
 40
0.500268582
 40
0.7500374859
 40
1.0
 40
1.0
 40
1.0
 40
1.0
 10
77.0607180853
 20
154.3713863113
 30
0.0
 10
77.0450267745
 20
154.3713794846
 30
0.0
 10
77.0136372427
 20
154.3701485338
 30
0.0
 10
76.966648104
 20
154.3671447545
 30
0.0
 10
76.9195164567
 20
154.3679162951
 30
0.0
 10
76.8882801385
 20
154.3713138058
 30
0.0
 10
76.8725927027
 20
154.3715232367
 30
0.0
  0
SPLINE
  5
6D6
100
AcDbEntity
  8
0
100
AcDbSpline
 62
9
  6
BYLAYER
 70
0
 71
3
 72
9
 73
5
 74
0
 42
0.0000001
 43
0.0000001
 44
0.0000000001
 40
0.0
 40
0.0
 40
0.0
 40
0.0
 40
0.2413259391
 40
1.0
 40
1.0
 40
1.0
 40
1.0
 10
77.4696517837
 20
152.1155754063
 30
0.0
 10
77.436182024
 20
152.1005109805
 30
0.0
 10
77.2967972807
 20
152.0396862344
 30
0.0
 10
77.1542473638
 20
151.9857275403
 30
0.0
 10
77.0440995003
 20
151.9513492536
 30
0.0
  0
SPLINE
  5
6D7
100
AcDbEntity
  8
0
100
AcDbSpline
 62
9
  6
BYLAYER
 70
0
 71
3
 72
9
 73
5
 74
0
 42
0.0000001
 43
0.0000001
 44
0.0000000001
 40
0.0
 40
0.0
 40
0.0
 40
0.0
 40
0.2374963289
 40
1.0
 40
1.0
 40
1.0
 40
1.0
 10
77.9507053335
 20
152.3624634275
 30
0.0
 10
77.9136197323
 20
152.3410678455
 30
0.0
 10
77.7564226781
 20
152.2528134119
 30
0.0
 10
77.5950006838
 20
152.1719951795
 30
0.0
 10
77.4696517837
 20
152.1155754063
 30
0.0
  0
SPLINE
  5
6D8
100
AcDbEntity
  8
0
100
AcDbSpline
 62
9
  6
BYLAYER
 70
0
 71
3
 72
9
 73
5
 74
0
 42
0.0000001
 43
0.0000001
 44
0.0000000001
 40
0.0
 40
0.0
 40
0.0
 40
0.0
 40
0.242601203
 40
1.0
 40
1.0
 40
1.0
 40
1.0
 10
77.9507053335
 20
152.3624634275
 30
0.0
 10
77.9259012222
 20
152.3200377143
 30
0.0
 10
77.8196803363
 20
152.147543905
 30
0.0
 10
77.6978156166
 20
151.9844514206
 30
0.0
 10
77.5963861773
 20
151.8693320762
 30
0.0
  0
SPLINE
  5
6D9
100
AcDbEntity
  8
0
100
AcDbSpline
 62
9
  6
BYLAYER
 70
0
 71
3
 72
11
 73
7
 74
0
 42
0.0000001
 43
0.0000001
 44
0.0000000001
 40
0.0
 40
0.0
 40
0.0
 40
0.0
 40
0.2497604358
 40
0.49941742
 40
0.7494686067
 40
1.0
 40
1.0
 40
1.0
 40
1.0
 10
76.0992662389
 20
146.2666393178
 30
0.0
 10
76.0867925967
 20
146.2088435463
 30
0.0
 10
76.0400954563
 20
146.0967124777
 30
0.0
 10
75.9142505599
 20
145.9663620918
 30
0.0
 10
75.7521531402
 20
145.8862587951
 30
0.0
 10
75.6327589368
 20
145.8693575737
 30
0.0
 10
75.5734499314
 20
145.8693327995
 30
0.0
  0
SPLINE
  5
6DA
100
AcDbEntity
  8
0
100
AcDbSpline
 62
9
  6
BYLAYER
 70
0
 71
3
 72
9
 73
5
 74
0
 42
0.0000001
 43
0.0000001
 44
0.0000000001
 40
0.0
 40
0.0
 40
0.0
 40
0.0
 40
0.2506882442
 40
1.0
 40
1.0
 40
1.0
 40
1.0
 10
77.23833558
 20
151.5402385405
 30
0.0
 10
77.178124837
 20
151.5121285964
 30
0.0
 10
76.9308388627
 20
151.4154514811
 30
0.0
 10
76.662587916
 20
151.3762068684
 30
0.0
 10
76.4639698968
 20
151.3762004423
 30
0.0
  0
SPLINE
  5
6DB
100
AcDbEntity
  8
0
100
AcDbSpline
 62
9
  6
BYLAYER
 70
0
 71
3
 72
11
 73
7
 74
0
 42
0.0000001
 43
0.0000001
 44
0.0000000001
 40
0.0
 40
0.0
 40
0.0
 40
0.0
 40
0.2880556677
 40
0.5551589242
 40
0.7902554895
 40
1.0
 40
1.0
 40
1.0
 40
1.0
 10
77.911657009
 20
146.3614791348
 30
0.0
 10
77.9109496421
 20
146.2977989734
 30
0.0
 10
77.8931223381
 20
146.1744859567
 30
0.0
 10
77.8186896107
 20
146.0133892854
 30
0.0
 10
77.704029471
 20
145.8990718023
 30
0.0
 10
77.6045180929
 20
145.8693327935
 30
0.0
 10
77.5581472355
 20
145.8693327935
 30
0.0
  0
SPLINE
  5
6DC
100
AcDbEntity
  8
0
100
AcDbSpline
 62
9
  6
BYLAYER
 70
0
 71
3
 72
11
 73
7
 74
0
 42
0.0000001
 43
0.0000001
 44
0.0000000001
 40
0.0
 40
0.0
 40
0.0
 40
0.0
 40
0.2880556761
 40
0.5551589377
 40
0.7902554976
 40
1.0
 40
1.0
 40
1.0
 40
1.0
 10
80.9723713811
 20
146.3614791348
 30
0.0
 10
80.9716640141
 20
146.2977989715
 30
0.0
 10
80.9538367088
 20
146.1744859518
 30
0.0
 10
80.8794039788
 20
146.0133892795
 30
0.0
 10
80.7647438385
 20
145.8990717996
 30
0.0
 10
80.6652324632
 20
145.8693327935
 30
0.0
 10
80.6188616075
 20
145.8693327935
 30
0.0
  0
SPLINE
  5
6DD
100
AcDbEntity
  8
0
100
AcDbSpline
 62
9
  6
BYLAYER
 70
0
 71
3
 72
11
 73
7
 74
0
 42
0.0000001
 43
0.0000001
 44
0.0000000001
 40
0.0
 40
0.0
 40
0.0
 40
0.0
 40
0.2880556677
 40
0.5551589242
 40
0.7902554895
 40
1.0
 40
1.0
 40
1.0
 40
1.0
 10
126.3694424594
 20
146.3614791348
 30
0.0
 10
126.3701498264
 20
146.2977989734
 30
0.0
 10
126.3879771304
 20
146.1744859567
 30
0.0
 10
126.4624098578
 20
146.0133892854
 30
0.0
 10
126.5770699974
 20
145.8990718023
 30
0.0
 10
126.6765813756
 20
145.8693327935
 30
0.0
 10
126.722952233
 20
145.8693327935
 30
0.0
  0
SPLINE
  5
6DE
100
AcDbEntity
  8
0
100
AcDbSpline
 62
9
  6
BYLAYER
 70
0
 71
3
 72
11
 73
7
 74
0
 42
0.0000001
 43
0.0000001
 44
0.0000000001
 40
0.0
 40
0.0
 40
0.0
 40
0.0
 40
0.2880557292
 40
0.5551590204
 40
0.7902555458
 40
1.0
 40
1.0
 40
1.0
 40
1.0
 10
129.4301568315
 20
146.3614791348
 30
0.0
 10
129.4308641986
 20
146.2977989596
 30
0.0
 10
129.4486915117
 20
146.1744859214
 30
0.0
 10
129.5231242576
 20
146.0133892436
 30
0.0
 10
129.637784402
 20
145.8990717832
 30
0.0
 10
129.73729576
 20
145.8693327935
 30
0.0
 10
129.7836666051
 20
145.8693327935
 30
0.0
  0
SPLINE
  5
6DF
100
AcDbEntity
  8
0
100
AcDbSpline
 62
9
  6
BYLAYER
 70
0
 71
3
 72
11
 73
7
 74
0
 42
0.0000001
 43
0.0000001
 44
0.0000000001
 40
0.0
 40
0.0
 40
0.0
 40
0.0
 40
0.2386509097
 40
0.4840505378
 40
0.7387600994
 40
1.0
 40
1.0
 40
1.0
 40
1.0
 10
74.9860527943
 20
145.8693327935
 30
0.0
 10
75.0446444263
 20
145.8693327935
 30
0.0
 10
75.1649147055
 20
145.8957776586
 30
0.0
 10
75.3144661418
 20
146.0066864231
 30
0.0
 10
75.4140445277
 20
146.1698273948
 30
0.0
 10
75.4382377657
 20
146.2973481367
 30
0.0
 10
75.439150826
 20
146.3614791348
 30
0.0
  0
SPLINE
  5
6E0
100
AcDbEntity
  8
0
100
AcDbSpline
 62
9
  6
BYLAYER
 70
0
 71
3
 72
11
 73
7
 74
0
 42
0.0000001
 43
0.0000001
 44
0.0000000001
 40
0.0
 40
0.0
 40
0.0
 40
0.0
 40
0.2386509905
 40
0.4840506487
 40
0.7387601635
 40
1.0
 40
1.0
 40
1.0
 40
1.0
 10
132.3557610462
 20
145.8693327935
 30
0.0
 10
132.2971693962
 20
145.8693327935
 30
0.0
 10
132.1768990918
 20
145.8957776744
 30
0.0
 10
132.0273476703
 20
146.0066864774
 30
0.0
 10
131.9277693256
 20
146.1698274416
 30
0.0
 10
131.9035761125
 20
146.2973481545
 30
0.0
 10
131.9026630572
 20
146.3614791348
 30
0.0
  0
SPLINE
  5
6E1
100
AcDbEntity
  8
0
100
AcDbSpline
 62
9
  6
BYLAYER
 70
0
 71
3
 72
11
 73
7
 74
0
 42
0.0000001
 43
0.0000001
 44
0.0000000001
 40
0.0
 40
0.0
 40
0.0
 40
0.0
 40
0.2498654437
 40
0.4994524144
 40
0.7494540487
 40
1.0
 40
1.0
 40
1.0
 40
1.0
 10
131.2359607151
 20
160.4340008385
 30
0.0
 10
131.244223833
 20
160.4956987326
 30
0.0
 10
131.2850869448
 20
160.6172114256
 30
0.0
 10
131.4108689236
 20
160.7611776219
 30
0.0
 10
131.5794680618
 20
160.8503017585
 30
0.0
 10
131.7051859466
 20
160.8691973124
 30
0.0
 10
131.7676041058
 20
160.8693314721
 30
0.0
  0
SPLINE
  5
6E2
100
AcDbEntity
  8
0
100
AcDbSpline
 62
9
  6
BYLAYER
 70
0
 71
3
 72
11
 73
7
 74
0
 42
0.0000001
 43
0.0000001
 44
0.0000000001
 40
0.0
 40
0.0
 40
0.0
 40
0.0
 40
0.2880806041
 40
0.5550934812
 40
0.7901611036
 40
1.0
 40
1.0
 40
1.0
 40
1.0
 10
129.4302280151
 20
160.3798040034
 30
0.0
 10
129.4311675967
 20
160.4432387713
 30
0.0
 10
129.4493184398
 20
160.5659899134
 30
0.0
 10
129.5238911306
 20
160.7262311658
 30
0.0
 10
129.6383543263
 20
160.8398205724
 30
0.0
 10
129.7374926957
 20
160.8693327935
 30
0.0
 10
129.7837038656
 20
160.8693327935
 30
0.0
  0
SPLINE
  5
6E3
100
AcDbEntity
  8
0
100
AcDbSpline
 62
9
  6
BYLAYER
 70
0
 71
3
 72
11
 73
7
 74
0
 42
0.0000001
 43
0.0000001
 44
0.0000000001
 40
0.0
 40
0.0
 40
0.0
 40
0.0
 40
0.288080608
 40
0.5550934876
 40
0.7901611074
 40
1.0
 40
1.0
 40
1.0
 40
1.0
 10
126.3694714889
 20
160.3798040034
 30
0.0
 10
126.3704110704
 20
160.4432387722
 30
0.0
 10
126.3885619142
 20
160.5659899157
 30
0.0
 10
126.4631346061
 20
160.7262311685
 30
0.0
 10
126.5775978022
 20
160.8398205737
 30
0.0
 10
126.6767361702
 20
160.8693327935
 30
0.0
 10
126.7229473394
 20
160.8693327935
 30
0.0
  0
SPLINE
  5
6E4
100
AcDbEntity
  8
0
100
AcDbSpline
 62
9
  6
BYLAYER
 70
0
 71
3
 72
11
 73
7
 74
0
 42
0.0000001
 43
0.0000001
 44
0.0000000001
 40
0.0
 40
0.0
 40
0.0
 40
0.0
 40
0.2880806041
 40
0.5550934812
 40
0.7901611036
 40
1.0
 40
1.0
 40
1.0
 40
1.0
 10
80.9723423517
 20
160.3798040034
 30
0.0
 10
80.9714027701
 20
160.4432387713
 30
0.0
 10
80.953251927
 20
160.5659899134
 30
0.0
 10
80.8786792362
 20
160.7262311658
 30
0.0
 10
80.7642160405
 20
160.8398205724
 30
0.0
 10
80.6650776711
 20
160.8693327935
 30
0.0
 10
80.6188665012
 20
160.8693327935
 30
0.0
  0
SPLINE
  5
6E5
100
AcDbEntity
  8
0
100
AcDbSpline
 62
9
  6
BYLAYER
 70
0
 71
3
 72
9
 73
5
 74
0
 42
0.0000001
 43
0.0000001
 44
0.0000000001
 40
0.0
 40
0.0
 40
0.0
 40
0.0
 40
0.2472961581
 40
1.0
 40
1.0
 40
1.0
 40
1.0
 10
129.7320664076
 20
154.86933419
 30
0.0
 10
129.7587466021
 20
154.8995008275
 30
0.0
 10
129.8692848024
 20
155.0189988127
 30
0.0
 10
129.991697141
 20
155.128474805
 30
0.0
 10
130.0922249327
 20
155.1986145315
 30
0.0
  0
SPLINE
  5
6E6
100
AcDbEntity
  8
0
100
AcDbSpline
 62
9
  6
BYLAYER
 70
0
 71
3
 72
9
 73
5
 74
0
 42
0.0000001
 43
0.0000001
 44
0.0000000001
 40
0.0
 40
0.0
 40
0.0
 40
0.0
 40
0.2757315866
 40
1.0
 40
1.0
 40
1.0
 40
1.0
 10
130.1371797161
 20
160.3798040034
 30
0.0
 10
130.072203893
 20
160.3800871423
 30
0.0
 10
129.8365544159
 20
160.3808455558
 30
0.0
 10
129.600899381
 20
160.3808575528
 30
0.0
 10
129.4302280151
 20
160.3798040034
 30
0.0
  0
SPLINE
  5
6E7
100
AcDbEntity
  8
0
100
AcDbSpline
 62
9
  6
BYLAYER
 70
0
 71
3
 72
9
 73
5
 74
0
 42
0.0000001
 43
0.0000001
 44
0.0000000001
 40
0.0
 40
0.0
 40
0.0
 40
0.0
 40
0.2758123541
 40
1.0
 40
1.0
 40
1.0
 40
1.0
 10
130.1045456431
 20
151.3762021597
 30
0.0
 10
130.0395451403
 20
151.3757790678
 30
0.0
 10
129.8038744193
 20
151.3746356157
 30
0.0
 10
129.5681912738
 20
151.3746313415
 30
0.0
 10
129.3975260959
 20
151.3762021595
 30
0.0
  0
SPLINE
  5
6E8
100
AcDbEntity
  8
0
100
AcDbSpline
 62
9
  6
BYLAYER
 70
0
 71
3
 72
9
 73
5
 74
0
 42
0.0000001
 43
0.0000001
 44
0.0000000001
 40
0.0
 40
0.0
 40
0.0
 40
0.0
 40
0.2758083687
 40
1.0
 40
1.0
 40
1.0
 40
1.0
 10
77.2481900235
 20
155.3598406423
 30
0.0
 10
77.3131825165
 20
155.3604045695
 30
0.0
 10
77.5488287105
 20
155.3619287102
 30
0.0
 10
77.7844969776
 20
155.3619342199
 30
0.0
 10
77.9551417245
 20
155.359840642
 30
0.0
  0
SPLINE
  5
6E9
100
AcDbEntity
  8
0
100
AcDbSpline
 62
9
  6
BYLAYER
 70
0
 71
3
 72
9
 73
5
 74
0
 42
0.0000001
 43
0.0000001
 44
0.0000000001
 40
0.0
 40
0.0
 40
0.0
 40
0.0
 40
0.2472407378
 40
1.0
 40
1.0
 40
1.0
 40
1.0
 10
77.5963861773
 20
151.8693320762
 30
0.0
 10
77.5698612853
 20
151.8392261076
 30
0.0
 10
77.459949745
 20
151.719914071
 30
0.0
 10
77.3382675502
 20
151.610505062
 30
0.0
 10
77.2383355757
 20
151.5402378806
 30
0.0
  0
SPLINE
  5
6EA
100
AcDbEntity
  8
0
100
AcDbSpline
 62
9
  6
BYLAYER
 70
0
 71
3
 72
9
 73
5
 74
0
 42
0.0000001
 43
0.0000001
 44
0.0000000001
 40
0.0
 40
0.0
 40
0.0
 40
0.0
 40
0.2142399154
 40
1.0
 40
1.0
 40
1.0
 40
1.0
 10
80.9723696763
 20
146.3614791462
 30
0.0
 10
80.9976141748
 20
146.3612472697
 30
0.0
 10
81.1154504248
 20
146.3605499766
 30
0.0
 10
81.2332908479
 20
146.3608791231
 30
0.0
 10
81.3258811547
 20
146.3614791348
 30
0.0
  0
SPLINE
  5
6EB
100
AcDbEntity
  8
0
100
AcDbSpline
 62
9
  6
BYLAYER
 70
0
 71
3
 72
9
 73
5
 74
0
 42
0.0000001
 43
0.0000001
 44
0.0000000001
 40
0.0
 40
0.0
 40
0.0
 40
0.0
 40
0.2758738524
 40
1.0
 40
1.0
 40
1.0
 40
1.0
 10
81.3258182022
 20
160.3798040034
 30
0.0
 10
81.2933142339
 20
160.3800852996
 30
0.0
 10
81.1754911409
 20
160.3808495843
 30
0.0
 10
81.0576570586
 20
160.3808467219
 30
0.0
 10
80.9723423517
 20
160.3798040034
 30
0.0
  0
SPLINE
  5
6EC
100
AcDbEntity
  8
0
100
AcDbSpline
 62
9
  6
BYLAYER
 70
0
 71
3
 72
9
 73
5
 74
0
 42
0.0000001
 43
0.0000001
 44
0.0000000001
 40
0.0
 40
0.0
 40
0.0
 40
0.0
 40
0.275842354
 40
1.0
 40
1.0
 40
1.0
 40
1.0
 10
126.0159326859
 20
146.3614791348
 30
0.0
 10
126.0484368608
 20
146.3612680433
 30
0.0
 10
126.1662736184
 20
146.3606948265
 30
0.0
 10
126.2841165558
 20
146.3606970747
 30
0.0
 10
126.369446652
 20
146.361479158
 30
0.0
  0
LINE
  5
6ED
100
AcDbEntity
  8
0
100
AcDbLine
 62
7
  6
BYLAYER
 10
126.3173354629
 20
154.3693327935
 30
0.0
 11
125.9638256893
 21
154.3693327935
 31
0.0
  0
SPLINE
  5
6EE
100
AcDbEntity
  8
0
100
AcDbSpline
 62
9
  6
BYLAYER
 70
0
 71
3
 72
9
 73
5
 74
0
 42
0.0000001
 43
0.0000001
 44
0.0000000001
 40
0.0
 40
0.0
 40
0.0
 40
0.0
 40
0.2142551071
 40
1.0
 40
1.0
 40
1.0
 40
1.0
 10
126.3694735871
 20
160.3798039854
 30
0.0
 10
126.3442304104
 20
160.3801129892
 30
0.0
 10
126.2264060475
 20
160.3810428077
 30
0.0
 10
126.1085742611
 20
160.3806039576
 30
0.0
 10
126.0159956384
 20
160.3798040034
 30
0.0
  0
SPLINE
  5
6EF
100
AcDbEntity
  8
0
100
AcDbSpline
 62
9
  6
BYLAYER
 70
0
 71
3
 72
9
 73
5
 74
0
 42
0.0000001
 43
0.0000001
 44
0.0000000001
 40
0.0
 40
0.0
 40
0.0
 40
0.0
 40
0.4072860753
 40
1.0
 40
1.0
 40
1.0
 40
1.0
 10
75.4391507833
 20
146.3614791348
 30
0.0
 10
75.316131826
 20
146.360015778
 30
0.0
 10
75.0140549157
 20
146.3598334312
 30
0.0
 10
74.7119918299
 20
146.3605795408
 30
0.0
 10
74.5329548052
 20
146.3614791348
 30
0.0
  0
SPLINE
  5
6F0
100
AcDbEntity
  8
0
100
AcDbSpline
 62
7
  6
BYLAYER
 70
0
 71
3
 72
9
 73
5
 74
0
 42
0.0000001
 43
0.0000001
 44
0.0000000001
 40
0.0
 40
0.0
 40
0.0
 40
0.0
 40
0.4071476981
 40
1.0
 40
1.0
 40
1.0
 40
1.0
 10
75.5192925771
 20
154.3693327935
 30
0.0
 10
75.3963073016
 20
154.3693327935
 30
0.0
 10
75.0942422733
 20
154.3703395072
 30
0.0
 10
74.7921768295
 20
154.3693327935
 30
0.0
 10
74.613096599
 20
154.3693327935
 30
0.0
  0
SPLINE
  5
6F1
100
AcDbEntity
  8
0
100
AcDbSpline
 62
9
  6
BYLAYER
 70
0
 71
3
 72
9
 73
5
 74
0
 42
0.0000001
 43
0.0000001
 44
0.0000000001
 40
0.0
 40
0.0
 40
0.0
 40
0.0
 40
0.5926693296
 40
1.0
 40
1.0
 40
1.0
 40
1.0
 10
74.5329496722
 20
160.3798040034
 30
0.0
 10
74.7119550318
 20
160.3810037511
 30
0.0
 10
75.0139873772
 20
160.3819960868
 30
0.0
 10
75.3160443469
 20
160.3817564063
 30
0.0
 10
75.4390586909
 20
160.3798040034
 30
0.0
  0
SPLINE
  5
6F2
100
AcDbEntity
  8
0
100
AcDbSpline
 62
9
  6
BYLAYER
 70
0
 71
3
 72
9
 73
5
 74
0
 42
0.0000001
 43
0.0000001
 44
0.0000000001
 40
0.0
 40
0.0
 40
0.0
 40
0.0
 40
0.5929337703
 40
1.0
 40
1.0
 40
1.0
 40
1.0
 10
132.8088590353
 20
146.3614791348
 30
0.0
 10
132.6297556064
 20
146.3605785722
 30
0.0
 10
132.3276925046
 20
146.3598326356
 30
0.0
 10
132.0256156232
 20
146.3600175718
 30
0.0
 10
131.9026630572
 20
146.3614791348
 30
0.0
  0
SPLINE
  5
6F3
100
AcDbEntity
  8
0
100
AcDbSpline
 62
9
  6
BYLAYER
 70
0
 71
3
 72
9
 73
5
 74
0
 42
0.0000001
 43
0.0000001
 44
0.0000000001
 40
0.0
 40
0.0
 40
0.0
 40
0.0
 40
0.4070335001
 40
1.0
 40
1.0
 40
1.0
 40
1.0
 10
131.9027551496
 20
160.3798040034
 30
0.0
 10
132.0256797837
 20
160.3817527378
 30
0.0
 10
132.3277366715
 20
160.3819977476
 30
0.0
 10
132.6297690627
 20
160.3810057578
 30
0.0
 10
132.8088641684
 20
160.3798040034
 30
0.0
  0
SPLINE
  5
6F4
100
AcDbEntity
  8
0
100
AcDbSpline
 62
7
  6
BYLAYER
 70
0
 71
3
 72
9
 73
5
 74
0
 42
0.0000001
 43
0.0000001
 44
0.0000000001
 40
0.0
 40
0.0
 40
0.0
 40
0.0
 40
0.4071582625
 40
1.0
 40
1.0
 40
1.0
 40
1.0
 10
131.8225470966
 20
154.3693327935
 30
0.0
 10
131.9455237611
 20
154.3693327935
 30
0.0
 10
132.247559803
 20
154.3703394991
 30
0.0
 10
132.5495962603
 20
154.3693327935
 30
0.0
 10
132.7286561153
 20
154.3693327935
 30
0.0
  0
SPLINE
  5
6F5
100
AcDbEntity
  8
0
100
AcDbSpline
 62
9
  6
BYLAYER
 70
0
 71
3
 72
11
 73
7
 74
0
 42
0.0000001
 43
0.0000001
 44
0.0000000001
 40
0.0
 40
0.0
 40
0.0
 40
0.0
 40
0.2880806665
 40
0.5550935789
 40
0.7901611607
 40
1.0
 40
1.0
 40
1.0
 40
1.0
 10
77.9115858254
 20
160.3798040034
 30
0.0
 10
77.9106462436
 20
160.4432387852
 30
0.0
 10
77.8924953913
 20
160.565989949
 30
0.0
 10
77.8179226818
 20
160.7262312079
 30
0.0
 10
77.7034594813
 20
160.8398205916
 30
0.0
 10
77.6043211324
 20
160.8693327935
 30
0.0
 10
77.5581099749
 20
160.8693327935
 30
0.0
  0
SPLINE
  5
6F6
100
AcDbEntity
  8
0
100
AcDbSpline
 62
9
  6
BYLAYER
 70
0
 71
3
 72
11
 73
7
 74
0
 42
0.0000001
 43
0.0000001
 44
0.0000000001
 40
0.0
 40
0.0
 40
0.0
 40
0.0
 40
0.2505821002
 40
0.5005316124
 40
0.7501155378
 40
1.0
 40
1.0
 40
1.0
 40
1.0
 10
75.5759737797
 20
160.869326065
 30
0.0
 10
75.6427160946
 20
160.8690168483
 30
0.0
 10
75.7772394309
 20
160.846934902
 30
0.0
 10
75.9541689237
 20
160.7441853613
 30
0.0
 10
76.0779446624
 20
160.5805596793
 30
0.0
 10
76.1086982936
 20
160.446349342
 30
0.0
 10
76.1099555272
 20
160.3798040034
 30
0.0
  0
SPLINE
  5
6F7
100
AcDbEntity
  8
0
100
AcDbSpline
 62
9
  6
BYLAYER
 70
0
 71
3
 72
11
 73
7
 74
0
 42
0.0000001
 43
0.0000001
 44
0.0000000001
 40
0.0
 40
0.0
 40
0.0
 40
0.0
 40
0.2386849828
 40
0.4840810377
 40
0.7387601883
 40
1.0
 40
1.0
 40
1.0
 40
1.0
 10
132.355809659
 20
160.8693327935
 30
0.0
 10
132.2974143914
 20
160.8693327935
 30
0.0
 10
132.1775651584
 20
160.8430739088
 30
0.0
 10
132.0283273003
 20
160.7328838615
 30
0.0
 10
131.9285999527
 20
160.5706537145
 30
0.0
 10
131.9039682894
 20
160.4437058889
 30
0.0
 10
131.9027551477
 20
160.3798040035
 30
0.0
  0
SPLINE
  5
6F8
100
AcDbEntity
  8
0
100
AcDbSpline
 62
9
  6
BYLAYER
 70
0
 71
3
 72
26
 73
22
 74
0
 42
0.0000001
 43
0.0000001
 44
0.0000000001
 40
0.0
 40
0.0
 40
0.0
 40
0.0
 40
0.1950936415
 40
0.3827346931
 40
0.5555975399
 40
0.6344309547
 40
0.7071391937
 40
0.7730365066
 40
0.8314763964
 40
0.8819060942
 40
0.9238457693
 40
0.9415018576
 40
0.9568952741
 40
0.9699869255
 40
0.9807393833
 40
0.9891300089
 40
0.995144192
 40
0.9972557808
 40
0.9987683155
 40
0.9996810852
 40
1.0
 40
1.0
 40
1.0
 40
1.0
 10
73.5964576029
 20
146.3614791348
 30
0.0
 10
73.4664079385
 20
146.3609676075
 30
0.0
 10
73.2112761104
 20
146.3600639477
 30
0.0
 10
72.840912607
 20
146.3590422227
 30
0.0
 10
72.5480480022
 20
146.3584918451
 30
0.0
 10
72.331797993
 20
146.3582674913
 30
0.0
 10
72.186851777
 20
146.3582100426
 30
0.0
 10
72.0555000443
 20
146.3582574093
 30
0.0
 10
71.9389993023
 20
146.3584085484
 30
0.0
 10
71.8384694178
 20
146.35866147
 30
0.0
 10
71.7651257086
 20
146.3589658072
 30
0.0
 10
71.7151393661
 20
146.3592739153
 30
0.0
 10
71.6843799492
 20
146.3595131096
 30
0.0
 10
71.6582321667
 20
146.3597788358
 30
0.0
 10
71.6367268527
 20
146.3600513184
 30
0.0
 10
71.6200090079
 20
146.3603765321
 30
0.0
 10
71.6088993775
 20
146.3606065944
 30
0.0
 10
71.6026180882
 20
146.3609281591
 30
0.0
 10
71.5993690114
 20
146.3609864471
 30
0.0
 10
71.5979550403
 20
146.3613395303
 30
0.0
 10
71.5967086127
 20
146.3612665871
 30
0.0
 10
71.596704338
 20
146.3614791348
 30
0.0
  0
SPLINE
  5
6F9
100
AcDbEntity
  8
0
100
AcDbSpline
 62
7
  6
BYLAYER
 70
0
 71
3
 72
12
 73
8
 74
0
 42
0.0000001
 43
0.0000001
 44
0.0000000001
 40
0.0
 40
0.0
 40
0.0
 40
0.0
 40
0.3827274456
 40
0.7071327394
 40
0.8314854524
 40
0.9238832061
 40
1.0
 40
1.0
 40
1.0
 40
1.0
 10
73.4706601814
 20
154.3693330384
 30
0.0
 10
73.2155385664
 20
154.3693330384
 30
0.0
 10
72.744174908
 20
154.3713350624
 30
0.0
 10
72.1899151348
 20
154.371661823
 30
0.0
 10
71.829188412
 20
154.3713212734
 30
0.0
 10
71.6339642419
 20
154.3713207276
 30
0.0
 10
71.5216400904
 20
154.3702383749
 30
0.0
 10
71.4709069164
 20
154.3693330389
 30
0.0
  0
SPLINE
  5
6FA
100
AcDbEntity
  8
0
100
AcDbSpline
 62
9
  6
BYLAYER
 70
0
 71
3
 72
24
 73
20
 74
0
 42
0.0000001
 43
0.0000001
 44
0.0000000001
 40
0.0
 40
0.0
 40
0.0
 40
0.0
 40
0.0012411634
 40
0.0048724176
 40
0.0108930641
 40
0.0192903076
 40
0.0300499804
 40
0.0431532874
 40
0.0585630784
 40
0.0762372596
 40
0.118210225
 40
0.1686930262
 40
0.2271708506
 40
0.2930938084
 40
0.3658171524
 40
0.4446313044
 40
0.6174324683
 40
0.8049505705
 40
1.0
 40
1.0
 40
1.0
 40
1.0
 10
71.5968083443
 20
160.3798040034
 30
0.0
 10
71.5968300713
 20
160.3806310199
 30
0.0
 10
71.6018891871
 20
160.3797978038
 30
0.0
 10
71.6074004472
 20
160.3813215641
 30
0.0
 10
71.6204085705
 20
160.3810978476
 30
0.0
 10
71.6367531667
 20
160.3817772414
 30
0.0
 10
71.6584211787
 20
160.3820452909
 30
0.0
 10
71.6845358599
 20
160.3824338807
 30
0.0
 10
71.7153410377
 20
160.3827410946
 30
0.0
 10
71.7653601558
 20
160.3831567281
 30
0.0
 10
71.8387719075
 20
160.3835597645
 30
0.0
 10
71.939374592
 20
160.3838974003
 30
0.0
 10
72.0559444418
 20
160.38409846
 30
0.0
 10
72.1873380108
 20
160.3841613077
 30
0.0
 10
72.3322871186
 20
160.3840840535
 30
0.0
 10
72.5484759899
 20
160.3837849859
 30
0.0
 10
72.8411811197
 20
160.3830511909
 30
0.0
 10
73.211361648
 20
160.3816894748
 30
0.0
 10
73.4663606089
 20
160.3804856267
 30
0.0
 10
73.5963697113
 20
160.3798040034
 30
0.0
  0
SPLINE
  5
6FB
100
AcDbEntity
  8
0
100
AcDbSpline
 62
9
  6
BYLAYER
 70
0
 71
3
 72
26
 73
22
 74
0
 42
0.0000001
 43
0.0000001
 44
0.0000000001
 40
0.0
 40
0.0
 40
0.0
 40
0.0
 40
0.0003189784
 40
0.0012316436
 40
0.0027439982
 40
0.0048554302
 40
0.0108697663
 40
0.0192618277
 40
0.0300178371
 40
0.0431164091
 40
0.0585193817
 40
0.0761862644
 40
0.1181490579
 40
0.1686157063
 40
0.2270788061
 40
0.2929958662
 40
0.3657113802
 40
0.4445290802
 40
0.6173403799
 40
0.8049108565
 40
1.0
 40
1.0
 40
1.0
 40
1.0
 10
135.7451095025
 20
146.3614791348
 30
0.0
 10
135.7451048035
 20
146.3612665537
 30
0.0
 10
135.7438593514
 20
146.3613396367
 30
0.0
 10
135.7424445694
 20
146.3609864609
 30
0.0
 10
135.7391963303
 20
146.3609282249
 30
0.0
 10
135.732914848
 20
146.3606066067
 30
0.0
 10
135.7218044858
 20
146.360376541
 30
0.0
 10
135.7050831169
 20
146.3600512509
 30
0.0
 10
135.683569899
 20
146.3597786986
 30
0.0
 10
135.657408755
 20
146.3595129189
 30
0.0
 10
135.6266311623
 20
146.3592736727
 30
0.0
 10
135.5766158421
 20
146.3589654873
 30
0.0
 10
135.5032248966
 20
146.3586609634
 30
0.0
 10
135.402639497
 20
146.3584083711
 30
0.0
 10
135.2860854892
 20
146.3582571239
 30
0.0
 10
135.1547002721
 20
146.3582100699
 30
0.0
 10
135.0097465198
 20
146.3582677445
 30
0.0
 10
134.7935364998
 20
146.3584921183
 30
0.0
 10
134.5007637802
 20
146.3590425396
 30
0.0
 10
134.1304846854
 20
146.3600641926
 30
0.0
 10
133.8754029024
 20
146.3609675297
 30
0.0
 10
133.7453562376
 20
146.3614791348
 30
0.0
  0
SPLINE
  5
6FC
100
AcDbEntity
  8
0
100
AcDbSpline
 62
7
  6
BYLAYER
 70
0
 71
3
 72
12
 73
8
 74
0
 42
0.0000001
 43
0.0000001
 44
0.0000000001
 40
0.0
 40
0.0
 40
0.0
 40
0.0
 40
0.0761158678
 40
0.1685113137
 40
0.2928612985
 40
0.6172701394
 40
1.0
 40
1.0
 40
1.0
 40
1.0
 10
135.8709069241
 20
154.3693330384
 30
0.0
 10
135.8201743656
 20
154.370238133
 30
0.0
 10
135.7078523682
 20
154.3713203545
 30
0.0
 10
135.5126321742
 20
154.3713213709
 30
0.0
 10
135.1519064435
 20
154.3716617029
 30
0.0
 10
134.5976445151
 20
154.3713356296
 30
0.0
 10
134.1262768837
 20
154.3693330389
 30
0.0
 10
133.8711536592
 20
154.3693330389
 30
0.0
  0
SPLINE
  5
6FD
100
AcDbEntity
  8
0
100
AcDbSpline
 62
9
  6
BYLAYER
 70
0
 71
3
 72
24
 73
20
 74
0
 42
0.0000001
 43
0.0000001
 44
0.0000000001
 40
0.0
 40
0.0
 40
0.0
 40
0.0
 40
0.1951146068
 40
0.3827961778
 40
0.5556628043
 40
0.6344967738
 40
0.707203763
 40
0.7730874142
 40
0.8315175172
 40
0.881929734
 40
0.9238566771
 40
0.9415061356
 40
0.9568931382
 40
0.969980374
 40
0.9807311654
 40
0.9891204922
 40
0.9951344598
 40
0.9987609597
 40
1.0
 40
1.0
 40
1.0
 40
1.0
 10
133.7454441293
 20
160.3798040034
 30
0.0
 10
133.8754966797
 20
160.3804860118
 30
0.0
 10
134.1306480543
 20
160.3816906002
 30
0.0
 10
134.5010246383
 20
160.3830523197
 30
0.0
 10
134.7938955853
 20
160.3837859779
 30
0.0
 10
135.0101304082
 20
160.3840847295
 30
0.0
 10
135.1550556307
 20
160.3841613732
 30
0.0
 10
135.2863802937
 20
160.3840977268
 30
0.0
 10
135.4028450928
 20
160.3838967452
 30
0.0
 10
135.5033382412
 20
160.383558159
 30
0.0
 10
135.5766557998
 20
160.3831555167
 30
0.0
 10
135.6266125626
 20
160.3827399004
 30
0.0
 10
135.6573753803
 20
160.382432686
 30
0.0
 10
135.683458156
 20
160.3820442831
 30
0.0
 10
135.7051045602
 20
160.3817764465
 30
0.0
 10
135.7214327592
 20
160.3810977483
 30
0.0
 10
135.7344294729
 20
160.3813204123
 30
0.0
 10
135.7399294974
 20
160.3797992541
 30
0.0
 10
135.7449858062
 20
160.3806296554
 30
0.0
 10
135.7450054962
 20
160.3798040034
 30
0.0
  0
SPLINE
  5
6FE
100
AcDbEntity
  8
0
100
AcDbSpline
 62
9
  6
BYLAYER
 70
0
 71
3
 72
11
 73
7
 74
0
 42
0.0000001
 43
0.0000001
 44
0.0000000001
 40
0.0
 40
0.0
 40
0.0
 40
0.0
 40
0.2505800292
 40
0.5005399232
 40
0.7501188798
 40
1.0
 40
1.0
 40
1.0
 40
1.0
 10
131.7680508556
 20
145.8693329446
 30
0.0
 10
131.7009101202
 20
145.8693813614
 30
0.0
 10
131.5654902807
 20
145.8912395541
 30
0.0
 10
131.3873525041
 20
145.9944594029
 30
0.0
 10
131.2631072023
 20
146.1593628179
 30
0.0
 10
131.2327144047
 20
146.2945323905
 30
0.0
 10
131.2317642759
 20
146.3614791348
 30
0.0
  0
SPLINE
  5
6FF
100
AcDbEntity
  8
0
100
AcDbSpline
 62
9
  6
BYLAYER
 70
0
 71
3
 72
11
 73
7
 74
0
 42
0.0000001
 43
0.0000001
 44
0.0000000001
 40
0.0
 40
0.0
 40
0.0
 40
0.0
 40
0.2386850711
 40
0.4840811919
 40
0.738760288
 40
1.0
 40
1.0
 40
1.0
 40
1.0
 10
74.9860041816
 20
160.8693327935
 30
0.0
 10
75.0443994719
 20
160.8693327935
 30
0.0
 10
75.1642487437
 20
160.8430738802
 30
0.0
 10
75.313486611
 20
160.7328838019
 30
0.0
 10
75.413213945
 20
160.570653666
 30
0.0
 10
75.4378455677
 20
160.443705866
 30
0.0
 10
75.4390586909
 20
160.3798040034
 30
0.0
  0
SPLINE
  5
700
100
AcDbEntity
  8
0
100
AcDbSpline
 62
9
  6
BYLAYER
 70
0
 71
3
 72
13
 73
9
 74
0
 42
0.0000001
 43
0.0000001
 44
0.0000000001
 40
0.0
 40
0.0
 40
0.0
 40
0.0
 40
0.0182017978
 40
0.0659129098
 40
0.1444560162
 40
0.2540003726
 40
0.565869121
 40
1.0
 40
1.0
 40
1.0
 40
1.0
 10
71.502448806
 20
152.3614791348
 30
0.0
 10
71.5024554977
 20
152.361037782
 30
0.0
 10
71.5002821646
 20
152.3605526962
 30
0.0
 10
71.497402813
 20
152.3599425634
 30
0.0
 10
71.49139933
 20
152.3593247614
 30
0.0
 10
71.4795051845
 20
152.3583527631
 30
0.0
 10
71.4586370928
 20
152.357281049
 30
0.0
 10
71.440611435
 20
152.3565966876
 30
0.0
 10
71.4300894224
 20
152.3562443193
 30
0.0
  0
SPLINE
  5
701
100
AcDbEntity
  8
0
100
AcDbSpline
 62
9
  6
BYLAYER
 70
0
 71
3
 72
14
 73
10
 74
0
 42
0.0000001
 43
0.0000001
 44
0.0000000001
 40
0.0
 40
0.0
 40
0.0
 40
0.0
 40
0.4355825425
 40
0.607358827
 40
0.7481539998
 40
0.8578409629
 40
0.9363160247
 40
0.9835680493
 40
1.0
 40
1.0
 40
1.0
 40
1.0
 10
71.3988217193
 20
154.3824212676
 30
0.0
 10
71.409334817
 20
154.3822626052
 30
0.0
 10
71.4240103867
 20
154.3820190155
 30
0.0
 10
71.4420273894
 20
154.3815661209
 30
0.0
 10
71.4522918873
 20
154.381286291
 30
0.0
 10
71.4600284116
 20
154.380881142
 30
0.0
 10
71.4661505205
 20
154.380749922
 30
0.0
 10
71.468776945
 20
154.380105431
 30
0.0
 10
71.4711341772
 20
154.3802003801
 30
0.0
 10
71.4711262569
 20
154.3798038171
 30
0.0
  0
SPLINE
  5
702
100
AcDbEntity
  8
0
100
AcDbSpline
 62
7
  6
BYLAYER
 70
0
 71
3
 72
9
 73
5
 74
0
 42
0.0000001
 43
0.0000001
 44
0.0000000001
 40
0.0
 40
0.0
 40
0.0
 40
0.0
 40
0.7486558151
 40
1.0
 40
1.0
 40
1.0
 40
1.0
 10
71.3985475548
 20
154.3693327935
 30
0.0
 10
71.4166071373
 20
154.3693327935
 30
0.0
 10
71.440732398
 20
154.3684722576
 30
0.0
 10
71.4648468711
 20
154.3690438881
 30
0.0
 10
71.4709069203
 20
154.3693327935
 30
0.0
  0
SPLINE
  5
703
100
AcDbEntity
  8
0
100
AcDbSpline
 62
9
  6
BYLAYER
 70
0
 71
3
 72
13
 73
9
 74
0
 42
0.0000001
 43
0.0000001
 44
0.0000000001
 40
0.0
 40
0.0
 40
0.0
 40
0.0
 40
0.4342405439
 40
0.7460009501
 40
0.8555344208
 40
0.9340852341
 40
0.9817973743
 40
1.0
 40
1.0
 40
1.0
 40
1.0
 10
135.9117244182
 20
152.3562443193
 30
0.0
 10
135.9011997244
 20
152.3565967774
 30
0.0
 10
135.8831739681
 20
152.3572808158
 30
0.0
 10
135.8623061734
 20
152.358352989
 30
0.0
 10
135.8504145675
 20
152.3593245573
 30
0.0
 10
135.8444112161
 20
152.3599423619
 30
0.0
 10
135.8415314426
 20
152.3605523446
 30
0.0
 10
135.8393583385
 20
152.36103794
 30
0.0
 10
135.8393650373
 20
152.3614793138
 30
0.0
  0
SPLINE
  5
704
100
AcDbEntity
  8
0
100
AcDbSpline
 62
7
  6
BYLAYER
 70
0
 71
3
 72
9
 73
5
 74
0
 42
0.0000001
 43
0.0000001
 44
0.0000000001
 40
0.0
 40
0.0
 40
0.0
 40
0.0
 40
0.7489653442
 40
1.0
 40
1.0
 40
1.0
 40
1.0
 10
135.943348539
 20
154.3693327935
 30
0.0
 10
135.9252609555
 20
154.3693327935
 30
0.0
 10
135.9011082639
 20
154.3684715453
 30
0.0
 10
135.8769663853
 20
154.3690441244
 30
0.0
 10
135.8709069203
 20
154.3693327935
 30
0.0
  0
SPLINE
  5
705
100
AcDbEntity
  8
0
100
AcDbSpline
 62
9
  6
BYLAYER
 70
0
 71
3
 72
14
 73
10
 74
0
 42
0.0000001
 43
0.0000001
 44
0.0000000001
 40
0.0
 40
0.0
 40
0.0
 40
0.0
 40
0.0164324405
 40
0.0636836886
 40
0.1421507929
 40
0.2518483185
 40
0.3927122037
 40
0.5645281925
 40
1.0
 40
1.0
 40
1.0
 40
1.0
 10
135.8706875797
 20
154.3798040034
 30
0.0
 10
135.8706796708
 20
154.3802005781
 30
0.0
 10
135.8730370062
 20
154.3801052213
 30
0.0
 10
135.8756631947
 20
154.3807498462
 30
0.0
 10
135.8817853584
 20
154.3808809881
 30
0.0
 10
135.889523532
 20
154.3812863617
 30
0.0
 10
135.8997909442
 20
154.3815661204
 30
0.0
 10
135.9178078645
 20
154.3820190392
 30
0.0
 10
135.9324817054
 20
154.3822626457
 30
0.0
 10
135.9429921213
 20
154.3824212676
 30
0.0
  0
SPLINE
  5
706
100
AcDbEntity
  8
0
100
AcDbSpline
 62
9
  6
BYLAYER
 70
0
 71
3
 72
11
 73
7
 74
0
 42
0.0000001
 43
0.0000001
 44
0.0000000001
 40
0.0
 40
0.0
 40
0.0
 40
0.0
 40
0.2457970496
 40
0.4940452067
 40
0.7457632476
 40
1.0
 40
1.0
 40
1.0
 40
1.0
 10
70.6174993457
 20
151.8693327935
 30
0.0
 10
70.5557666895
 20
151.8693327935
 30
0.0
 10
70.4303071718
 20
151.8948065888
 30
0.0
 10
70.2718344783
 20
152.0032101752
 30
0.0
 10
70.1645239934
 20
152.1647024816
 30
0.0
 10
70.1373646964
 20
152.2924123335
 30
0.0
 10
70.1357536692
 20
152.3562443193
 30
0.0
  0
SPLINE
  5
707
100
AcDbEntity
  8
0
100
AcDbSpline
 62
9
  6
BYLAYER
 70
0
 71
3
 72
9
 73
5
 74
0
 42
0.0000001
 43
0.0000001
 44
0.0000000001
 40
0.0
 40
0.0
 40
0.0
 40
0.0
 40
0.2972975238
 40
1.0
 40
1.0
 40
1.0
 40
1.0
 10
71.4597700671
 20
152.1961069655
 30
0.0
 10
71.4562142815
 20
152.1852830849
 30
0.0
 10
71.4432039738
 20
152.1492222886
 30
0.0
 10
71.4259079092
 20
152.1147532092
 30
0.0
 10
71.4118495395
 20
152.0917853116
 30
0.0
  0
SPLINE
  5
708
100
AcDbEntity
  8
0
100
AcDbSpline
 62
9
  6
BYLAYER
 70
0
 71
3
 72
10
 73
6
 74
0
 42
0.0000001
 43
0.0000001
 44
0.0000000001
 40
0.0
 40
0.0
 40
0.0
 40
0.0
 40
0.3170188297
 40
0.5666120117
 40
1.0
 40
1.0
 40
1.0
 40
1.0
 10
71.4118495395
 20
152.0917853116
 30
0.0
 10
71.3859122136
 20
152.049410139
 30
0.0
 10
71.3270893166
 20
151.9803609542
 30
0.0
 10
71.1948568463
 20
151.8940393299
 30
0.0
 10
71.0858932944
 20
151.8693328227
 30
0.0
 10
71.0179729949
 20
151.8693327935
 30
0.0
  0
SPLINE
  5
709
100
AcDbEntity
  8
0
100
AcDbSpline
 62
9
  6
BYLAYER
 70
0
 71
3
 72
9
 73
5
 74
0
 42
0.0000001
 43
0.0000001
 44
0.0000000001
 40
0.0
 40
0.0
 40
0.0
 40
0.0
 40
0.2424105973
 40
1.0
 40
1.0
 40
1.0
 40
1.0
 10
71.5024428279
 20
152.3614790409
 30
0.0
 10
71.5026606882
 20
152.3475924694
 30
0.0
 10
71.4996405786
 20
152.2902210541
 30
0.0
 10
71.4800465979
 20
152.2344800728
 30
0.0
 10
71.4597660154
 20
152.1961054205
 30
0.0
  0
SPLINE
  5
70A
100
AcDbEntity
  8
0
100
AcDbSpline
 62
9
  6
BYLAYER
 70
0
 71
3
 72
9
 73
5
 74
0
 42
0.0000001
 43
0.0000001
 44
0.0000000001
 40
0.0
 40
0.0
 40
0.0
 40
0.0
 40
0.5606408452
 40
1.0
 40
1.0
 40
1.0
 40
1.0
 10
71.3765254882
 20
154.6577642569
 30
0.0
 10
71.330929484
 20
154.729145896
 30
0.0
 10
71.2110290397
 20
154.8363567446
 30
0.0
 10
71.0581224931
 20
154.8693327747
 30
0.0
 10
70.9917442519
 20
154.8693327935
 30
0.0
  0
SPLINE
  5
70B
100
AcDbEntity
  8
0
100
AcDbSpline
 62
9
  6
BYLAYER
 70
0
 71
3
 72
11
 73
7
 74
0
 42
0.0000001
 43
0.0000001
 44
0.0000000001
 40
0.0
 40
0.0
 40
0.0
 40
0.0
 40
0.2457970598
 40
0.4940452214
 40
0.7457632557
 40
1.0
 40
1.0
 40
1.0
 40
1.0
 10
70.5636469823
 20
154.8693327935
 30
0.0
 10
70.5019143235
 20
154.8693327935
 30
0.0
 10
70.3764548022
 20
154.8438589957
 30
0.0
 10
70.2179821088
 20
154.7354554054
 30
0.0
 10
70.1106716279
 20
154.5739630996
 30
0.0
 10
70.083512333
 20
154.4462532514
 30
0.0
 10
70.0819013058
 20
154.3824212676
 30
0.0
  0
SPLINE
  5
70C
100
AcDbEntity
  8
0
100
AcDbSpline
 62
9
  6
BYLAYER
 70
0
 71
3
 72
9
 73
5
 74
0
 42
0.0000001
 43
0.0000001
 44
0.0000000001
 40
0.0
 40
0.0
 40
0.0
 40
0.0
 40
0.2427439557
 40
1.0
 40
1.0
 40
1.0
 40
1.0
 10
71.4711202641
 20
154.3798039397
 30
0.0
 10
71.4714104888
 20
154.3936725357
 30
0.0
 10
71.4687008808
 20
154.4509110295
 30
0.0
 10
71.4494276459
 20
154.5066146127
 30
0.0
 10
71.4293563411
 20
154.5449517672
 30
0.0
  0
SPLINE
  5
70D
100
AcDbEntity
  8
0
100
AcDbSpline
 62
9
  6
BYLAYER
 70
0
 71
3
 72
10
 73
6
 74
0
 42
0.0000001
 43
0.0000001
 44
0.0000000001
 40
0.0
 40
0.0
 40
0.0
 40
0.0
 40
0.4276182996
 40
0.6762559477
 40
1.0
 40
1.0
 40
1.0
 40
1.0
 10
136.3238408457
 20
151.8693327935
 30
0.0
 10
136.2540329339
 20
151.8693328237
 30
0.0
 10
136.1415474471
 20
151.8956027201
 30
0.0
 10
136.0053337937
 20
151.9879862253
 30
0.0
 10
135.9456360895
 20
152.0627904555
 30
0.0
 10
135.9199424643
 20
152.1089751569
 30
0.0
  0
SPLINE
  5
70E
100
AcDbEntity
  8
0
100
AcDbSpline
 62
9
  6
BYLAYER
 70
0
 71
3
 72
9
 73
5
 74
0
 42
0.0000001
 43
0.0000001
 44
0.0000000001
 40
0.0
 40
0.0
 40
0.0
 40
0.0
 40
0.2346924156
 40
1.0
 40
1.0
 40
1.0
 40
1.0
 10
135.8949316175
 20
152.1609708513
 30
0.0
 10
135.8938222857
 20
152.163680732
 30
0.0
 10
135.889200947
 20
152.1752702466
 30
0.0
 10
135.8850192654
 20
152.1870340187
 30
0.0
 10
135.8820437729
 20
152.196106964
 30
0.0
  0
SPLINE
  5
70F
100
AcDbEntity
  8
0
100
AcDbSpline
 62
9
  6
BYLAYER
 70
0
 71
3
 72
11
 73
7
 74
0
 42
0.0000001
 43
0.0000001
 44
0.0000000001
 40
0.0
 40
0.0
 40
0.0
 40
0.0
 40
0.2457970598
 40
0.4940452214
 40
0.7457632557
 40
1.0
 40
1.0
 40
1.0
 40
1.0
 10
136.7243144948
 20
151.8693327935
 30
0.0
 10
136.7860471536
 20
151.8693327935
 30
0.0
 10
136.911506675
 20
151.8948065913
 30
0.0
 10
137.0699793683
 20
152.0032101815
 30
0.0
 10
137.1772898492
 20
152.1647024874
 30
0.0
 10
137.2044491442
 20
152.2924123356
 30
0.0
 10
137.2060601713
 20
152.3562443193
 30
0.0
  0
SPLINE
  5
710
100
AcDbEntity
  8
0
100
AcDbSpline
 62
9
  6
BYLAYER
 70
0
 71
3
 72
9
 73
5
 74
0
 42
0.0000001
 43
0.0000001
 44
0.0000000001
 40
0.0
 40
0.0
 40
0.0
 40
0.0
 40
0.2629788549
 40
1.0
 40
1.0
 40
1.0
 40
1.0
 10
135.8820478236
 20
152.1961054194
 30
0.0
 10
135.8750114602
 20
152.2094190559
 30
0.0
 10
135.8507344115
 20
152.261256319
 30
0.0
 10
135.8387089799
 20
152.3192812041
 30
0.0
 10
135.8393710184
 20
152.3614792255
 30
0.0
  0
SPLINE
  5
711
100
AcDbEntity
  8
0
100
AcDbSpline
 62
9
  6
BYLAYER
 70
0
 71
3
 72
9
 73
5
 74
0
 42
0.0000001
 43
0.0000001
 44
0.0000000001
 40
0.0
 40
0.0
 40
0.0
 40
0.0
 40
0.2562815712
 40
1.0
 40
1.0
 40
1.0
 40
1.0
 10
71.4597700647
 20
152.1961069581
 30
0.0
 10
71.4673219388
 20
152.1833774733
 30
0.0
 10
71.4938169325
 20
152.1320159951
 30
0.0
 10
71.5069721678
 20
152.0736791705
 30
0.0
 10
71.5076468296
 20
152.0307324883
 30
0.0
  0
SPLINE
  5
712
100
AcDbEntity
  8
0
100
AcDbSpline
 62
9
  6
BYLAYER
 70
0
 71
3
 72
11
 73
7
 74
0
 42
0.0000001
 43
0.0000001
 44
0.0000000001
 40
0.0
 40
0.0
 40
0.0
 40
0.0
 40
0.2457970496
 40
0.4940452067
 40
0.7457632476
 40
1.0
 40
1.0
 40
1.0
 40
1.0
 10
136.7781668582
 20
154.8693327935
 30
0.0
 10
136.8398995145
 20
154.8693327935
 30
0.0
 10
136.9653590321
 20
154.8438589982
 30
0.0
 10
137.1238317256
 20
154.7354554118
 30
0.0
 10
137.2311422105
 20
154.5739631053
 30
0.0
 10
137.2583015075
 20
154.4462532534
 30
0.0
 10
137.2599125347
 20
154.3824212676
 30
0.0
  0
SPLINE
  5
713
100
AcDbEntity
  8
0
100
AcDbSpline
 62
9
  6
BYLAYER
 70
0
 71
3
 72
10
 73
6
 74
0
 42
0.0000001
 43
0.0000001
 44
0.0000000001
 40
0.0
 40
0.0
 40
0.0
 40
0.0
 40
0.4244351893
 40
0.6722118888
 40
1.0
 40
1.0
 40
1.0
 40
1.0
 10
136.3500695887
 20
154.8693327935
 30
0.0
 10
136.2796509179
 20
154.8693327764
 30
0.0
 10
136.1659126256
 20
154.8424934072
 30
0.0
 10
136.0284224563
 20
154.7470556181
 30
0.0
 10
135.9690212071
 20
154.6690973465
 30
0.0
 10
135.9439685296
 20
154.6208276641
 30
0.0
  0
SPLINE
  5
714
100
AcDbEntity
  8
0
100
AcDbSpline
 62
9
  6
BYLAYER
 70
0
 71
3
 72
9
 73
5
 74
0
 42
0.0000001
 43
0.0000001
 44
0.0000000001
 40
0.0
 40
0.0
 40
0.0
 40
0.0
 40
0.2626733813
 40
1.0
 40
1.0
 40
1.0
 40
1.0
 10
135.912457501
 20
154.5449517661
 30
0.0
 10
135.9054988052
 20
154.5316606962
 30
0.0
 10
135.881497071
 20
154.4798554494
 30
0.0
 10
135.8698125068
 20
154.4219071597
 30
0.0
 10
135.8706935697
 20
154.3798041289
 30
0.0
  0
SPLINE
  5
715
100
AcDbEntity
  8
0
100
AcDbSpline
 62
9
  6
BYLAYER
 70
0
 71
3
 72
9
 73
5
 74
0
 42
0.0000001
 43
0.0000001
 44
0.0000000001
 40
0.0
 40
0.0
 40
0.0
 40
0.0
 40
0.2472258934
 40
1.0
 40
1.0
 40
1.0
 40
1.0
 10
135.863768856
 20
154.7101004206
 30
0.0
 10
135.8640679352
 20
154.6958225329
 30
0.0
 10
135.8690978568
 20
154.6381730327
 30
0.0
 10
135.8900956447
 20
154.5822451081
 30
0.0
 10
135.9124549876
 20
154.5449500422
 30
0.0
  0
SPLINE
  5
716
100
AcDbEntity
  8
0
100
AcDbSpline
 62
9
  6
BYLAYER
 70
0
 71
3
 72
9
 73
5
 74
0
 42
0.0000001
 43
0.0000001
 44
0.0000000001
 40
0.0
 40
0.0
 40
0.0
 40
0.0
 40
0.2472259577
 40
1.0
 40
1.0
 40
1.0
 40
1.0
 10
71.4780472288
 20
154.7101009887
 30
0.0
 10
71.4777481462
 20
154.6958229582
 30
0.0
 10
71.4727181867
 20
154.6381728966
 30
0.0
 10
71.4517202747
 20
154.5822444089
 30
0.0
 10
71.4293607735
 20
154.544948948
 30
0.0
  0
SPLINE
  5
717
100
AcDbEntity
  8
0
100
AcDbSpline
 62
9
  6
BYLAYER
 70
0
 71
3
 72
9
 73
5
 74
0
 42
0.0000001
 43
0.0000001
 44
0.0000000001
 40
0.0
 40
0.0
 40
0.0
 40
0.0
 40
0.2562718472
 40
1.0
 40
1.0
 40
1.0
 40
1.0
 10
135.8820454233
 20
152.1961068972
 30
0.0
 10
135.8744935917
 20
152.1833779357
 30
0.0
 10
135.8479979469
 20
152.1320163155
 30
0.0
 10
135.8348439054
 20
152.0736787885
 30
0.0
 10
135.8341692321
 20
152.0307312839
 30
0.0
  0
ENDSEC
  0
SECTION
  2
OBJECTS
  0
DICTIONARY
  5
C
100
AcDbDictionary
280
0
281
1
  3
ACAD_GROUP
350
D
  3
ACAD_MLINESTYLE
350
17
  3
ACAD_LAYOUT
350
1A
  3
ACAD_PLOTSETTINGS
350
19
  3
ACAD_PLOTSTYLENAME
350
E
  3
ACAD_IMAGE_DICT
350
       719
  3
ACAD_IMAGE_VARS
350
       71A
  3
ACAD_TABLESTYLE
350
       71B
  0
IMAGEDEF_REACTOR
  5
718
100
AcDbRasterImageDefReactor
 90
2
330
285
  0
DICTIONARY
  5
D
102
{ACAD_REACTORS
330
C
102
}
100
AcDbDictionary
280
0
281
1
  0
ACDBDICTIONARYWDFLT
  5
E
102
{ACAD_REACTORS
330
C
102
}
100
AcDbDictionary
281
1
  3
Normal
350
F
100
AcDbDictionaryWithDefault
340
F
  0
DICTIONARY
  5
719
330
C
100
AcDbDictionary
281
1
  3
20006692_-_img_1
350
       71E
  0
RASTERVARIABLES
  5
71A
330
C
100
AcDbRasterVariables
 90
0
 70
0
 71
1
 72
1
  0
DICTIONARY
  5
17
102
{ACAD_REACTORS
330
C
102
}
100
AcDbDictionary
280
0
281
1
  3
Standard
350
18
  0
DICTIONARY
  5
71B
330
C
100
AcDbDictionary
281
1
  3
Standard
350
       71F
  3
Standard1
350
       720
  0
DICTIONARY
  5
19
102
{ACAD_REACTORS
330
C
102
}
100
AcDbDictionary
281
1
  0
DICTIONARY
  5
1A
102
{ACAD_REACTORS
330
C
102
}
100
AcDbDictionary
281
1
  3
Model
350
71C
  3
Layout1
350
71D
  0
ACDBPLACEHOLDER
  5
F
102
{ACAD_REACTORS
330
E
102
}
  0
MLINESTYLE
  5
18
102
{ACAD_REACTORS
330
17
102
}
100
AcDbMlineStyle
  2
STANDARD
 70
0
  3

 62
256
 51
90.0
 52
90.0
 71
2
 49
0.5
 62
256
  6
BYLAYER
 49
-0.5
 62
256
  6
BYLAYER
  0
LAYOUT
  5
71C
102
{ACAD_REACTORS
330
1A
102
}
100
AcDbPlotSettings
  1

  2
none_device
  4

  6

 40
0.0
 41
0.0
 42
0.0
 43
0.0
 44
210.0
 45
297.0
 46
0.0
 47
0.0
 48
0.0
 49
0.0
140
0.0
141
0.0
142
1.0
143
1.0
 70
1024
 72
1
 73
0
 74
0
  7

 75
0
147
1.0
148
0.0
149
0.0
100
AcDbLayout
  1
Model
 70
0
 71
0
 10
0.0
 20
0.0
 11
210.0
 21
297.0
 12
0.0
 22
0.0
 32
0.0
 14
0.0
 24
0.0
 34
0.0
 15
0.0
 25
0.0
 35
0.0
146
0.0
 13
0.0
 23
0.0
 33
0.0
 16
1.0
 26
0.0
 36
0.0
 17
0.0
 27
1.0
 37
0.0
 76
0
330
21A
345
0
346
0
  0
LAYOUT
  5
71D
102
{ACAD_REACTORS
330
1A
102
}
100
AcDbPlotSettings
  1

  2
none_device
  4

  6

 40
0.0
 41
0.0
 42
0.0
 43
0.0
 44
210.0
 45
297.0
 46
0.0
 47
0.0
 48
0.0
 49
0.0
140
0.0
141
0.0
142
1.0
143
1.0
 70
0
 72
1
 73
0
 74
0
  7

 75
0
147
1.0
148
0.0
149
0.0
100
AcDbLayout
  1
Layout1
 70
0
 71
1
 10
0.0
 20
0.0
 11
210.0
 21
297.0
 12
0.0
 22
0.0
 32
0.0
 14
0.0
 24
0.0
 34
0.0
 15
0.0
 25
0.0
 35
0.0
146
0.0
 13
0.0
 23
0.0
 33
0.0
 16
1.0
 26
0.0
 36
0.0
 17
0.0
 27
1.0
 37
0.0
 76
0
330
21B
345
0
346
0
  0
IMAGEDEF
  5
71E
102
{ACAD_REACTORS
330
719
330
718
102
}
100
AcDbRasterImageDef
 90
0
  1
20006692_-_img_1.png
 10
362.0
 20
408.0
 11
0.1693333333
 21
0.1693333333
280
1
281
0
  0
TABLESTYLE
  5
71F
102
{ACAD_REACTORS
330
71B
330
2FB
102
}
330
71B
100
AcDbTableStyle
  3
Standard
 70
0
 71
0
 40
1.5
 41
1.5
280
1
281
1
  7
Standard
140
0.18
170
1
 62
0
 63
7
283
0
  7
Standard
140
0.18
170
1
 62
0
 63
7
283
0
  7
Standard
140
0.18
170
1
 62
0
 63
7
283
0
  0
TABLESTYLE
  5
720
102
{ACAD_REACTORS
330
71B
102
}
330
71B
100
AcDbTableStyle
  3
Standard1
 70
1
 71
0
 40
1.5
 41
1.5
280
1
281
1
  7
Standard
140
0.18
170
1
 62
0
 63
7
283
0
  7
Standard
140
0.18
170
1
 62
0
 63
7
283
0
  7
Standard
140
0.18
170
1
 62
0
 63
7
283
0
  0
ENDSEC
  0
EOF
