999
DXF file: st-htac.dxf
999
Pro/ENGINEER 2011310 by Parametric Technology Corporation
  0
SECTION
  2
HEADER
  9
$ACADVER
  1
AC1018
  9
$DWGCODEPAGE
  3
ANSI_1252
  9
$EXTMAX
 10
210.0
 20
297.0
 30
0.0
  9
$EXTMIN
 10
0.0
 20
0.0
 30
0.0
  9
$LIMMIN
 10
0.0
 20
0.0
  9
$LIMMAX
 10
210.0
 20
297.0
  9
$VIEWCTR
 10
105.0
 20
148.5
  9
$VIEWSIZE
 40
297.0
  9
$CLAYER
  8
0
  9
$LTSCALE
 40
19.36
  9
$CELTYPE
  6
BYLAYER
  9
$DIMSCALE
 40
1.0
  9
$DIMASZ
 40
3.5
  9
$DIMEXO
 40
2.2
  9
$DIMDLI
 40
13.376
  9
$DIMEXE
 40
6.336
  9
$DIMCEN
 40
3.168
  9
$DIMLFAC
 40
1.0
  9
$DIMBLK
  1
_FILLED
  9
$DIMTXT
 40
3.5
  9
$DIMTOL
 70
1
  9
$DIMLIM
 70
0
  9
$DIMTFAC
 40
1.0
  9
$DIMTP
 40
0.005
  9
$DIMTM
 40
0.005
  9
$PDMODE
 70
3
  9
$PDSIZE
 40
0.3125
  9
$HANDSEED
  5
43D
  9
$TILEMODE
 70
1
  9
$MEASUREMENT
 70
1
  9
$INSUNITS
 70
4
  0
ENDSEC
  0
SECTION
  2
CLASSES
  0
CLASS
  1
ACDBDICTIONARYWDFLT
  2
AcDbDictionaryWithDefault
  3
AutoCAD 2000
 90
0
 91
1
280
0
281
0
  0
CLASS
  1
ACDBPLACEHOLDER
  2
AcDbPlaceHolder
  3
AutoCAD 2000
 90
0
 91
1
280
0
281
0
  0
CLASS
  1
LAYOUT
  2
AcDbLayout
  3
AutoCAD 2000
 90
0
 91
0
280
0
281
0
  0
CLASS
  1
TABLESTYLE
  2
AcDbTableStyle
  3
ObjectDBX Classes
 90
2047
 91
1
280
0
281
0
  0
CLASS
  1
ACAD_TABLE
  2
AcDbTable
  3
ObjectDBX Classes
 90
1025
 91
1
280
0
281
1
  0
ENDSEC
  0
SECTION
  2
TABLES
  0
TABLE
  2
VPORT
  5
8
100
AcDbSymbolTable
 70
2
  0
VPORT
  5
1F4
100
AcDbSymbolTableRecord
100
AcDbViewportTableRecord
  2
*ACTIVE
 70
0
 10
0.0
 20
0.0
 11
1.0
 21
1.0
 12
105.0
 22
148.5
 13
0.0
 23
0.0
 14
1.0
 24
1.0
 15
0.0
 25
0.0
 16
0.0
 26
0.0
 36
1.0
 17
0.0
 27
0.0
 37
0.0
 40
297.0
 41
0.7070707071
 42
50.0
 43
0.0
 44
0.0
 50
0.0
 51
0.0
 71
0
 72
100
 73
1
 74
1
 75
0
 76
0
 77
0
 78
0
  0
ENDTAB
  0
TABLE
  2
LTYPE
  5
5
100
AcDbSymbolTable
 70
6
  0
LTYPE
  5
14
100
AcDbSymbolTableRecord
100
AcDbLinetypeTableRecord
  2
BYBLOCK
 70
0
  3

 72
65
 73
0
 40
0.0
  0
LTYPE
  5
15
100
AcDbSymbolTableRecord
100
AcDbLinetypeTableRecord
  2
BYLAYER
 70
0
  3

 72
65
 73
0
 40
0.0
  0
LTYPE
  5
16
100
AcDbSymbolTableRecord
100
AcDbLinetypeTableRecord
  2
CONTINUOUS
 70
64
  3
Solid line
 72
65
 73
0
 40
0.0
  0
LTYPE
  5
1F5
100
AcDbSymbolTableRecord
100
AcDbLinetypeTableRecord
  2
CENTER
 70
64
  3
____ _ ____ _ ____ _ ____ _ ____ _ ____ _ ____
 72
65
 73
4
 40
0.6
 49
0.375
 74
0
 49
-0.075
 74
0
 49
0.075
 74
0
 49
-0.075
 74
0
  0
LTYPE
  5
1F6
100
AcDbSymbolTableRecord
100
AcDbLinetypeTableRecord
  2
HIDDEN
 70
64
  3
- - - - - - - - - - - - - - - - - - - -
 72
65
 73
2
 40
0.2
 49
0.1
 74
0
 49
-0.1
 74
0
  0
LTYPE
  5
1F7
100
AcDbSymbolTableRecord
100
AcDbLinetypeTableRecord
  2
PHANTOM
 70
64
  3
_____ _ _ _____ _ _ _____ _ _ _____
 72
65
 73
6
 40
0.8
 49
0.45
 74
0
 49
-0.05
 74
0
 49
0.1
 74
0
 49
-0.05
 74
0
 49
0.1
 74
0
 49
-0.05
 74
0
  0
LTYPE
  5
1F8
100
AcDbSymbolTableRecord
100
AcDbLinetypeTableRecord
  2
DOT
 70
64
  3
. . . . . . . . . . . . . . . . . . . .
 72
65
 73
2
 40
0.2
 49
0.1
 74
0
 49
-0.1
 74
0
  0
LTYPE
  5
1F9
100
AcDbSymbolTableRecord
100
AcDbLinetypeTableRecord
  2
DASHED
 70
64
  3
- - - - - - - - - - - - - - - - - - - -
 72
65
 73
2
 40
0.2
 49
0.1
 74
0
 49
-0.1
 74
0
  0
ENDTAB
  0
TABLE
  2
LAYER
  5
2
100
AcDbSymbolTable
 70
36
  0
LAYER
  5
10
100
AcDbSymbolTableRecord
100
AcDbLayerTableRecord
  2
0
 70
0
 62
7
  6
CONTINUOUS
370
-3
390
F
  0
LAYER
  5
1FA
100
AcDbSymbolTableRecord
100
AcDbLayerTableRecord
  2
DEFAULT_1
 70
0
 62
7
  6
CENTER
370
-3
390
F
  0
LAYER
  5
1FB
100
AcDbSymbolTableRecord
100
AcDbLayerTableRecord
  2
DEFAULT_2
 70
0
 62
8
  6
HIDDEN
370
-3
390
F
  0
LAYER
  5
1FC
100
AcDbSymbolTableRecord
100
AcDbLayerTableRecord
  2
DEFAULT_3
 70
0
 62
7
  6
PHANTOM
370
-3
390
F
  0
LAYER
  5
1FD
100
AcDbSymbolTableRecord
100
AcDbLayerTableRecord
  2
AUSFORMSCHRAEGEN
 70
0
 62
7
  6
CONTINUOUS
370
-3
390
F
  0
LAYER
  5
1FE
100
AcDbSymbolTableRecord
100
AcDbLayerTableRecord
  2
BEZUGSACHSEN
 70
0
 62
7
  6
CONTINUOUS
370
-3
390
F
  0
LAYER
  5
1FF
100
AcDbSymbolTableRecord
100
AcDbLayerTableRecord
  2
BEZUGSEBENEN
 70
0
 62
7
  6
CONTINUOUS
370
-3
390
F
  0
LAYER
  5
200
100
AcDbSymbolTableRecord
100
AcDbLayerTableRecord
  2
BEZUGSPUNKTE
 70
0
 62
7
  6
CONTINUOUS
370
-3
390
F
  0
LAYER
  5
201
100
AcDbSymbolTableRecord
100
AcDbLayerTableRecord
  2
BG_STARTBEZUEGE
 70
0
 62
7
  6
CONTINUOUS
370
-3
390
F
  0
LAYER
  5
202
100
AcDbSymbolTableRecord
100
AcDbLayerTableRecord
  2
BOHRUNGEN
 70
0
 62
7
  6
CONTINUOUS
370
-3
390
F
  0
LAYER
  5
203
100
AcDbSymbolTableRecord
100
AcDbLayerTableRecord
  2
FASEN
 70
0
 62
7
  6
CONTINUOUS
370
-3
390
F
  0
LAYER
  5
204
100
AcDbSymbolTableRecord
100
AcDbLayerTableRecord
  2
FLAECHEN
 70
0
 62
7
  6
CONTINUOUS
370
-3
390
F
  0
LAYER
  5
205
100
AcDbSymbolTableRecord
100
AcDbLayerTableRecord
  2
GEWINDE
 70
0
 62
7
  6
CONTINUOUS
370
-3
390
F
  0
LAYER
  5
206
100
AcDbSymbolTableRecord
100
AcDbLayerTableRecord
  2
HILFEN
 70
0
 62
7
  6
CONTINUOUS
370
-3
390
F
  0
LAYER
  5
207
100
AcDbSymbolTableRecord
100
AcDbLayerTableRecord
  2
KOORDINATENSYSTEM
 70
0
 62
7
  6
CONTINUOUS
370
-3
390
F
  0
LAYER
  5
208
100
AcDbSymbolTableRecord
100
AcDbLayerTableRecord
  2
KURVEN
 70
0
 62
7
  6
CONTINUOUS
370
-3
390
F
  0
LAYER
  5
209
100
AcDbSymbolTableRecord
100
AcDbLayerTableRecord
  2
PLAZIERUNG
 70
0
 62
7
  6
CONTINUOUS
370
-3
390
F
  0
LAYER
  5
20A
100
AcDbSymbolTableRecord
100
AcDbLayerTableRecord
  2
RUNDUNGEN
 70
0
 62
7
  6
CONTINUOUS
370
-3
390
F
  0
LAYER
  5
20B
100
AcDbSymbolTableRecord
100
AcDbLayerTableRecord
  2
SKIZZE
 70
0
 62
7
  6
CONTINUOUS
370
-3
390
F
  0
LAYER
  5
20C
100
AcDbSymbolTableRecord
100
AcDbLayerTableRecord
  2
TEIL_STARTBEZUEGE
 70
0
 62
7
  6
CONTINUOUS
370
-3
390
F
  0
LAYER
  5
20D
100
AcDbSymbolTableRecord
100
AcDbLayerTableRecord
  2
XSEC_DATUMS
 70
0
 62
7
  6
CONTINUOUS
370
-3
390
F
  0
LAYER
  5
20E
100
AcDbSymbolTableRecord
100
AcDbLayerTableRecord
  2
ZEICHNUNGSBEMASSUNGEN
 70
0
 62
7
  6
CONTINUOUS
370
-3
390
F
  0
ENDTAB
  0
TABLE
  2
STYLE
  5
3
100
AcDbSymbolTable
 70
1
  0
STYLE
  5
11
100
AcDbSymbolTableRecord
100
AcDbTextStyleTableRecord
  2
STANDARD
 70
0
 40
0.0
 41
0.7
 50
0.0
 71
0
 42
0.2
  3
txt
  4

  0
STYLE
  5
20F
100
AcDbSymbolTableRecord
100
AcDbTextStyleTableRecord
  2
TEXTSTYLE_1
 70
0
 40
0.0
 41
0.8
 50
0.0
 71
0
 42
0.2
  3
gdt
  4

  0
STYLE
  5
210
100
AcDbSymbolTableRecord
100
AcDbTextStyleTableRecord
  2
TEXTSTYLE_2
 70
0
 40
0.0
 41
0.7
 50
0.0
 71
0
 42
0.2
  3
gdt
  4

  0
STYLE
  5
211
100
AcDbSymbolTableRecord
100
AcDbTextStyleTableRecord
  2
TEXTSTYLE_3
 70
0
 40
0.0
 41
0.8
 50
0.0
 71
0
 42
0.2
  3
txt
  4

  0
ENDTAB
  0
TABLE
  2
VIEW
  5
6
100
AcDbSymbolTable
 70
0
  0
ENDTAB
  0
TABLE
  2
UCS
  5
7
100
AcDbSymbolTable
 70
0
  0
ENDTAB
  0
TABLE
  2
APPID
  5
9
100
AcDbSymbolTable
 70
1
  0
APPID
  5
212
100
AcDbSymbolTableRecord
100
AcDbRegAppTableRecord
  2
ACAD
 70
0
  0
ENDTAB
  0
TABLE
  2
BLOCK_RECORD
  5
1
100
AcDbSymbolTable
 70
0
  0
BLOCK_RECORD
  5
213
100
AcDbSymbolTableRecord
100
AcDbBlockTableRecord
  2
*Model_Space
  0
BLOCK_RECORD
  5
214
100
AcDbSymbolTableRecord
100
AcDbBlockTableRecord
  2
*Paper_Space
  0
BLOCK_RECORD
  5
215
100
AcDbSymbolTableRecord
100
AcDbBlockTableRecord
  2
_FILLED
  0
BLOCK_RECORD
  5
216
100
AcDbSymbolTableRecord
100
AcDbBlockTableRecord
  2
*D0
  0
BLOCK_RECORD
  5
217
100
AcDbSymbolTableRecord
100
AcDbBlockTableRecord
  2
*D1
  0
BLOCK_RECORD
  5
218
100
AcDbSymbolTableRecord
100
AcDbBlockTableRecord
  2
*D2
  0
BLOCK_RECORD
  5
219
100
AcDbSymbolTableRecord
100
AcDbBlockTableRecord
  2
SYMBOL_3_BL0
  0
BLOCK_RECORD
  5
21A
100
AcDbSymbolTableRecord
100
AcDbBlockTableRecord
  2
*T1
  0
ENDTAB
  0
TABLE
  2
DIMSTYLE
  5
A
100
AcDbSymbolTable
 70
1
100
AcDbDimStyleTable
 71
0
  0
DIMSTYLE
105
21B
100
AcDbSymbolTableRecord
100
AcDbDimStyleTableRecord
  2
STANDARD
 70
0
  3

  4

 40
1.0
 41
3.5
 42
0.0625
 43
0.38
 44
0.18
 45
0.0
 46
0.0
 47
0.005
 48
0.005
140
3.5
141
0.09
142
0.0
143
25.4
144
1.0
145
0.0
146
1.0
147
0.09
 71
1.0
 72
0.0
 73
0
 74
0
 75
0
 76
0
 77
1
 78
8
170
0
171
2
172
0
173
0
174
0
175
0
176
0
177
0
178
5
270
2
271
3
272
3
273
2
274
2
275
0
280
0
281
0
282
0
283
1
284
8
285
0
286
0
287
3
288
0
340
11
341
215
342
215
343
215
344
215
  0
DIMSTYLE
105
21C
100
AcDbSymbolTableRecord
100
AcDbDimStyleTableRecord
  2
DIMSTYLE_1
 70
0
  3

  4

 40
1.0
 41
3.5
 42
0.0625
 43
0.38
 44
0.18
 45
0.0
 46
0.0
 47
0.2
 48
0.2
140
3.5
141
0.09
142
0.0
143
25.4
144
1.0
145
0.0
146
1.0
147
0.09
 71
0.0
 72
0.0
 73
0
 74
0
 75
0
 76
0
 77
1
 78
8
170
0
171
2
172
0
173
0
174
0
175
0
176
0
177
0
178
5
270
2
271
3
272
3
273
2
274
2
275
0
280
0
281
0
282
0
283
1
284
8
285
0
286
0
287
3
288
0
340
11
341
215
342
215
343
215
344
215
  0
DIMSTYLE
105
21D
100
AcDbSymbolTableRecord
100
AcDbDimStyleTableRecord
  2
DIMSTYLE_2
 70
0
  3

  4

 40
1.0
 41
3.5
 42
0.0625
 43
0.38
 44
0.18
 45
0.0
 46
0.0
 47
0.3
 48
0.3
140
3.5
141
0.09
142
0.0
143
25.4
144
1.0
145
0.0
146
1.0
147
0.09
 71
0.0
 72
0.0
 73
0
 74
0
 75
0
 76
0
 77
1
 78
8
170
0
171
2
172
0
173
0
174
0
175
0
176
0
177
0
178
5
270
2
271
3
272
3
273
2
274
2
275
0
280
0
281
0
282
0
283
1
284
8
285
0
286
0
287
3
288
0
340
11
341
215
342
215
343
215
344
215
  0
ENDTAB
  0
ENDSEC
  0
SECTION
  2
BLOCKS
  0
BLOCK
  5
20
100
AcDbEntity
  8
0
100
AcDbBlockBegin
  2
*Model_Space
 70
0
 10
0.0
 20
0.0
 30
0.0
  3
*Model_Space
  1

  0
ENDBLK
  5
21
100
AcDbEntity
  8
0
100
AcDbBlockEnd
  0
BLOCK
  5
1C
100
AcDbEntity
  8
0
100
AcDbBlockBegin
  2
*Paper_Space
 70
0
 10
0.0
 20
0.0
 30
0.0
  3
*Paper_Space
  1

  0
ENDBLK
  5
1D
100
AcDbEntity
  8
0
100
AcDbBlockEnd
  0
BLOCK
  5
21E
100
AcDbEntity
  8
0
100
AcDbBlockBegin
 62
2
  6
CONTINUOUS
  2
SYMBOL_3_BL0
 70
64
 10
98.0245925022
 20
9.2066660654
  3
SYMBOL_3_BL0
  1

  0
LINE
  5
21F
100
AcDbEntity
  8
0
100
AcDbLine
 62
2
  6
CONTINUOUS
 10
77.5544360471
 20
8.0329859648
 11
75.0539855722
 21
9.5420032339
  0
LINE
  5
220
100
AcDbEntity
  8
0
100
AcDbLine
 62
2
  6
CONTINUOUS
 10
75.2018073047
 20
10.3803457168
 11
77.7022587796
 21
8.8713284476
  0
LINE
  5
221
100
AcDbEntity
  8
0
100
AcDbLine
 62
2
  6
CONTINUOUS
 10
107.6509415813
 20
8.0329859648
 11
106.0530264731
 21
8.9551632959
  0
LINE
  5
222
100
AcDbEntity
  8
0
100
AcDbLine
 62
2
  6
CONTINUOUS
 10
97.3194792782
 20
8.8713284476
 11
98.5968389666
 21
8.0329859648
  0
LINE
  5
223
100
AcDbEntity
  8
0
100
AcDbLine
 62
2
  6
CONTINUOUS
 10
100.5250274771
 20
8.0329859648
 11
99.2476677888
 21
8.8713284476
  0
LINE
  5
224
100
AcDbEntity
  8
0
100
AcDbLine
 62
2
  6
CONTINUOUS
 10
107.8554912111
 20
9.2904996891
 11
109.7467977884
 21
8.0329859648
  0
LINE
  5
225
100
AcDbEntity
  8
0
100
AcDbLine
 62
2
  6
CONTINUOUS
 10
115.1413990258
 20
10.1843850714
 11
115.471200429
 21
8.8651804588
  0
LINE
  5
226
100
AcDbEntity
  8
0
100
AcDbLine
 62
2
  6
CONTINUOUS
 10
115.5621982643
 20
8.5011891175
 11
115.6792490525
 21
8.0329859648
  0
LINE
  5
227
100
AcDbEntity
  8
0
100
AcDbLine
 62
2
  6
CONTINUOUS
 10
116.611688365
 20
10.3803457168
 11
117.198528303
 21
8.0329859648
  0
LINE
  5
228
100
AcDbEntity
  8
0
100
AcDbLine
 62
2
  6
CONTINUOUS
 10
73.1950539363
 20
8.0329859648
 11
73.6089561873
 21
10.3803457168
  0
LINE
  5
229
100
AcDbEntity
  8
0
100
AcDbLine
 62
2
  6
CONTINUOUS
 10
75.0539855722
 20
9.5420032339
 11
74.7879050537
 21
8.0329859648
  0
LINE
  5
22A
100
AcDbEntity
  8
0
100
AcDbLine
 62
2
  6
CONTINUOUS
 10
77.7022587796
 20
8.8713284476
 11
77.9683382981
 21
10.3803457168
  0
LINE
  5
22B
100
AcDbEntity
  8
0
100
AcDbLine
 62
2
  6
CONTINUOUS
 10
79.5611904155
 20
10.3803457168
 11
79.1472871645
 21
8.0329859648
  0
LINE
  5
22C
100
AcDbEntity
  8
0
100
AcDbLine
 62
2
  6
CONTINUOUS
 10
80.4048008888
 20
8.0329859648
 11
80.8187041397
 21
10.3803457168
  0
LINE
  5
22D
100
AcDbEntity
  8
0
100
AcDbLine
 62
2
  6
CONTINUOUS
 10
82.2390275694
 20
9.8773396271
 11
82.1651167031
 21
9.4581683856
  0
LINE
  5
22E
100
AcDbEntity
  8
0
100
AcDbLine
 62
2
  6
CONTINUOUS
 10
82.0764228636
 20
8.9551632959
 11
82.0025119974
 21
8.5359920545
  0
LINE
  5
22F
100
AcDbEntity
  8
0
100
AcDbLine
 62
2
  6
CONTINUOUS
 10
84.3448077585
 20
9.4581683856
 11
84.256113919
 21
8.9551632959
  0
LINE
  5
230
100
AcDbEntity
  8
0
100
AcDbLine
 62
2
  6
CONTINUOUS
 10
85.010417554
 20
10.3803457168
 11
84.9217247145
 21
9.8773396271
  0
LINE
  5
231
100
AcDbEntity
  8
0
100
AcDbLine
 62
2
  6
CONTINUOUS
 10
84.6852081425
 20
8.5359920545
 11
84.596515303
 21
8.0329859648
  0
LINE
  5
232
100
AcDbEntity
  8
0
100
AcDbLine
 62
2
  6
CONTINUOUS
 10
85.5789415251
 20
8.850126486
 11
85.8487610368
 21
10.3803457168
  0
LINE
  5
233
100
AcDbEntity
  8
0
100
AcDbLine
 62
2
  6
CONTINUOUS
 10
87.357777306
 20
10.3803457168
 11
87.1119527508
 21
8.9862012398
  0
LINE
  5
234
100
AcDbEntity
  8
0
100
AcDbLine
 62
2
  6
CONTINUOUS
 10
88.9423444384
 20
8.907020383
 11
89.2021319682
 21
10.3803457168
  0
LINE
  5
235
100
AcDbEntity
  8
0
100
AcDbLine
 62
2
  6
CONTINUOUS
 10
90.7111492373
 20
10.3803457168
 11
90.4145627741
 21
8.6983237607
  0
LINE
  5
236
100
AcDbEntity
  8
0
100
AcDbLine
 62
2
  6
CONTINUOUS
 10
91.1945133626
 20
9.7935057788
 11
91.2979891753
 21
10.3803457168
  0
LINE
  5
237
100
AcDbEntity
  8
0
100
AcDbLine
 62
2
  6
CONTINUOUS
 10
92.0577658004
 20
8.0329859648
 11
92.3681932386
 21
9.7935057788
  0
LINE
  5
238
100
AcDbEntity
  8
0
100
AcDbLine
 62
2
  6
CONTINUOUS
 10
94.0448782043
 20
9.7935057788
 11
93.7344517661
 21
8.0329859648
  0
LINE
  5
239
100
AcDbEntity
  8
0
100
AcDbLine
 62
2
  6
CONTINUOUS
 10
95.322033893
 20
10.3803457168
 11
95.2185580803
 21
9.7935057788
  0
LINE
  5
23A
100
AcDbEntity
  8
0
100
AcDbLine
 62
2
  6
CONTINUOUS
 10
95.908873831
 20
10.3803457168
 11
95.49497158
 21
8.0329859648
  0
LINE
  5
23B
100
AcDbEntity
  8
0
100
AcDbLine
 62
2
  6
CONTINUOUS
 10
97.1716565457
 20
8.0329859648
 11
97.3194792782
 21
8.8713284476
  0
LINE
  5
23C
100
AcDbEntity
  8
0
100
AcDbLine
 62
2
  6
CONTINUOUS
 10
97.4081721177
 20
9.3743345373
 11
97.5116479304
 21
9.9611744753
  0
LINE
  5
23D
100
AcDbEntity
  8
0
100
AcDbLine
 62
2
  6
CONTINUOUS
 10
101.1957022634
 20
8.0329859648
 11
101.6096045144
 21
10.3803457168
  0
LINE
  5
23E
100
AcDbEntity
  8
0
100
AcDbLine
 62
2
  6
CONTINUOUS
 10
103.28629048
 20
10.3803457168
 11
102.8723872291
 21
8.0329859648
  0
LINE
  5
23F
100
AcDbEntity
  8
0
100
AcDbLine
 62
2
  6
CONTINUOUS
 10
104.2137358016
 20
8.0329859648
 11
104.6276390526
 21
10.3803457168
  0
LINE
  5
240
100
AcDbEntity
  8
0
100
AcDbLine
 62
2
  6
CONTINUOUS
 10
106.3043240183
 20
10.3803457168
 11
106.1121553661
 21
9.2904996891
  0
LINE
  5
241
100
AcDbEntity
  8
0
100
AcDbLine
 62
2
  6
CONTINUOUS
 10
106.0530264731
 20
8.9551632959
 11
105.8904217673
 21
8.0329859648
  0
LINE
  5
242
100
AcDbEntity
  8
0
100
AcDbLine
 62
2
  6
CONTINUOUS
 10
117.8923160475
 20
8.5313940628
 11
118.1405795982
 21
9.9393685148
  0
LINE
  5
243
100
AcDbEntity
  8
0
100
AcDbLine
 62
2
  6
CONTINUOUS
 10
119.4637212037
 20
8.8526434815
 11
119.6196779214
 21
9.7371138808
  0
LINE
  5
244
100
AcDbEntity
  8
0
100
AcDbLine
 62
2
  6
CONTINUOUS
 10
120.5561772267
 20
8.8812524297
 11
120.5944831573
 21
9.0984910365
  0
LINE
  5
245
100
AcDbEntity
  8
0
100
AcDbLine
 62
2
  6
CONTINUOUS
 10
121.0125094008
 20
8.0329859648
 11
121.017391392
 21
8.0606719147
  0
LINE
  5
246
100
AcDbEntity
  8
0
100
AcDbLine
 62
2
  6
CONTINUOUS
 10
121.1430231646
 20
8.7731656253
 11
121.1620821301
 21
8.8812524297
  0
LINE
  5
247
100
AcDbEntity
  8
0
100
AcDbLine
 62
2
  6
CONTINUOUS
 10
122.5272706596
 20
8.0329859648
 11
122.7151483196
 21
9.0984910365
  0
LINE
  5
248
100
AcDbEntity
  8
0
100
AcDbLine
 62
2
  6
CONTINUOUS
 10
122.8291061133
 20
9.7447798669
 11
122.854131068
 21
9.8867056101
  0
LINE
  5
249
100
AcDbEntity
  8
0
100
AcDbLine
 62
2
  6
CONTINUOUS
 10
109.7467977884
 20
8.0329859648
 11
107.6509415813
 21
8.0329859648
  0
LINE
  5
24A
100
AcDbEntity
  8
0
100
AcDbLine
 62
2
  6
CONTINUOUS
 10
73.1950539363
 20
8.0329859648
 11
74.7879050537
 21
8.0329859648
  0
LINE
  5
24B
100
AcDbEntity
  8
0
100
AcDbLine
 62
2
  6
CONTINUOUS
 10
105.8904217673
 20
8.0329859648
 11
104.2137358016
 21
8.0329859648
  0
LINE
  5
24C
100
AcDbEntity
  8
0
100
AcDbLine
 62
2
  6
CONTINUOUS
 10
102.8723872291
 20
8.0329859648
 11
101.1957022634
 21
8.0329859648
  0
LINE
  5
24D
100
AcDbEntity
  8
0
100
AcDbLine
 62
2
  6
CONTINUOUS
 10
93.7344517661
 20
8.0329859648
 11
92.0577658004
 21
8.0329859648
  0
LINE
  5
24E
100
AcDbEntity
  8
0
100
AcDbLine
 62
2
  6
CONTINUOUS
 10
95.49497158
 20
8.0329859648
 11
97.1716565457
 21
8.0329859648
  0
LINE
  5
24F
100
AcDbEntity
  8
0
100
AcDbLine
 62
2
  6
CONTINUOUS
 10
84.596515303
 20
8.0329859648
 11
80.4048008888
 21
8.0329859648
  0
LINE
  5
250
100
AcDbEntity
  8
0
100
AcDbLine
 62
2
  6
CONTINUOUS
 10
98.5968389666
 20
8.0329859648
 11
100.5250274771
 21
8.0329859648
  0
LINE
  5
251
100
AcDbEntity
  8
0
100
AcDbLine
 62
2
  6
CONTINUOUS
 10
79.1472871645
 20
8.0329859648
 11
77.5544360471
 21
8.0329859648
  0
LINE
  5
252
100
AcDbEntity
  8
0
100
AcDbLine
 62
2
  6
CONTINUOUS
 10
111.8930159044
 20
8.0329859648
 11
113.5278499458
 21
8.0329859648
  0
LINE
  5
253
100
AcDbEntity
  8
0
100
AcDbLine
 62
2
  6
CONTINUOUS
 10
115.6792490525
 20
8.0329859648
 11
117.198528303
 21
8.0329859648
  0
LINE
  5
254
100
AcDbEntity
  8
0
100
AcDbLine
 62
2
  6
CONTINUOUS
 10
121.0125094008
 20
8.0329859648
 11
122.5272706596
 21
8.0329859648
  0
LINE
  5
255
100
AcDbEntity
  8
0
100
AcDbLine
 62
2
  6
CONTINUOUS
 10
113.8790013104
 20
8.5011891175
 11
115.5621982643
 21
8.5011891175
  0
LINE
  5
256
100
AcDbEntity
  8
0
100
AcDbLine
 62
2
  6
CONTINUOUS
 10
82.0025119974
 20
8.5359920545
 11
84.6852081425
 21
8.5359920545
  0
LINE
  5
257
100
AcDbEntity
  8
0
100
AcDbLine
 62
2
  6
CONTINUOUS
 10
114.1519948163
 20
8.8651804588
 11
115.471200429
 21
8.8651804588
  0
LINE
  5
258
100
AcDbEntity
  8
0
100
AcDbLine
 62
2
  6
CONTINUOUS
 10
120.5561772267
 20
8.8812524297
 11
121.1620821301
 21
8.8812524297
  0
LINE
  5
259
100
AcDbEntity
  8
0
100
AcDbLine
 62
2
  6
CONTINUOUS
 10
84.256113919
 20
8.9551632959
 11
82.0764228636
 21
8.9551632959
  0
LINE
  5
25A
100
AcDbEntity
  8
0
100
AcDbLine
 62
2
  6
CONTINUOUS
 10
120.5944831573
 20
9.0984910365
 11
122.7151483196
 21
9.0984910365
  0
LINE
  5
25B
100
AcDbEntity
  8
0
100
AcDbLine
 62
2
  6
CONTINUOUS
 10
98.4693321973
 20
9.3743345373
 11
97.4081721177
 21
9.3743345373
  0
LINE
  5
25C
100
AcDbEntity
  8
0
100
AcDbLine
 62
2
  6
CONTINUOUS
 10
82.1651167031
 20
9.4581683856
 11
84.3448077585
 21
9.4581683856
  0
LINE
  5
25D
100
AcDbEntity
  8
0
100
AcDbLine
 62
2
  6
CONTINUOUS
 10
121.2929528933
 20
9.7447798669
 11
122.8291061133
 21
9.7447798669
  0
LINE
  5
25E
100
AcDbEntity
  8
0
100
AcDbLine
 62
2
  6
CONTINUOUS
 10
95.2185580803
 20
9.7935057788
 11
94.0448782043
 21
9.7935057788
  0
LINE
  5
25F
100
AcDbEntity
  8
0
100
AcDbLine
 62
2
  6
CONTINUOUS
 10
92.3681932386
 20
9.7935057788
 11
91.1945133626
 21
9.7935057788
  0
LINE
  5
260
100
AcDbEntity
  8
0
100
AcDbLine
 62
2
  6
CONTINUOUS
 10
84.9217247145
 20
9.8773396271
 11
82.2390275694
 21
9.8773396271
  0
LINE
  5
261
100
AcDbEntity
  8
0
100
AcDbLine
 62
2
  6
CONTINUOUS
 10
97.5116479304
 20
9.9611744753
 11
98.7657596609
 21
9.9611744753
  0
LINE
  5
262
100
AcDbEntity
  8
0
100
AcDbLine
 62
2
  6
CONTINUOUS
 10
73.6089561873
 20
10.3803457168
 11
75.2018073047
 21
10.3803457168
  0
LINE
  5
263
100
AcDbEntity
  8
0
100
AcDbLine
 62
2
  6
CONTINUOUS
 10
77.9683382981
 20
10.3803457168
 11
79.5611904155
 21
10.3803457168
  0
LINE
  5
264
100
AcDbEntity
  8
0
100
AcDbLine
 62
2
  6
CONTINUOUS
 10
80.8187041397
 20
10.3803457168
 11
85.010417554
 21
10.3803457168
  0
LINE
  5
265
100
AcDbEntity
  8
0
100
AcDbLine
 62
2
  6
CONTINUOUS
 10
99.0107422175
 20
10.3803457168
 11
95.908873831
 21
10.3803457168
  0
LINE
  5
266
100
AcDbEntity
  8
0
100
AcDbLine
 62
2
  6
CONTINUOUS
 10
85.8487610368
 20
10.3803457168
 11
87.357777306
 21
10.3803457168
  0
LINE
  5
267
100
AcDbEntity
  8
0
100
AcDbLine
 62
2
  6
CONTINUOUS
 10
89.2021319682
 20
10.3803457168
 11
90.7111492373
 21
10.3803457168
  0
LINE
  5
268
100
AcDbEntity
  8
0
100
AcDbLine
 62
2
  6
CONTINUOUS
 10
91.2979891753
 20
10.3803457168
 11
95.322033893
 21
10.3803457168
  0
LINE
  5
269
100
AcDbEntity
  8
0
100
AcDbLine
 62
2
  6
CONTINUOUS
 10
101.6096045144
 20
10.3803457168
 11
103.28629048
 21
10.3803457168
  0
LINE
  5
26A
100
AcDbEntity
  8
0
100
AcDbLine
 62
2
  6
CONTINUOUS
 10
104.6276390526
 20
10.3803457168
 11
106.3043240183
 21
10.3803457168
  0
LINE
  5
26B
100
AcDbEntity
  8
0
100
AcDbLine
 62
2
  6
CONTINUOUS
 10
108.0476608634
 20
10.3803457168
 11
110.1607010394
 21
10.3803457168
  0
LINE
  5
26C
100
AcDbEntity
  8
0
100
AcDbLine
 62
2
  6
CONTINUOUS
 10
113.6535357184
 20
10.3803457168
 11
116.611688365
 21
10.3803457168
  0
LINE
  5
26D
100
AcDbEntity
  8
0
100
AcDbLine
 62
2
  6
CONTINUOUS
 10
111.8930159044
 20
8.0329859648
 11
113.6535357184
 21
10.3803457168
  0
LINE
  5
26E
100
AcDbEntity
  8
0
100
AcDbLine
 62
2
  6
CONTINUOUS
 10
113.5278499458
 20
8.0329859648
 11
113.8790013104
 21
8.5011891175
  0
LINE
  5
26F
100
AcDbEntity
  8
0
100
AcDbLine
 62
2
  6
CONTINUOUS
 10
114.1519948163
 20
8.8651804588
 11
115.1413990258
 21
10.1843850714
  0
LINE
  5
270
100
AcDbEntity
  8
0
100
AcDbLine
 62
2
  6
CONTINUOUS
 10
106.1121553661
 20
9.2904996891
 11
108.0476608634
 21
10.3803457168
  0
LINE
  5
271
100
AcDbEntity
  8
0
100
AcDbLine
 62
2
  6
CONTINUOUS
 10
110.1607010394
 20
10.3803457168
 11
107.8554912111
 21
9.2904996891
  0
ARC
  5
272
100
AcDbEntity
  8
0
100
AcDbCircle
 62
2
  6
CONTINUOUS
 10
87.4421951532
 20
8.9279703451
 40
0.335336967
100
AcDbArc
 50
169.9999581174
 51
257.3876854477
  0
ARC
  5
273
100
AcDbEntity
  8
0
100
AcDbCircle
 62
2
  6
CONTINUOUS
 10
87.9547452256
 20
11.2186881996
 40
2.6826964808
100
AcDbArc
 50
257.3877479741
 51
286.262665946
  0
ARC
  5
274
100
AcDbEntity
  8
0
100
AcDbCircle
 62
2
  6
CONTINUOUS
 10
88.612102036
 20
8.9652512777
 40
0.3353371135
100
AcDbArc
 50
286.2627744417
 51
349.9999581174
  0
ARC
  5
275
100
AcDbEntity
  8
0
100
AcDbCircle
 62
2
  6
CONTINUOUS
 10
89.9191986705
 20
8.7856696027
 40
0.5030061094
100
AcDbArc
 50
284.4613069912
 51
350.0000240953
  0
ARC
  5
276
100
AcDbEntity
  8
0
100
AcDbCircle
 62
2
  6
CONTINUOUS
 10
87.9512572319
 20
16.4164137933
 40
8.3834278607
100
AcDbArc
 50
256.2209051549
 51
284.4612653568
  0
ARC
  5
277
100
AcDbEntity
  8
0
100
AcDbCircle
 62
2
  6
CONTINUOUS
 10
86.0743056287
 20
8.7627806441
 40
0.503005856
100
AcDbArc
 50
170.0000240953
 51
256.2208762229
  0
ARC
  5
278
100
AcDbEntity
  8
0
100
AcDbCircle
 62
2
  6
CONTINUOUS
 10
99.5460702487
 20
10.1920990574
 40
1.3167024847
100
AcDbArc
 50
270.8139664646
 51
287.332045501
  0
ARC
  5
279
100
AcDbEntity
  8
0
100
AcDbCircle
 62
2
  6
CONTINUOUS
 10
99.6328970916
 20
9.9138785609
 40
1.025248295
100
AcDbArc
 50
287.332041554
 51
306.9952583027
  0
ARC
  5
27A
100
AcDbEntity
  8
0
100
AcDbCircle
 62
2
  6
CONTINUOUS
 10
99.765875851
 20
9.7373788803
 40
0.8042604703
100
AcDbArc
 50
306.9952804959
 51
331.1991469186
  0
ARC
  5
27B
100
AcDbEntity
  8
0
100
AcDbCircle
 62
2
  6
CONTINUOUS
 10
99.9698034819
 20
9.6252650832
 40
0.5715468569
100
AcDbArc
 50
331.1991187457
 51
28.8007934081
  0
ARC
  5
27C
100
AcDbEntity
  8
0
100
AcDbCircle
 62
2
  6
CONTINUOUS
 10
99.765875851
 20
9.5131502861
 40
0.8042612359
100
AcDbArc
 50
28.8008530814
 51
53.0047195041
  0
ARC
  5
27D
100
AcDbEntity
  8
0
100
AcDbCircle
 62
2
  6
CONTINUOUS
 10
99.6328970916
 20
9.3366506055
 40
1.0252479986
100
AcDbArc
 50
53.0047416973
 51
72.667958446
  0
ARC
  5
27E
100
AcDbEntity
  8
0
100
AcDbCircle
 62
2
  6
CONTINUOUS
 10
99.5460702487
 20
9.058430109
 40
1.3167024858
100
AcDbArc
 50
72.667954499
 51
88.2637233921
  0
ARC
  5
27F
100
AcDbEntity
  8
0
100
AcDbCircle
 62
2
  6
CONTINUOUS
 10
99.1751869199
 20
-1.8011792383
 40
12.1826353158
100
AcDbArc
 50
88.0677150838
 51
90.7734183662
  0
ARC
  5
280
100
AcDbEntity
  8
0
100
AcDbCircle
 62
2
  6
CONTINUOUS
 10
97.8450613271
 20
126.7276131626
 40
117.8646306221
100
AcDbArc
 50
270.6818443076
 51
270.8360085966
  0
ARC
  5
281
100
AcDbEntity
  8
0
100
AcDbCircle
 62
2
  6
CONTINUOUS
 10
98.7233307377
 20
9.4400284185
 40
0.5228699142
100
AcDbArc
 50
74.2117758502
 51
85.3455498836
  0
ARC
  5
282
100
AcDbEntity
  8
0
100
AcDbCircle
 62
2
  6
CONTINUOUS
 10
98.7726766484
 20
9.6145531026
 40
0.3415029724
100
AcDbArc
 50
49.80595642
 51
74.2116374161
  0
ARC
  5
283
100
AcDbEntity
  8
0
100
AcDbCircle
 62
2
  6
CONTINUOUS
 10
98.8829964487
 20
9.7451268663
 40
0.1705654939
100
AcDbArc
 50
340.193968067
 51
49.8058745946
  0
ARC
  5
284
100
AcDbEntity
  8
0
100
AcDbCircle
 62
2
  6
CONTINUOUS
 10
98.7221697398
 20
9.8030467615
 40
0.3415041793
100
AcDbArc
 50
315.7883508031
 51
340.1940327095
  0
ARC
  5
285
100
AcDbEntity
  8
0
100
AcDbCircle
 62
2
  6
CONTINUOUS
 10
98.592172975
 20
9.9295155326
 40
0.5228695114
100
AcDbArc
 50
298.8638229053
 51
315.7882717965
  0
ARC
  5
286
100
AcDbEntity
  8
0
100
AcDbCircle
 62
2
  6
CONTINUOUS
 10
98.4693321973
 20
10.1523731293
 40
0.777340892
100
AcDbArc
 50
285.0000006491
 51
298.8638426666
  0
ARC
  5
287
100
AcDbEntity
  8
0
100
AcDbCircle
 62
2
  6
CONTINUOUS
 10
98.4666332022
 20
10.1523751293
 40
0.7780452733
100
AcDbArc
 50
270.1987562222
 51
285.191946156
  0
ARC
  5
288
100
AcDbEntity
  8
0
100
AcDbCircle
 62
2
  6
CONTINUOUS
 10
120.6619260353
 20
-2.9792851063
 40
13.3596308353
100
AcDbArc
 50
81.6598945895
 51
99.8027888696
  0
ARC
  5
289
100
AcDbEntity
  8
0
100
AcDbCircle
 62
2
  6
CONTINUOUS
 10
120.1292479993
 20
21.3907487912
 40
13.3596309136
100
AcDbArc
 50
261.4614728694
 51
273.8118136955
  0
ARC
  5
28A
100
AcDbEntity
  8
0
100
AcDbCircle
 62
2
  6
CONTINUOUS
 10
118.4389290582
 20
9.88676061
 40
0.302952678
100
AcDbArc
 50
99.8027796749
 51
169.9998425607
  0
ARC
  5
28B
100
AcDbEntity
  8
0
100
AcDbCircle
 62
2
  6
CONTINUOUS
 10
118.1906655075
 20
8.478787158
 40
0.3029519545
100
AcDbArc
 50
170.000028812
 51
261.4614258049
  0
ARC
  5
28C
100
AcDbEntity
  8
0
100
AcDbCircle
 62
2
  6
CONTINUOUS
 10
122.555781608
 20
9.9393125149
 40
0.3029519545
100
AcDbArc
 50
350.000028812
 51
81.6598857953
  0
ARC
  5
28D
100
AcDbEntity
  8
0
100
AcDbCircle
 62
2
  6
CONTINUOUS
 10
120.4567834065
 20
6.5595326313
 40
3.4740280808
100
AcDbArc
 50
80.2083456985
 51
99.7818280968
  0
ARC
  5
28E
100
AcDbEntity
  8
0
100
AcDbCircle
 62
2
  6
CONTINUOUS
 10
120.2291178185
 20
11.9365299005
 40
3.4740282835
100
AcDbArc
 50
261.5304821195
 51
281.1930777907
  0
ARC
  5
28F
100
AcDbEntity
  8
0
100
AcDbCircle
 62
2
  6
CONTINUOUS
 10
119.9180273815
 20
9.684506976
 40
0.3029528628
100
AcDbArc
 50
99.7818543358
 51
170.000028812
  0
ARC
  5
290
100
AcDbEntity
  8
0
100
AcDbCircle
 62
2
  6
CONTINUOUS
 10
120.9960754306
 20
9.6844149762
 40
0.3029523856
100
AcDbArc
 50
11.4934186918
 51
80.2083192078
  0
ARC
  5
291
100
AcDbEntity
  8
0
100
AcDbCircle
 62
2
  6
CONTINUOUS
 10
119.7620716637
 20
8.8000365767
 40
0.3029529393
100
AcDbArc
 50
170.000061653
 51
261.5304593161
  0
ARC
  5
292
100
AcDbEntity
  8
0
100
AcDbCircle
 62
2
  6
CONTINUOUS
 10
120.8446737046
 20
8.8257725301
 40
0.3029520503
100
AcDbArc
 50
281.1930976978
 51
350.000028812
  0
ENDBLK
  5
293
100
AcDbEntity
  8
0
  6
BYBLOCK
 62
0
100
AcDbBlockEnd
  0
BLOCK
  5
294
100
AcDbEntity
  8
0
100
AcDbBlockBegin
  2
_FILLED
 70
64
 10
0.0
 20
0.0
  3
_FILLED
  1

  0
SOLID
  5
295
100
AcDbEntity
  8
0
  6
BYBLOCK
 62
0
100
AcDbTrace
 10
0.0
 20
0.0
 11
-1.0
 21
0.125
 12
-1.0
 22
-0.125
 13
-1.0
 23
-0.125
  0
ENDBLK
  5
296
100
AcDbEntity
  8
0
  6
BYBLOCK
 62
0
100
AcDbBlockEnd
  0
BLOCK
  5
297
100
AcDbEntity
  8
ZEICHNUNGSBEMASSUNGEN
100
AcDbBlockBegin
 62
2
  6
CONTINUOUS
  2
*D0
 70
65
 10
0.0
 20
0.0
  3
*D0
  1

  0
MTEXT
  5
298
100
AcDbEntity
  8
ZEICHNUNGSBEMASSUNGEN
100
AcDbMText
 62
5
  6
CONTINUOUS
  7
STANDARD
 71
1
 72
1
 10
132.1922381578
 20
266.8751296031
 30
0.0
 11
0.0
 21
1.0
 31
0.0
 44
0.9
  1
\Q15.0;8,5{\Ftxt.shx;\W1.000000;\H3.500000; }[.33]
 40
3.5
 41
20.75
  0
LINE
  5
299
100
AcDbEntity
  8
ZEICHNUNGSBEMASSUNGEN
100
AcDbLine
 62
2
  6
CONTINUOUS
 10
118.4358284501
 20
252.2500944031
 11
138.0981048157
 21
252.2500944031
  0
LINE
  5
29A
100
AcDbEntity
  8
ZEICHNUNGSBEMASSUNGEN
100
AcDbLine
 62
2
  6
CONTINUOUS
 10
109.2358284501
 20
260.7500944031
 11
138.0981048157
 21
260.7500944031
  0
LINE
  5
29B
100
AcDbEntity
  8
ZEICHNUNGSBEMASSUNGEN
100
AcDbLine
 62
2
  6
CONTINUOUS
 10
136.5981048157
 20
252.2500944031
 11
136.5981048157
 21
246.2500944031
  0
LINE
  5
29C
100
AcDbEntity
  8
ZEICHNUNGSBEMASSUNGEN
100
AcDbLine
 62
2
  6
CONTINUOUS
 10
136.5981048157
 20
246.2500944031
 11
136.5981048157
 21
256.5000944031
  0
LINE
  5
29D
100
AcDbEntity
  8
ZEICHNUNGSBEMASSUNGEN
100
AcDbLine
 62
2
  6
CONTINUOUS
 10
136.5981048157
 20
260.7500944031
 11
136.5981048157
 21
287.6251296031
  0
LINE
  5
29E
100
AcDbEntity
  8
ZEICHNUNGSBEMASSUNGEN
100
AcDbLine
 62
2
  6
CONTINUOUS
 10
136.5981048157
 20
287.6251296031
 11
136.5981048157
 21
256.5000944031
  0
INSERT
  5
29F
100
AcDbEntity
  8
ZEICHNUNGSBEMASSUNGEN
100
AcDbBlockReference
 62
2
  6
CONTINUOUS
  2
_FILLED
 10
136.5981048157
 20
252.2500944031
 41
3.5
 42
3.5
 43
3.5
 50
90.0
  0
INSERT
  5
2A0
100
AcDbEntity
  8
ZEICHNUNGSBEMASSUNGEN
100
AcDbBlockReference
 62
2
  6
CONTINUOUS
  2
_FILLED
 10
136.5981048157
 20
260.7500944031
 41
3.5
 42
3.5
 43
3.5
 50
270.0
  0
ENDBLK
  5
2A1
100
AcDbEntity
  8
0
  6
BYBLOCK
 62
0
100
AcDbBlockEnd
  0
BLOCK
  5
2A2
100
AcDbEntity
  8
0
100
AcDbBlockBegin
 62
2
  6
CONTINUOUS
  2
*D1
 70
65
 10
0.0
 20
0.0
  3
*D1
  1

  0
MTEXT
  5
2A3
100
AcDbEntity
  8
0
100
AcDbMText
 62
5
  6
CONTINUOUS
  7
TEXTSTYLE_2
 71
2
 72
1
 10
98.4358284501
 20
76.2420366211
 30
0.0
 11
1.0
 21
0.0
 31
0.0
 44
0.9
  1
\Q15.0;{\Fgdt;n}\Ftxt;40{\Ftxt.shx;\W1.000000;\H3.500000; }[1.575]
 40
3.5
 41
28.4166666667
  0
LINE
  5
2A4
100
AcDbEntity
  8
0
100
AcDbLine
 62
2
  6
CONTINUOUS
 10
78.4358284501
 20
106.1612024652
 11
78.4358284501
 21
69.4611720881
  0
LINE
  5
2A5
100
AcDbEntity
  8
0
100
AcDbLine
 62
2
  6
CONTINUOUS
 10
118.4358284501
 20
107.3169801673
 11
118.4358284501
 21
69.4611720881
  0
LINE
  5
2A6
100
AcDbEntity
  8
0
100
AcDbLine
 62
2
  6
CONTINUOUS
 10
78.4358284501
 20
70.9611720881
 11
98.4358284501
 21
70.9611720881
  0
LINE
  5
2A7
100
AcDbEntity
  8
0
100
AcDbLine
 62
2
  6
CONTINUOUS
 10
118.4358284501
 20
70.9611720881
 11
98.4358284501
 21
70.9611720881
  0
INSERT
  5
2A8
100
AcDbEntity
  8
0
100
AcDbBlockReference
 62
2
  6
CONTINUOUS
  2
_FILLED
 10
78.4358284501
 20
70.9611720881
 41
3.5
 42
3.5
 43
3.5
 50
180.0
  0
INSERT
  5
2A9
100
AcDbEntity
  8
0
100
AcDbBlockReference
 62
2
  6
CONTINUOUS
  2
_FILLED
 10
118.4358284501
 20
70.9611720881
 41
3.5
 42
3.5
 43
3.5
  0
ENDBLK
  5
2AA
100
AcDbEntity
  8
0
  6
BYBLOCK
 62
0
100
AcDbBlockEnd
  0
BLOCK
  5
2AB
100
AcDbEntity
  8
0
100
AcDbBlockBegin
 62
2
  6
CONTINUOUS
  2
*D2
 70
65
 10
0.0
 20
0.0
  3
*D2
  1

  0
MTEXT
  5
2AC
100
AcDbEntity
  8
0
100
AcDbMText
 62
5
  6
CONTINUOUS
  7
STANDARD
 71
2
 72
1
 10
142.2977875871
 20
212.2500944031
 30
0.0
 11
0.0
 21
1.0
 31
0.0
 44
0.9
  1
\Q15.0;80{\Ftxt.shx;\W1.000000;\H3.500000; }[3.150]
 40
3.5
 41
23.75
  0
LINE
  5
2AD
100
AcDbEntity
  8
0
100
AcDbLine
 62
2
  6
CONTINUOUS
 10
118.4358284501
 20
252.2500944031
 11
148.203654245
 21
252.2500944031
  0
LINE
  5
2AE
100
AcDbEntity
  8
0
100
AcDbLine
 62
2
  6
CONTINUOUS
 10
118.4358284501
 20
172.2500944031
 11
148.203654245
 21
172.2500944031
  0
LINE
  5
2AF
100
AcDbEntity
  8
0
100
AcDbLine
 62
2
  6
CONTINUOUS
 10
146.703654245
 20
252.2500944031
 11
146.703654245
 21
212.2500944031
  0
LINE
  5
2B0
100
AcDbEntity
  8
0
100
AcDbLine
 62
2
  6
CONTINUOUS
 10
146.703654245
 20
172.2500944031
 11
146.703654245
 21
212.2500944031
  0
INSERT
  5
2B1
100
AcDbEntity
  8
0
100
AcDbBlockReference
 62
2
  6
CONTINUOUS
  2
_FILLED
 10
146.703654245
 20
252.2500944031
 41
3.5
 42
3.5
 43
3.5
 50
90.0
  0
INSERT
  5
2B2
100
AcDbEntity
  8
0
100
AcDbBlockReference
 62
2
  6
CONTINUOUS
  2
_FILLED
 10
146.703654245
 20
172.2500944031
 41
3.5
 42
3.5
 43
3.5
 50
270.0
  0
ENDBLK
  5
2B3
100
AcDbEntity
  8
0
  6
BYBLOCK
 62
0
100
AcDbBlockEnd
  0
BLOCK
  5
2B4
100
AcDbEntity
  8
0
100
AcDbBlockBegin
  2
*T1
 70
1
 10
0.0
 20
0.0
  3
*T1
  1

  0
LINE
  5
2B5
100
AcDbEntity
  8
0
100
AcDbLine
 62
7
  6
CONTINUOUS
 10
0.0
 20
0.0
 11
133.0
 21
0.0
  0
LINE
  5
2B6
100
AcDbEntity
  8
0
100
AcDbLine
 62
7
  6
CONTINUOUS
 10
0.0
 20
0.0
 11
0.0
 21
-46.0
  0
LINE
  5
2B7
100
AcDbEntity
  8
0
100
AcDbLine
 62
7
  6
CONTINUOUS
 10
82.0
 20
-5.0
 11
133.0
 21
-5.0
  0
LINE
  5
2B8
100
AcDbEntity
  8
0
100
AcDbLine
 62
7
  6
CONTINUOUS
 10
0.0
 20
-10.0
 11
41.0
 21
-10.0
  0
LINE
  5
2B9
100
AcDbEntity
  8
0
100
AcDbLine
 62
7
  6
CONTINUOUS
 10
82.0
 20
-10.0
 11
133.0
 21
-10.0
  0
LINE
  5
2BA
100
AcDbEntity
  8
0
100
AcDbLine
 62
7
  6
CONTINUOUS
 10
82.0
 20
-15.0
 11
133.0
 21
-15.0
  0
LINE
  5
2BB
100
AcDbEntity
  8
0
100
AcDbLine
 62
7
  6
CONTINUOUS
 10
0.0
 20
-20.0
 11
133.0
 21
-20.0
  0
LINE
  5
2BC
100
AcDbEntity
  8
0
100
AcDbLine
 62
7
  6
CONTINUOUS
 10
82.0
 20
-28.0
 11
133.0
 21
-28.0
  0
LINE
  5
2BD
100
AcDbEntity
  8
0
100
AcDbLine
 62
7
  6
CONTINUOUS
 10
0.0
 20
-37.0
 11
133.0
 21
-37.0
  0
LINE
  5
2BE
100
AcDbEntity
  8
0
100
AcDbLine
 62
7
  6
CONTINUOUS
 10
0.0
 20
-46.0
 11
133.0
 21
-46.0
  0
LINE
  5
2BF
100
AcDbEntity
  8
0
100
AcDbLine
 62
7
  6
CONTINUOUS
 10
41.0
 20
0.0
 11
41.0
 21
-20.0
  0
LINE
  5
2C0
100
AcDbEntity
  8
0
100
AcDbLine
 62
7
  6
CONTINUOUS
 10
64.0
 20
0.0
 11
64.0
 21
-20.0
  0
LINE
  5
2C1
100
AcDbEntity
  8
0
100
AcDbLine
 62
7
  6
CONTINUOUS
 10
82.0
 20
0.0
 11
82.0
 21
-46.0
  0
LINE
  5
2C2
100
AcDbEntity
  8
0
100
AcDbLine
 62
7
  6
CONTINUOUS
 10
101.0
 20
0.0
 11
101.0
 21
-20.0
  0
LINE
  5
2C3
100
AcDbEntity
  8
0
100
AcDbLine
 62
7
  6
CONTINUOUS
 10
116.0
 20
0.0
 11
116.0
 21
-37.0
  0
LINE
  5
2C4
100
AcDbEntity
  8
0
100
AcDbLine
 62
7
  6
CONTINUOUS
 10
133.0
 20
0.0
 11
133.0
 21
-46.0
  0
MTEXT
  5
2C5
100
AcDbEntity
  8
0
100
AcDbMText
 62
5
  6
CONTINUOUS
  7
TEXTSTYLE_3
 71
1
 72
1
 10
0.0625
 20
-2.7341257188
 30
0.0
 11
1.0
 21
0.0
 31
0.0
 44
0.9
  1
\Q15.0; Allgemeintoleranzen\P ISO 2768-m
 40
1.8
 41
49.2
  0
MTEXT
  5
2C6
100
AcDbEntity
  8
0
100
AcDbMText
 62
5
  6
CONTINUOUS
  7
TEXTSTYLE_3
 71
2
 72
1
 10
52.5
 20
-1.5352761804
 30
0.0
 11
1.0
 21
0.0
 31
0.0
 44
0.9
  1
\Q15.0;Werkstoff
 40
2.0
 41
26.2857142857
  0
MTEXT
  5
2C7
100
AcDbEntity
  8
0
100
AcDbMText
 62
5
  6
CONTINUOUS
  7
TEXTSTYLE_3
 71
2
 72
1
 10
73.0
 20
-1.5352761804
 30
0.0
 11
1.0
 21
0.0
 31
0.0
 44
0.9
  1
\Q15.0;Massstab:
 40
2.0
 41
24.2857142857
  0
MTEXT
  5
2C8
100
AcDbEntity
  8
0
100
AcDbMText
 62
5
  6
CONTINUOUS
  7
TEXTSTYLE_3
 71
2
 72
1
 10
108.5
 20
-1.5352761804
 30
0.0
 11
1.0
 21
0.0
 31
0.0
 44
0.9
  1
\Q15.0;Datum
 40
2.0
 41
15.3333333333
  0
MTEXT
  5
2C9
100
AcDbEntity
  8
0
100
AcDbMText
 62
5
  6
CONTINUOUS
  7
TEXTSTYLE_3
 71
2
 72
1
 10
124.5
 20
-1.5352761804
 30
0.0
 11
1.0
 21
0.0
 31
0.0
 44
0.9
  1
\Q15.0;Name
 40
2.0
 41
12.5714285714
  0
MTEXT
  5
2CA
100
AcDbEntity
  8
0
100
AcDbMText
 62
5
  6
CONTINUOUS
  7
TEXTSTYLE_3
 71
1
 72
1
 10
82.0625
 20
-6.5352761804
 30
0.0
 11
1.0
 21
0.0
 31
0.0
 44
0.9
  1
\Q15.0; Gezeichnet
 40
2.0
 41
30.380952381
  0
MTEXT
  5
2CB
100
AcDbEntity
  8
0
100
AcDbMText
 62
5
  6
CONTINUOUS
  7
TEXTSTYLE_3
 71
2
 72
1
 10
108.5
 20
-6.5352761804
 30
0.0
 11
1.0
 21
0.0
 31
0.0
 44
0.9
  1
\Q15.0;19.06.12
 40
2.0
 41
21.7142857143
  0
MTEXT
  5
2CC
100
AcDbEntity
  8
0
100
AcDbMText
 62
5
  6
CONTINUOUS
  7
TEXTSTYLE_3
 71
2
 72
1
 10
124.5
 20
-6.5352761804
 30
0.0
 11
1.0
 21
0.0
 31
0.0
 44
0.9
  1
\Q15.0;Hofmann
 40
2.0
 41
20.5714285714
  0
MTEXT
  5
2CD
100
AcDbEntity
  8
0
100
AcDbMText
 62
5
  6
CONTINUOUS
  7
TEXTSTYLE_3
 71
1
 72
1
 10
0.0625
 20
-12.7341257188
 30
0.0
 11
1.0
 21
0.0
 31
0.0
 44
0.9
  1
\Q15.0; Zeichnung urheberrechtlich\P geschuetzt (DIN 34) (C)
 40
1.8
 41
66.0
  0
MTEXT
  5
2CE
100
AcDbEntity
  8
0
100
AcDbMText
 62
5
  6
CONTINUOUS
  7
TEXTSTYLE_3
 71
2
 72
1
 10
52.5
 20
-12.8209899902
 30
0.0
 11
1.0
 21
0.0
 31
0.0
 44
0.9
  1
\Q15.0;-
 40
2.0
 41
2.8571428571
  0
MTEXT
  5
2CF
100
AcDbEntity
  8
0
100
AcDbMText
 62
5
  6
CONTINUOUS
  7
TEXTSTYLE_3
 71
2
 72
1
 10
73.0
 20
-10.2015916314
 30
0.0
 11
1.0
 21
0.0
 31
0.0
 44
0.9
  1
\Q15.0;1:1
 40
3.5
 41
10.5
  0
MTEXT
  5
2D0
100
AcDbEntity
  8
0
100
AcDbMText
 62
5
  6
CONTINUOUS
  7
TEXTSTYLE_3
 71
1
 72
1
 10
82.0625
 20
-11.5352761804
 30
0.0
 11
1.0
 21
0.0
 31
0.0
 44
0.9
  1
\Q15.0; Freigegeben
 40
2.0
 41
33.5238095238
  0
MTEXT
  5
2D1
100
AcDbEntity
  8
0
100
AcDbMText
 62
5
  6
CONTINUOUS
  7
TEXTSTYLE_3
 71
2
 72
1
 10
52.5
 20
-17.820989502
 30
0.0
 11
1.0
 21
0.0
 31
0.0
 44
0.9
  1
\Q15.0;-
 40
2.0
 41
2.8571428571
  0
MTEXT
  5
2D2
100
AcDbEntity
  8
0
100
AcDbMText
 62
5
  6
CONTINUOUS
  7
TEXTSTYLE_3
 71
2
 72
1
 10
73.0
 20
-16.5352761804
 30
0.0
 11
1.0
 21
0.0
 31
0.0
 44
0.9
  1
(\Q15.0;A4\Q0.0;)
 40
2.0
 41
10.0
  0
MTEXT
  5
2D3
100
AcDbEntity
  8
0
100
AcDbMText
 62
5
  6
CONTINUOUS
  7
TEXTSTYLE_3
 71
1
 72
1
 10
82.0625
 20
-16.5352761804
 30
0.0
 11
1.0
 21
0.0
 31
0.0
 44
0.9
  1
\Q15.0; Geaendert
 40
2.0
 41
28.2857142857
  0
MTEXT
  5
2D4
100
AcDbEntity
  8
0
100
AcDbMText
 62
5
  6
CONTINUOUS
  7
TEXTSTYLE_3
 71
2
 72
1
 10
108.5
 20
-17.820989502
 30
0.0
 11
1.0
 21
0.0
 31
0.0
 44
0.9
  1
\Q15.0;-
 40
2.0
 41
2.8571428571
  0
MTEXT
  5
2D5
100
AcDbEntity
  8
0
100
AcDbMText
 62
5
  6
CONTINUOUS
  7
TEXTSTYLE_3
 71
2
 72
1
 10
124.5
 20
-17.820989502
 30
0.0
 11
1.0
 21
0.0
 31
0.0
 44
0.9
  1
\Q15.0;-
 40
2.0
 41
2.8571428571
  0
MTEXT
  5
2D6
100
AcDbEntity
  8
0
100
AcDbMText
 62
5
  6
CONTINUOUS
  7
TEXTSTYLE_3
 71
1
 72
1
 10
0.0625
 20
-20.921875
 30
0.0
 11
1.0
 21
0.0
 31
0.0
 44
0.9
  1
\Q15.0; Benennung
 40
2.0
 41
29.1428571429
  0
MTEXT
  5
2D7
100
AcDbEntity
  8
0
100
AcDbMText
 62
5
  6
CONTINUOUS
  7
TEXTSTYLE_3
 71
1
 72
1
 10
82.0625
 20
-20.9647238196
 30
0.0
 11
1.0
 21
0.0
 31
0.0
 44
1.2
  1
\Q15.0; Aend.-Nr.\P -
 40
2.0
 41
28.2857142857
  0
MTEXT
  5
2D8
100
AcDbEntity
  8
0
100
AcDbMText
 62
5
  6
CONTINUOUS
  7
TEXTSTYLE_3
 71
2
 72
1
 10
124.5
 20
-20.835314297
 30
0.0
 11
1.0
 21
0.0
 31
0.0
 44
0.9
  1
\Q15.0;Aend.-Index\P\H3.0;-
 40
2.0
 41
31.1428571429
  0
MTEXT
  5
2D9
100
AcDbEntity
  8
0
100
AcDbMText
 62
5
  6
CONTINUOUS
  7
TEXTSTYLE_3
 71
2
 72
1
 10
41.0
 20
-23.8117333157
 30
0.0
 11
1.0
 21
0.0
 31
0.0
 44
0.9
  1
\Q15.0;Handtool HTAC
 40
3.5
 41
66.8333333333
  0
MTEXT
  5
2DA
100
AcDbEntity
  8
0
100
AcDbMText
 62
5
  6
CONTINUOUS
  7
TEXTSTYLE_3
 71
2
 72
1
 10
40.25
 20
-30.088190451
 30
0.0
 11
1.0
 21
0.0
 31
0.0
 44
0.9
  1
\Q15.0;HTAC
 40
5.0
 41
33.3333333333
  0
MTEXT
  5
2DB
100
AcDbEntity
  8
0
100
AcDbMText
 62
5
  6
CONTINUOUS
  7
TEXTSTYLE_3
 71
1
 72
1
 10
82.0625
 20
-31.5352761804
 30
0.0
 11
1.0
 21
0.0
 31
0.0
 44
0.9
  1
\Q15.0; Ersatz fuer:
 40
2.0
 41
34.5714285714
  0
MTEXT
  5
2DC
100
AcDbEntity
  8
0
100
AcDbMText
 62
5
  6
CONTINUOUS
  7
TEXTSTYLE_3
 71
2
 72
1
 10
124.5
 20
-29.4647238196
 30
0.0
 11
1.0
 21
0.0
 31
0.0
 44
1.2
  1
\Q15.0;Blatt 1\Pvon 1 Bl.
 40
2.0
 41
24.5714285714
  0
MTEXT
  5
2DD
100
AcDbEntity
  8
0
100
AcDbMText
 62
5
  6
CONTINUOUS
  7
TEXTSTYLE_3
 71
1
 72
1
 10
82.0625
 20
-37.5352761804
 30
0.0
 11
1.0
 21
0.0
 31
0.0
 44
0.9
  1
\Q15.0; Zeichn. Nr.
 40
2.0
 41
32.9523809524
  0
MTEXT
  5
2DE
100
AcDbEntity
  8
0
100
AcDbMText
 62
5
  6
CONTINUOUS
  7
TEXTSTYLE_3
 71
2
 72
1
 10
108.5
 20
-41.3117333157
 30
0.0
 11
1.0
 21
0.0
 31
0.0
 44
0.9
  1
\Q15.0;ST-HTAC
 40
3.5
 41
39.8333333333
  0
ENDBLK
  5
2DF
100
AcDbEntity
  8
0
  6
BYBLOCK
 62
0
100
AcDbBlockEnd
  0
ENDSEC
  0
SECTION
  2
ENTITIES
  0
MTEXT
  5
2E0
100
AcDbEntity
  8
0
100
AcDbMText
 62
4
  6
CONTINUOUS
  7
STANDARD
 71
1
 72
1
 10
126.0467415329
 20
10.4742136272
 30
0.0
 11
1.0
 21
0.0
 31
0.0
 44
0.9
  1
\Q15.0;FL-9494 SCHAAN
 40
2.43
 41
26.4985714286
  0
INSERT
  5
2E1
100
AcDbEntity
  8
0
100
AcDbBlockReference
 62
2
  6
CONTINUOUS
  2
SYMBOL_3_BL0
 10
98.0245925022
 20
9.2066660654
  0
DIMENSION
  5
2E2
100
AcDbEntity
  8
ZEICHNUNGSBEMASSUNGEN
100
AcDbDimension
 62
2
  6
CONTINUOUS
  2
*D0
 10
136.5981048157
 20
260.7500944031
 11
133.9422381578
 21
277.2501296031
 70
160
 71
1
 42
8.5
  3
DIMSTYLE_1
100
AcDbAlignedDimension
 13
118.4358284501
 23
252.2500944031
 14
109.2358284501
 24
260.7500944031
 50
90.0
100
AcDbRotatedDimension
  0
DIMENSION
  5
2E3
100
AcDbEntity
  8
0
100
AcDbDimension
 62
2
  6
CONTINUOUS
  2
*D1
 10
118.4358284501
 20
70.9611720881
 11
96.8941617835
 21
73.617038746
 70
160
 71
2
 42
40.0
  1
%%c<>
  3
DIMSTYLE_2
100
AcDbAlignedDimension
 13
78.4358284501
 23
106.1612024652
 14
118.4358284501
 24
107.3169801673
100
AcDbRotatedDimension
  0
DIMENSION
  5
2E4
100
AcDbEntity
  8
0
100
AcDbDimension
 62
2
  6
CONTINUOUS
  2
*D2
 10
146.703654245
 20
172.2500944031
 11
145.5320314405
 21
210.6856002417
 70
160
 71
2
 42
80.0
  3
DIMSTYLE_2
100
AcDbAlignedDimension
 13
118.4358284501
 23
252.2500944031
 14
118.4358284501
 24
172.2500944031
 50
270.0
100
AcDbRotatedDimension
  0
ACAD_TABLE
  5
2E5
100
AcDbEntity
  8
0
 62
2
  6
CONTINUOUS
100
AcDbBlockReference
  2
*T1
 10
72.0
 20
51.0
 30
0.0
100
AcDbTable
342
       43B
343
21A
 11
1.0
 21
0.0
 31
0.0
 90
22
 91
9
 92
8
 93
0
 94
0
 95
0
 96
0
141
5.0
141
5.0
141
5.0
141
5.0
141
3.0
141
5.0
141
9.0
141
3.0
141
6.0
142
20.5
142
19.0
142
1.5
142
23.0
142
18.0
142
19.0
142
15.0
142
17.0
171
1
172
0
173
0
174
0
175
2
176
2
177
41
178
0
145
0.0
  1
\Q15.0; Allgemeintoleranzen\P ISO 2768-m
170
4
140
1.8
 64
5
171
1
172
0
173
1
174
0
175
1
176
1
177
1
178
0
145
0.0
170
1
171
1
172
0
173
0
174
0
175
1
176
2
177
1
178
0
145
0.0
170
1
171
1
172
0
173
0
174
0
175
1
176
1
177
41
178
0
145
0.0
  1
\Q15.0;Werkstoff
170
5
140
2.0
 64
5
171
1
172
0
173
0
174
0
175
1
176
1
177
41
178
0
145
0.0
  1
\Q15.0;Massstab:
170
5
140
2.0
 64
5
171
1
172
0
173
0
174
0
175
1
176
1
177
1
178
0
145
0.0
170
1
171
1
172
0
173
0
174
0
175
1
176
1
177
41
178
0
145
0.0
  1
\Q15.0;Datum
170
5
140
2.0
 64
5
171
1
172
0
173
0
174
0
175
1
176
1
177
41
178
0
145
0.0
  1
\Q15.0;Name
170
5
140
2.0
 64
5
171
1
172
0
173
1
174
0
175
1
176
1
177
1
178
0
145
0.0
170
1
171
1
172
0
173
1
174
0
175
1
176
1
177
1
178
0
145
0.0
170
1
171
1
172
0
173
1
174
0
175
1
176
1
177
1
178
0
145
0.0
170
1
171
1
172
0
173
0
174
0
175
1
176
1
177
1
178
0
145
0.0
170
1
171
1
172
0
173
0
174
0
175
1
176
1
177
1
178
0
145
0.0
170
1
171
1
172
0
173
0
174
0
175
1
176
1
177
41
178
0
145
0.0
  1
\Q15.0; Gezeichnet
170
4
140
2.0
 64
5
171
1
172
0
173
0
174
0
175
1
176
1
177
41
178
0
145
0.0
  1
\Q15.0;19.06.12
170
5
140
2.0
 64
5
171
1
172
0
173
0
174
0
175
1
176
1
177
41
178
0
145
0.0
  1
\Q15.0;Hofmann
170
5
140
2.0
 64
5
171
1
172
0
173
0
174
0
175
2
176
2
177
41
178
0
145
0.0
  1
\Q15.0; Zeichnung urheberrechtlich\P geschuetzt (DIN 34) (C)
170
4
140
1.8
 64
5
171
1
172
0
173
1
174
0
175
1
176
1
177
1
178
0
145
0.0
170
1
171
1
172
0
173
0
174
0
175
1
176
2
177
1
178
0
145
0.0
170
1
171
1
172
0
173
0
174
0
175
1
176
1
177
41
178
0
145
0.0
  1
\Q15.0;-
170
5
140
2.0
 64
5
171
1
172
0
173
0
174
0
175
1
176
1
177
41
178
0
145
0.0
  1
\Q15.0;1:1
170
2
140
3.5
 64
5
171
1
172
0
173
0
174
0
175
1
176
1
177
41
178
0
145
0.0
  1
\Q15.0; Freigegeben
170
4
140
2.0
 64
5
171
1
172
0
173
0
174
0
175
1
176
1
177
1
178
0
145
0.0
170
1
171
1
172
0
173
0
174
0
175
1
176
1
177
1
178
0
145
0.0
170
1
171
1
172
0
173
1
174
0
175
1
176
1
177
1
178
0
145
0.0
170
1
171
1
172
0
173
1
174
0
175
1
176
1
177
1
178
0
145
0.0
170
1
171
1
172
0
173
1
174
0
175
1
176
1
177
1
178
0
145
0.0
170
1
171
1
172
0
173
0
174
0
175
1
176
1
177
41
178
0
145
0.0
  1
\Q15.0;-
170
5
140
2.0
 64
5
171
1
172
0
173
0
174
0
175
1
176
1
177
41
178
0
145
0.0
  1
(\Q15.0;A4\Q0.0;)
170
5
140
2.0
 64
5
171
1
172
0
173
0
174
0
175
1
176
1
177
41
178
0
145
0.0
  1
\Q15.0; Geaendert
170
4
140
2.0
 64
5
171
1
172
0
173
0
174
0
175
1
176
1
177
41
178
0
145
0.0
  1
\Q15.0;-
170
5
140
2.0
 64
5
171
1
172
0
173
0
174
0
175
1
176
1
177
41
178
0
145
0.0
  1
\Q15.0;-
170
5
140
2.0
 64
5
171
1
172
0
173
0
174
0
175
2
176
1
177
41
178
0
145
0.0
  1
\Q15.0; Benennung
170
7
140
2.0
 64
5
171
1
172
0
173
1
174
0
175
1
176
1
177
1
178
0
145
0.0
170
1
171
1
172
0
173
0
174
0
175
1
176
1
177
1
178
0
145
0.0
170
1
171
1
172
0
173
0
174
0
175
1
176
1
177
1
178
0
145
0.0
170
1
171
1
172
0
173
0
174
0
175
1
176
1
177
1
178
0
145
0.0
170
1
171
1
172
0
173
0
174
0
175
2
176
2
177
41
178
0
145
0.0
  1
\Q15.0; Aend.-Nr.\P -
170
4
140
2.0
 64
5
171
1
172
0
173
1
174
0
175
1
176
1
177
1
178
0
145
0.0
170
1
171
1
172
0
173
0
174
0
175
1
176
2
177
41
178
0
145
0.0
  1
\Q15.0;Aend.-Index\P\H3.0;-
170
5
140
2.0
 64
5
171
1
172
0
173
0
174
0
175
5
176
1
177
41
178
0
145
0.0
  1
\Q15.0;Handtool HTAC
170
5
140
3.5
 64
5
171
1
172
0
173
1
174
0
175
1
176
1
177
1
178
0
145
0.0
170
1
171
1
172
0
173
1
174
0
175
1
176
1
177
1
178
0
145
0.0
170
1
171
1
172
0
173
1
174
0
175
1
176
1
177
1
178
0
145
0.0
170
1
171
1
172
0
173
1
174
0
175
1
176
1
177
1
178
0
145
0.0
170
1
171
1
172
0
173
1
174
0
175
1
176
1
177
1
178
0
145
0.0
170
1
171
1
172
0
173
1
174
0
175
1
176
1
177
1
178
0
145
0.0
170
1
171
1
172
0
173
1
174
0
175
1
176
1
177
1
178
0
145
0.0
170
1
171
1
172
0
173
0
174
0
175
1
176
1
177
1
178
0
145
0.0
170
1
171
1
172
0
173
0
174
0
175
1
176
1
177
1
178
0
145
0.0
170
1
171
1
172
0
173
0
174
0
175
1
176
1
177
41
178
0
145
0.0
  1
\Q15.0;HTAC
170
5
140
5.0
 64
5
171
1
172
0
173
0
174
0
175
1
176
1
177
1
178
0
145
0.0
170
1
171
1
172
0
173
0
174
0
175
1
176
1
177
1
178
0
145
0.0
170
1
171
1
172
0
173
0
174
0
175
1
176
1
177
41
178
0
145
0.0
  1
\Q15.0; Ersatz fuer:
170
4
140
2.0
 64
5
171
1
172
0
173
0
174
0
175
1
176
1
177
1
178
0
145
0.0
170
1
171
1
172
0
173
0
174
0
175
1
176
1
177
41
178
0
145
0.0
  1
\Q15.0;Blatt 1\Pvon 1 Bl.
170
5
140
2.0
 64
5
171
1
172
0
173
0
174
0
175
5
176
2
177
1
178
0
145
0.0
170
1
171
1
172
0
173
1
174
0
175
1
176
1
177
1
178
0
145
0.0
170
1
171
1
172
0
173
1
174
0
175
1
176
1
177
1
178
0
145
0.0
170
1
171
1
172
0
173
1
174
0
175
1
176
1
177
1
178
0
145
0.0
170
1
171
1
172
0
173
1
174
0
175
1
176
1
177
1
178
0
145
0.0
170
1
171
1
172
0
173
0
174
0
175
1
176
1
177
41
178
0
145
0.0
  1
\Q15.0; Zeichn. Nr.
170
4
140
2.0
 64
5
171
1
172
0
173
0
174
0
175
1
176
1
177
1
178
0
145
0.0
170
1
171
1
172
0
173
0
174
0
175
1
176
1
177
1
178
0
145
0.0
170
1
171
1
172
0
173
1
174
0
175
1
176
1
177
1
178
0
145
0.0
170
1
171
1
172
0
173
1
174
0
175
1
176
1
177
1
178
0
145
0.0
170
1
171
1
172
0
173
1
174
0
175
1
176
1
177
1
178
0
145
0.0
170
1
171
1
172
0
173
1
174
0
175
1
176
1
177
1
178
0
145
0.0
170
1
171
1
172
0
173
1
174
0
175
1
176
1
177
1
178
0
145
0.0
170
1
171
1
172
0
173
0
174
0
175
1
176
1
177
1
178
0
145
0.0
170
1
171
1
172
0
173
0
174
0
175
1
176
1
177
41
178
0
145
0.0
  1
\Q15.0;ST-HTAC
170
5
140
3.5
 64
5
171
1
172
0
173
0
174
0
175
1
176
1
177
1
178
0
145
0.0
170
1
  0
LINE
  5
2E6
100
AcDbEntity
  8
0
100
AcDbLine
 62
7
  6
CONTINUOUS
 10
0.0
 20
0.0
 11
210.0
 21
0.0
  0
LINE
  5
2E7
100
AcDbEntity
  8
0
100
AcDbLine
 62
7
  6
CONTINUOUS
 10
5.0
 20
5.0
 11
205.0
 21
5.0
  0
LINE
  5
2E8
100
AcDbEntity
  8
0
100
AcDbLine
 62
7
  6
CONTINUOUS
 10
0.0
 20
0.0
 11
0.0
 21
297.0
  0
LINE
  5
2E9
100
AcDbEntity
  8
0
100
AcDbLine
 62
7
  6
CONTINUOUS
 10
5.0
 20
5.0
 11
5.0
 21
292.0
  0
LINE
  5
2EA
100
AcDbEntity
  8
0
100
AcDbLine
 62
7
  6
CONTINUOUS
 10
205.0
 20
5.0
 11
205.0
 21
292.0
  0
LINE
  5
2EB
100
AcDbEntity
  8
0
100
AcDbLine
 62
7
  6
CONTINUOUS
 10
210.0
 20
0.0
 11
210.0
 21
297.0
  0
LINE
  5
2EC
100
AcDbEntity
  8
0
100
AcDbLine
 62
7
  6
CONTINUOUS
 10
5.0
 20
292.0
 11
205.0
 21
292.0
  0
LINE
  5
2ED
100
AcDbEntity
  8
0
100
AcDbLine
 62
7
  6
CONTINUOUS
 10
0.0
 20
297.0
 11
210.0
 21
297.0
  0
LINE
  5
2EE
100
AcDbEntity
  8
RUNDUNGEN
100
AcDbLine
 62
7
  6
CONTINUOUS
 10
115.4354565294
 20
172.2500944031
 11
84.5096839987
 21
172.2500944031
  0
LWPOLYLINE
  5
2EF
100
AcDbEntity
  8
RUNDUNGEN
100
AcDbPolyline
 62
7
  6
CONTINUOUS
 90
8
 70
0
 10
82.210247178
 20
172.9925633685
 10
82.5006779042
 20
172.7936349595
 10
82.8197645383
 20
172.6209737098
 10
83.1651136287
 20
172.4777614553
 10
83.5339354026
 20
172.3669893112
 10
83.923055606
 20
172.2915314141
 10
84.3288343385
 20
172.2539889249
 10
84.5089792541
 20
172.2501065946
  0
LINE
  5
2F0
100
AcDbEntity
  8
RUNDUNGEN
100
AcDbLine
 62
7
  6
CONTINUOUS
 10
82.19384507
 20
173.0052007117
 11
82.1976852659
 21
173.0025353007
  0
LINE
  5
2F1
100
AcDbEntity
  8
RUNDUNGEN
100
AcDbLine
 62
7
  6
CONTINUOUS
 10
82.1200853497
 20
173.0641358829
 11
82.210247178
 21
172.9925633685
  0
LINE
  5
2F2
100
AcDbEntity
  8
RUNDUNGEN
100
AcDbLine
 62
7
  6
CONTINUOUS
 10
82.0081717188
 20
173.1646605997
 11
82.1200532996
 21
173.0641410201
  0
LINE
  5
2F3
100
AcDbEntity
  8
RUNDUNGEN
100
AcDbLine
 62
9
  6
CONTINUOUS
 10
81.5957792335
 20
175.2500944031
 11
118.4358284501
 21
175.2500944031
  0
LWPOLYLINE
  5
2F4
100
AcDbEntity
  8
RUNDUNGEN
100
AcDbPolyline
 62
7
  6
CONTINUOUS
 90
3
 70
0
 10
81.8923299343
 20
173.2898505411
 10
82.0223764624
 20
173.1508963053
 10
82.1200734944
 20
173.0641215129
  0
LWPOLYLINE
  5
2F5
100
AcDbEntity
  8
RUNDUNGEN
100
AcDbPolyline
 62
7
  6
CONTINUOUS
 90
9
 70
0
 10
81.4377832063
 20
174.633852371
 10
81.4475541496
 20
174.4097491555
 10
81.4756860167
 20
174.2002380862
 10
81.5219541361
 20
173.9994818573
 10
81.5860876084
 20
173.8084223953
 10
81.6676240158
 20
173.6281669013
 10
81.7658671801
 20
173.4598713164
 10
81.8799247101
 20
173.3047903223
 10
82.0081717188
 20
173.1646605997
  0
LINE
  5
2F6
100
AcDbEntity
  8
RUNDUNGEN
100
AcDbLine
 62
7
  6
CONTINUOUS
 10
81.2883948002
 20
252.2500944031
 11
81.3257222397
 21
251.6000093505
  0
LWPOLYLINE
  5
2F7
100
AcDbEntity
  8
RUNDUNGEN
100
AcDbPolyline
 62
7
  6
CONTINUOUS
 90
3
 70
0
 10
81.3257071734
 20
251.6003207832
 10
81.3695558941
 20
250.6939345859
 10
81.4022017933
 20
249.819804167
  0
LINE
  5
2F8
100
AcDbEntity
  8
RUNDUNGEN
100
AcDbLine
 62
7
  6
CONTINUOUS
 10
81.4021709856
 20
249.8209885785
 11
81.4239701871
 21
248.9822991604
  0
LWPOLYLINE
  5
2F9
100
AcDbEntity
  8
RUNDUNGEN
100
AcDbPolyline
 62
7
  6
CONTINUOUS
 90
3
 70
0
 10
81.4239504495
 20
248.9836705676
 10
81.4354572551
 20
248.1841519309
 10
81.4377811889
 20
247.6390161303
  0
LWPOLYLINE
  5
2FA
100
AcDbEntity
  8
RUNDUNGEN
100
AcDbPolyline
 62
7
  6
CONTINUOUS
 90
9
 70
0
 10
81.4377834634
 20
174.633926546
 10
81.4378894713
 20
174.6102200681
 10
81.4491686309
 20
174.3922971304
 10
81.478908721
 20
174.1828594851
 10
81.5268798864
 20
173.9822926318
 10
81.5928004657
 20
173.79154609
 10
81.67620216
 20
173.6117376355
 10
81.776352675
 20
173.4440837621
 10
81.8923299343
 20
173.2898505411
  0
LINE
  5
2FB
100
AcDbEntity
  8
RUNDUNGEN
100
AcDbLine
 62
7
  6
CONTINUOUS
 10
81.4377816944
 20
247.6390161302
 11
81.4377816944
 21
174.6340857205
  0
LINE
  5
2FC
100
AcDbEntity
  8
RUNDUNGEN
100
AcDbLine
 62
9
  6
CONTINUOUS
 10
81.5957792335
 20
247.6390161302
 11
81.5957792335
 21
175.2500944031
  0
LINE
  5
2FD
100
AcDbEntity
  8
BEZUGSACHSEN
100
AcDbLine
 62
7
  6
CENTER
 10
98.4358284501
 20
260.2500944031
 11
98.4358284501
 21
164.2500944031
  0
LINE
  5
2FE
100
AcDbEntity
  8
0
100
AcDbLine
 62
7
  6
CONTINUOUS
 10
102.7358284501
 20
260.7500944031
 11
102.7358284501
 21
252.2500944031
  0
LINE
  5
2FF
100
AcDbEntity
  8
0
100
AcDbLine
 62
7
  6
CONTINUOUS
 10
109.2358284501
 20
260.7500944031
 11
109.2358284501
 21
252.2500944031
  0
LINE
  5
300
100
AcDbEntity
  8
RUNDUNGEN
100
AcDbLine
 62
9
  6
CONTINUOUS
 10
82.1200726436
 20
173.0641206594
 11
82.1414891886
 21
173.0901796295
  0
LINE
  5
301
100
AcDbEntity
  8
0
100
AcDbLine
 62
7
  6
CONTINUOUS
 10
115.7358284501
 20
260.7500944031
 11
115.7358284501
 21
252.2500944031
  0
LINE
  5
302
100
AcDbEntity
  8
0
100
AcDbLine
 62
7
  6
CONTINUOUS
 10
118.4358284501
 20
252.2500944031
 11
118.4358284501
 21
175.2500944031
  0
LINE
  5
303
100
AcDbEntity
  8
RUNDUNGEN
100
AcDbLine
 62
9
  6
CONTINUOUS
 10
81.5957792335
 20
247.6390161302
 11
81.4377816944
 21
247.6390161302
  0
LINE
  5
304
100
AcDbEntity
  8
RUNDUNGEN
100
AcDbLine
 62
7
  6
CONTINUOUS
 10
81.2890212302
 20
252.2500944031
 11
118.4355443539
 21
252.2500944031
  0
LINE
  5
305
100
AcDbEntity
  8
0
100
AcDbLine
 62
7
  6
CONTINUOUS
 10
115.7358284501
 20
260.7500944031
 11
102.7358284501
 21
260.7500944031
  0
LINE
  5
306
100
AcDbEntity
  8
0
100
AcDbLine
 62
9
  6
CONTINUOUS
 10
98.4358284501
 20
93.172699285
 11
97.2019001928
 21
93.172699285
  0
LINE
  5
307
100
AcDbEntity
  8
0
100
AcDbLine
 62
9
  6
CONTINUOUS
 10
93.2627824278
 20
93.172699285
 11
90.3119372741
 21
93.172699285
  0
LINE
  5
308
100
AcDbEntity
  8
RUNDUNGEN
100
AcDbLine
 62
7
  6
CONTINUOUS
 10
95.7441423892
 20
97.2021255893
 11
86.093306175
 21
97.2021255893
  0
LINE
  5
309
100
AcDbEntity
  8
RUNDUNGEN
100
AcDbLine
 62
7
  6
CONTINUOUS
 10
107.9032030837
 20
118.1898178296
 11
102.3311146867
 21
114.9727710936
  0
LINE
  5
30A
100
AcDbEntity
  8
RUNDUNGEN
100
AcDbLine
 62
7
  6
CONTINUOUS
 10
102.3311146867
 20
102.931480085
 11
107.9032030837
 21
99.714433349
  0
LINE
  5
30B
100
AcDbEntity
  8
AUSFORMSCHRAEGEN
100
AcDbLine
 62
7
  6
CONTINUOUS
 10
102.6505619994
 20
112.7541309473
 11
109.2358284501
 21
116.5561363053
  0
LINE
  5
30C
100
AcDbEntity
  8
0
100
AcDbLine
 62
7
  6
CONTINUOUS
 10
102.7358284501
 20
112.704902339
 11
109.2358284501
 21
116.4576790887
  0
LINE
  5
30D
100
AcDbEntity
  8
0
100
AcDbLine
 62
7
  6
CONTINUOUS
 10
100.4522172832
 20
108.3521255893
 11
93.8083840107
 21
108.3521255893
  0
LINE
  5
30E
100
AcDbEntity
  8
RUNDUNGEN
100
AcDbLine
 62
7
  6
CONTINUOUS
 10
106.7355000519
 20
108.6266762386
 11
108.9103790994
 21
108.6266762386
  0
LINE
  5
30F
100
AcDbEntity
  8
RUNDUNGEN
100
AcDbLine
 62
7
  6
CONTINUOUS
 10
109.5612778009
 20
108.6266762386
 11
111.7361568483
 21
108.6266762386
  0
LINE
  5
310
100
AcDbEntity
  8
BEZUGSACHSEN
100
AcDbLine
 62
7
  6
CENTER
 10
98.4358284501
 20
108.9521255893
 11
76.2485647679
 21
108.9521255893
  0
LINE
  5
311
100
AcDbEntity
  8
BEZUGSACHSEN
100
AcDbLine
 62
7
  6
CENTER
 10
98.4358284501
 20
108.9521255893
 11
121.8683314503
 21
108.9521255893
  0
LINE
  5
312
100
AcDbEntity
  8
AUSFORMSCHRAEGEN
100
AcDbLine
 62
7
  6
CONTINUOUS
 10
109.2358284501
 20
101.3481148732
 11
102.6505619994
 21
105.1501202313
  0
LINE
  5
313
100
AcDbEntity
  8
0
100
AcDbLine
 62
7
  6
CONTINUOUS
 10
109.2358284501
 20
101.4465720898
 11
102.7358284501
 21
105.1993488396
  0
LINE
  5
314
100
AcDbEntity
  8
BEZUGSACHSEN
100
AcDbLine
 62
7
  6
CENTER
 10
98.4358284501
 20
108.9521255893
 11
98.4358284501
 21
86.6825268725
  0
LINE
  5
315
100
AcDbEntity
  8
AUSFORMSCHRAEGEN
100
AcDbLine
 62
9
  6
CONTINUOUS
 10
98.4358284501
 20
91.2021255893
 11
98.4358284501
 21
92.2025778809
  0
LINE
  5
316
100
AcDbEntity
  8
0
100
AcDbLine
 62
9
  6
CONTINUOUS
 10
98.4358284501
 20
92.2025778809
 11
98.4358284501
 21
95.4716528605
  0
LINE
  5
317
100
AcDbEntity
  8
0
100
AcDbLine
 62
9
  6
CONTINUOUS
 10
98.4358284501
 20
122.4325983181
 11
98.4358284501
 21
125.7016732977
  0
LINE
  5
318
100
AcDbEntity
  8
AUSFORMSCHRAEGEN
100
AcDbLine
 62
9
  6
CONTINUOUS
 10
98.4358284501
 20
125.7016732977
 11
98.4358284501
 21
126.7021255893
  0
LINE
  5
319
100
AcDbEntity
  8
BEZUGSACHSEN
100
AcDbLine
 62
7
  6
CENTER
 10
98.4358284501
 20
108.9521255893
 11
98.4358284501
 21
131.4905539342
  0
LINE
  5
31A
100
AcDbEntity
  8
0
100
AcDbLine
 62
9
  6
CONTINUOUS
 10
100.2569492172
 20
108.2544989919
 11
100.4522172832
 21
108.3521255893
  0
LINE
  5
31B
100
AcDbEntity
  8
RUNDUNGEN
100
AcDbLine
 62
7
  6
CONTINUOUS
 10
111.7361568483
 20
109.27757494
 11
109.5612778009
 21
109.27757494
  0
LINE
  5
31C
100
AcDbEntity
  8
RUNDUNGEN
100
AcDbLine
 62
7
  6
CONTINUOUS
 10
108.9103790994
 20
109.27757494
 11
106.7355000519
 21
109.27757494
  0
LINE
  5
31D
100
AcDbEntity
  8
0
100
AcDbLine
 62
7
  6
CONTINUOUS
 10
93.8083840107
 20
109.5521255893
 11
100.4522172832
 21
109.5521255893
  0
LINE
  5
31E
100
AcDbEntity
  8
0
100
AcDbLine
 62
9
  6
CONTINUOUS
 10
100.4522172832
 20
109.5521255893
 11
100.2569492172
 21
109.6497521866
  0
LINE
  5
31F
100
AcDbEntity
  8
0
100
AcDbLine
 62
7
  6
CONTINUOUS
 10
100.9022172858
 20
114.0272037519
 11
100.9022172858
 21
110.0020741874
  0
LINE
  5
320
100
AcDbEntity
  8
0
100
AcDbLine
 62
7
  6
CONTINUOUS
 10
100.9022172858
 20
107.9021769912
 11
100.9022172858
 21
103.8770474267
  0
LINE
  5
321
100
AcDbEntity
  8
0
100
AcDbLine
 62
9
  6
CONTINUOUS
 10
100.6784434657
 20
107.7902986022
 11
100.9022172858
 21
107.9021769912
  0
LINE
  5
322
100
AcDbEntity
  8
0
100
AcDbLine
 62
9
  6
CONTINUOUS
 10
100.9022172858
 20
110.0020741874
 11
100.6784434657
 21
110.1139525763
  0
LINE
  5
323
100
AcDbEntity
  8
0
100
AcDbLine
 62
9
  6
CONTINUOUS
 10
101.716447769
 20
115.1375082285
 11
101.6949894724
 21
115.4948268966
  0
LINE
  5
324
100
AcDbEntity
  8
0
100
AcDbLine
 62
9
  6
CONTINUOUS
 10
102.3311146867
 20
114.9727710936
 11
102.3085178934
 21
115.3490477483
  0
LINE
  5
325
100
AcDbEntity
  8
AUSFORMSCHRAEGEN
100
AcDbLine
 62
7
  6
CONTINUOUS
 10
102.6505619994
 20
105.1501202313
 11
102.6505619994
 21
112.7541309473
  0
LINE
  5
326
100
AcDbEntity
  8
0
100
AcDbLine
 62
7
  6
CONTINUOUS
 10
102.7358284501
 20
105.1993488396
 11
102.7358284501
 21
112.704902339
  0
LINE
  5
327
100
AcDbEntity
  8
0
100
AcDbLine
 62
9
  6
CONTINUOUS
 10
101.6949894724
 20
102.409424282
 11
101.716447769
 21
102.7667429501
  0
LINE
  5
328
100
AcDbEntity
  8
0
100
AcDbLine
 62
9
  6
CONTINUOUS
 10
102.3085178934
 20
102.5552034303
 11
102.3311146867
 21
102.931480085
  0
LINE
  5
329
100
AcDbEntity
  8
0
100
AcDbLine
 62
7
  6
CONTINUOUS
 10
93.8174099952
 20
91.4852081949
 11
100.8419138759
 21
103.6520058142
  0
LINE
  5
32A
100
AcDbEntity
  8
0
100
AcDbLine
 62
9
  6
CONTINUOUS
 10
95.7528300575
 20
97.2021255893
 11
93.2627824278
 21
93.172699285
  0
LINE
  5
32B
100
AcDbEntity
  8
0
100
AcDbLine
 62
9
  6
CONTINUOUS
 10
96.1346400403
 20
96.5276137825
 11
93.6524790205
 21
92.5109496892
  0
LINE
  5
32C
100
AcDbEntity
  8
0
100
AcDbLine
 62
9
  6
CONTINUOUS
 10
100.9022172858
 20
103.8770474267
 11
100.6644536962
 21
103.7029742912
  0
LINE
  5
32D
100
AcDbEntity
  8
AUSFORMSCHRAEGEN
100
AcDbLine
 62
7
  6
CONTINUOUS
 10
115.8210949009
 20
112.7541309473
 11
115.7358284501
 21
112.704902339
  0
LINE
  5
32E
100
AcDbEntity
  8
AUSFORMSCHRAEGEN
100
AcDbLine
 62
7
  6
CONTINUOUS
 10
102.6505619994
 20
105.1501202313
 11
102.7358284501
 21
105.1993488396
  0
LINE
  5
32F
100
AcDbEntity
  8
AUSFORMSCHRAEGEN
100
AcDbLine
 62
7
  6
CONTINUOUS
 10
115.8210949009
 20
105.1501202313
 11
115.7358284501
 21
105.1993488396
  0
LINE
  5
330
100
AcDbEntity
  8
AUSFORMSCHRAEGEN
100
AcDbLine
 62
7
  6
CONTINUOUS
 10
102.6505619994
 20
112.7541309473
 11
102.7358284501
 21
112.704902339
  0
LINE
  5
331
100
AcDbEntity
  8
0
100
AcDbLine
 62
9
  6
CONTINUOUS
 10
100.6644536615
 20
114.2012769127
 11
100.9022172858
 21
114.0272037519
  0
LINE
  5
332
100
AcDbEntity
  8
0
100
AcDbLine
 62
9
  6
CONTINUOUS
 10
93.2627824278
 20
124.7315518936
 11
95.7528300575
 21
120.7021255893
  0
LINE
  5
333
100
AcDbEntity
  8
0
100
AcDbLine
 62
9
  6
CONTINUOUS
 10
93.6524790205
 20
125.3933014893
 11
96.1346400403
 21
121.376637396
  0
LINE
  5
334
100
AcDbEntity
  8
0
100
AcDbLine
 62
7
  6
CONTINUOUS
 10
100.8419138759
 20
114.2522453644
 11
93.8174099952
 21
126.4190429837
  0
LINE
  5
335
100
AcDbEntity
  8
0
100
AcDbLine
 62
9
  6
CONTINUOUS
 10
96.8122036001
 20
92.9609325546
 11
98.0461318575
 21
95.2598861301
  0
LINE
  5
336
100
AcDbEntity
  8
0
100
AcDbLine
 62
9
  6
CONTINUOUS
 10
97.2019001928
 20
93.172699285
 11
98.4358284501
 21
95.4716528605
  0
LINE
  5
337
100
AcDbEntity
  8
0
100
AcDbLine
 62
7
  6
CONTINUOUS
 10
101.716447769
 20
102.7667429501
 11
95.1839828195
 21
91.4521817588
  0
LINE
  5
338
100
AcDbEntity
  8
0
100
AcDbLine
 62
9
  6
CONTINUOUS
 10
100.8419138759
 20
103.6520058142
 11
100.6083052706
 21
103.4809746548
  0
LINE
  5
339
100
AcDbEntity
  8
0
100
AcDbLine
 62
9
  6
CONTINUOUS
 10
100.6083052705
 20
114.4232765238
 11
100.8419138759
 21
114.2522453644
  0
LINE
  5
33A
100
AcDbEntity
  8
0
100
AcDbLine
 62
7
  6
CONTINUOUS
 10
95.1839828195
 20
126.4520694198
 11
101.716447769
 21
115.1375082285
  0
LINE
  5
33B
100
AcDbEntity
  8
0
100
AcDbLine
 62
9
  6
CONTINUOUS
 10
98.0461318575
 20
122.6443650484
 11
96.8122036001
 21
124.943318624
  0
LINE
  5
33C
100
AcDbEntity
  8
0
100
AcDbLine
 62
9
  6
CONTINUOUS
 10
98.4358284501
 20
122.4325983181
 11
97.2019001928
 21
124.7315518936
  0
LINE
  5
33D
100
AcDbEntity
  8
AUSFORMSCHRAEGEN
100
AcDbLine
 62
7
  6
CONTINUOUS
 10
108.5460490929
 20
108.2623462321
 11
108.9103790994
 21
108.6266762386
  0
LINE
  5
33E
100
AcDbEntity
  8
AUSFORMSCHRAEGEN
100
AcDbLine
 62
7
  6
CONTINUOUS
 10
109.5612778009
 20
109.27757494
 11
110.5237079265
 21
110.2400050656
  0
LINE
  5
33F
100
AcDbEntity
  8
0
100
AcDbLine
 62
9
  6
CONTINUOUS
 10
96.2862388101
 20
97.5151051039
 11
95.7441423892
 21
97.2021255893
  0
LINE
  5
340
100
AcDbEntity
  8
0
100
AcDbLine
 62
9
  6
CONTINUOUS
 10
95.7441423892
 20
120.7021255893
 11
96.2862374067
 21
120.389146885
  0
LINE
  5
341
100
AcDbEntity
  8
AUSFORMSCHRAEGEN
100
AcDbLine
 62
7
  6
CONTINUOUS
 10
108.5460490929
 20
109.6419049465
 11
108.9103790994
 21
109.27757494
  0
LINE
  5
342
100
AcDbEntity
  8
AUSFORMSCHRAEGEN
100
AcDbLine
 62
7
  6
CONTINUOUS
 10
109.5612778009
 20
108.6266762386
 11
110.5237012751
 21
107.6642527643
  0
LINE
  5
343
100
AcDbEntity
  8
RUNDUNGEN
100
AcDbLine
 62
9
  6
CONTINUOUS
 10
107.9032030837
 20
99.714433349
 11
107.9032030837
 21
98.3536584606
  0
LINE
  5
344
100
AcDbEntity
  8
RUNDUNGEN
100
AcDbLine
 62
9
  6
CONTINUOUS
 10
107.9032030837
 20
118.1898178296
 11
107.9032030837
 21
119.5505927179
  0
LINE
  5
345
100
AcDbEntity
  8
RUNDUNGEN
100
AcDbLine
 62
7
  6
CONTINUOUS
 10
108.9103790994
 20
111.4524539875
 11
108.9103790994
 21
109.27757494
  0
LINE
  5
346
100
AcDbEntity
  8
RUNDUNGEN
100
AcDbLine
 62
7
  6
CONTINUOUS
 10
108.9103790994
 20
108.6266762386
 11
108.9103790994
 21
106.4517971911
  0
LINE
  5
347
100
AcDbEntity
  8
AUSFORMSCHRAEGEN
100
AcDbLine
 62
7
  6
CONTINUOUS
 10
109.2358284501
 20
116.5561363053
 11
109.2358284501
 21
116.4576790887
  0
LINE
  5
348
100
AcDbEntity
  8
AUSFORMSCHRAEGEN
100
AcDbLine
 62
7
  6
CONTINUOUS
 10
109.2358284501
 20
101.3481148732
 11
109.2358284501
 21
101.4465720898
  0
LINE
  5
349
100
AcDbEntity
  8
0
100
AcDbLine
 62
9
  6
CONTINUOUS
 10
96.6763546362
 20
96.8403728503
 11
96.1346400403
 21
96.5276137825
  0
LINE
  5
34A
100
AcDbEntity
  8
RUNDUNGEN
100
AcDbLine
 62
7
  6
CONTINUOUS
 10
95.7441423892
 20
120.7021255893
 11
86.093306175
 21
120.7021255893
  0
LINE
  5
34B
100
AcDbEntity
  8
0
100
AcDbLine
 62
9
  6
CONTINUOUS
 10
96.1346400403
 20
121.376637396
 11
96.6763546362
 21
121.0638783282
  0
LINE
  5
34C
100
AcDbEntity
  8
RUNDUNGEN
100
AcDbLine
 62
7
  6
CONTINUOUS
 10
109.5612778009
 20
106.4517971911
 11
109.5612778009
 21
108.6266762386
  0
LINE
  5
34D
100
AcDbEntity
  8
RUNDUNGEN
100
AcDbLine
 62
7
  6
CONTINUOUS
 10
109.5612778009
 20
109.27757494
 11
109.5612778009
 21
111.4524539875
  0
LINE
  5
34E
100
AcDbEntity
  8
RUNDUNGEN
100
AcDbLine
 62
9
  6
CONTINUOUS
 10
109.902898474
 20
99.714433349
 11
109.902898474
 21
98.205878192
  0
LINE
  5
34F
100
AcDbEntity
  8
RUNDUNGEN
100
AcDbLine
 62
9
  6
CONTINUOUS
 10
109.902898474
 20
118.1898178296
 11
109.902898474
 21
119.6983729866
  0
LINE
  5
350
100
AcDbEntity
  8
0
100
AcDbLine
 62
7
  6
CONTINUOUS
 10
115.7358284501
 20
105.1993488396
 11
109.2358284501
 21
101.4465720898
  0
LINE
  5
351
100
AcDbEntity
  8
AUSFORMSCHRAEGEN
100
AcDbLine
 62
7
  6
CONTINUOUS
 10
115.8210949009
 20
105.1501202313
 11
109.2358284501
 21
101.3481148732
  0
LINE
  5
352
100
AcDbEntity
  8
0
100
AcDbLine
 62
7
  6
CONTINUOUS
 10
109.2358284501
 20
116.4576790887
 11
115.7358284501
 21
112.704902339
  0
LINE
  5
353
100
AcDbEntity
  8
AUSFORMSCHRAEGEN
100
AcDbLine
 62
7
  6
CONTINUOUS
 10
109.2358284501
 20
116.5561363053
 11
115.8210949009
 21
112.7541309473
  0
LINE
  5
354
100
AcDbEntity
  8
RUNDUNGEN
100
AcDbLine
 62
7
  6
CONTINUOUS
 10
109.902898474
 20
99.714433349
 11
114.7092880591
 21
102.4894036698
  0
LINE
  5
355
100
AcDbEntity
  8
RUNDUNGEN
100
AcDbLine
 62
7
  6
CONTINUOUS
 10
114.7092880591
 20
115.4148475088
 11
109.902898474
 21
118.1898178296
  0
LINE
  5
356
100
AcDbEntity
  8
0
100
AcDbLine
 62
9
  6
CONTINUOUS
 10
98.4358284501
 20
124.7315518936
 11
97.2019001928
 21
124.7315518936
  0
LINE
  5
357
100
AcDbEntity
  8
0
100
AcDbLine
 62
9
  6
CONTINUOUS
 10
93.2627824278
 20
124.7315518936
 11
90.3119372741
 21
124.7315518936
  0
LINE
  5
358
100
AcDbEntity
  8
0
100
AcDbLine
 62
7
  6
CONTINUOUS
 10
115.7358284501
 20
112.704902339
 11
115.7358284501
 21
105.1993488396
  0
LINE
  5
359
100
AcDbEntity
  8
AUSFORMSCHRAEGEN
100
AcDbLine
 62
7
  6
CONTINUOUS
 10
115.8210949009
 20
112.7541309473
 11
115.8210949009
 21
105.1501202313
  0
ARC
  5
35A
100
AcDbEntity
  8
RUNDUNGEN
100
AcDbCircle
 62
9
  6
CONTINUOUS
 10
84.5666381222
 20
174.5865049447
 40
3.0420034243
100
AcDbArc
 50
174.0925469582
 51
177.6834512551
  0
ARC
  5
35B
100
AcDbEntity
  8
RUNDUNGEN
100
AcDbCircle
 62
7
  6
CONTINUOUS
 10
115.4358284501
 20
175.2500944031
 40
3.0
100
AcDbArc
 50
270.0
 51
360.0
  0
ARC
  5
35C
100
AcDbEntity
  8
RUNDUNGEN
100
AcDbCircle
 62
9
  6
CONTINUOUS
 10
83.2069828327
 20
174.3201418056
 40
1.6275894868
100
AcDbArc
 50
215.3660217194
 51
224.8091380491
  0
ARC
  5
35D
100
AcDbEntity
  8
RUNDUNGEN
100
AcDbCircle
 62
9
  6
CONTINUOUS
 10
83.1439030056
 20
174.2576760819
 40
1.5388144288
100
AcDbArc
 50
224.8142954122
 51
229.3505903982
  0
ARC
  5
35E
100
AcDbEntity
  8
0
100
AcDbCircle
 62
9
  6
CONTINUOUS
 10
261.4261463391
 20
10.8119693188
 40
184.0861977187
100
AcDbArc
 50
150.1091950487
 51
150.2428787576
  0
ARC
  5
35F
100
AcDbEntity
  8
0
100
AcDbCircle
 62
9
  6
CONTINUOUS
 10
150.2800227341
 20
72.5772123066
 40
56.9260808593
100
AcDbArc
 50
151.9870403832
 51
152.2036772251
  0
ARC
  5
360
100
AcDbEntity
  8
0
100
AcDbCircle
 62
7
  6
CONTINUOUS
 10
-226.2759412678
 20
108.8788627416
 40
326.9561968649
100
AcDbArc
 50
359.3654247207
 51
359.8092397491
  0
ARC
  5
361
100
AcDbEntity
  8
0
100
AcDbCircle
 62
7
  6
CONTINUOUS
 10
-218.5763836272
 20
109.0807789785
 40
319.2564988685
100
AcDbArc
 50
0.1854201565
 51
0.6399141039
  0
ARC
  5
362
100
AcDbEntity
  8
0
100
AcDbCircle
 62
9
  6
CONTINUOUS
 10
77.4245739262
 20
87.8950369605
 40
43.1913221791
100
AcDbArc
 50
63.6595199706
 51
65.2574412315
  0
ARC
  5
363
100
AcDbEntity
  8
0
100
AcDbCircle
 62
9
  6
CONTINUOUS
 10
77.0745189948
 20
88.318032767
 40
42.2156064916
100
AcDbArc
 50
62.99362777
 51
64.5974352533
  0
ARC
  5
364
100
AcDbEntity
  8
RUNDUNGEN
100
AcDbCircle
 62
9
  6
CONTINUOUS
 10
101.1263609675
 20
85.6290834674
 40
39.0820825004
100
AcDbArc
 50
113.0650674517
 51
115.0544298704
  0
ARC
  5
365
100
AcDbEntity
  8
RUNDUNGEN
100
AcDbCircle
 62
9
  6
CONTINUOUS
 10
100.9401451733
 20
85.0657343144
 40
38.6054531296
100
AcDbArc
 50
112.6175944017
 51
114.4591266934
  0
ARC
  5
366
100
AcDbEntity
  8
RUNDUNGEN
100
AcDbCircle
 62
7
  6
CONTINUOUS
 10
84.953762506
 20
97.1983934246
 40
0.5003421232
100
AcDbArc
 50
104.718738709
 51
220.9532879726
  0
ARC
  5
367
100
AcDbEntity
  8
0
100
AcDbCircle
 62
7
  6
CONTINUOUS
 10
96.2859904071
 20
97.0647869372
 40
0.4503060812
100
AcDbArc
 50
330.1061001979
 51
89.9683946926
  0
ARC
  5
368
100
AcDbEntity
  8
0
100
AcDbCircle
 62
7
  6
CONTINUOUS
 10
99.3787205801
 20
96.7883956853
 40
0.4502203139
100
AcDbArc
 50
94.3790600739
 51
149.9127040432
  0
ARC
  5
369
100
AcDbEntity
  8
0
100
AcDbCircle
 62
7
  6
CONTINUOUS
 10
99.2184159327
 20
97.0449179999
 40
0.450023951
100
AcDbArc
 50
100.7330242497
 51
149.9621521324
  0
ARC
  5
36A
100
AcDbEntity
  8
0
100
AcDbCircle
 62
7
  6
CONTINUOUS
 10
95.5737046126
 20
91.2272018361
 40
0.4500015923
100
AcDbArc
 50
150.0028734752
 51
260.8243582002
  0
ARC
  5
36B
100
AcDbEntity
  8
0
100
AcDbCircle
 62
7
  6
CONTINUOUS
 10
93.4277155901
 20
91.7101941857
 40
0.4499782499
100
AcDbArc
 50
253.8029942929
 51
330.000460799
  0
ARC
  5
36C
100
AcDbEntity
  8
0
100
AcDbCircle
 62
7
  6
CONTINUOUS
 10
99.2120374769
 20
97.0782162633
 40
0.4161210578
100
AcDbArc
 50
93.1309716507
 51
100.7239874045
  0
ARC
  5
36D
100
AcDbEntity
  8
0
100
AcDbCircle
 62
7
  6
CONTINUOUS
 10
101.3447614692
 20
100.0935905967
 40
27.0652470119
100
AcDbArc
 50
108.0047996475
 51
108.1466112093
  0
ARC
  5
36E
100
AcDbEntity
  8
RUNDUNGEN
100
AcDbCircle
 62
9
  6
CONTINUOUS
 10
93.3292274627
 20
100.821398111
 40
26.8262582198
100
AcDbArc
 50
34.5636426549
 51
42.5239278429
  0
ARC
  5
36F
100
AcDbEntity
  8
RUNDUNGEN
100
AcDbCircle
 62
9
  6
CONTINUOUS
 10
93.0586989258
 20
100.3186965133
 40
26.3939725069
100
AcDbArc
 50
34.8866308125
 51
42.7612257578
  0
ARC
  5
370
100
AcDbEntity
  8
RUNDUNGEN
100
AcDbCircle
 62
7
  6
CONTINUOUS
 10
98.4358284501
 20
108.9521255893
 40
20.0
100
AcDbArc
 50
211.8135591252
 51
148.1864412578
  0
ARC
  5
371
100
AcDbEntity
  8
RUNDUNGEN
100
AcDbCircle
 62
7
  6
CONTINUOUS
 10
98.4358284501
 20
108.9521255893
 40
18.4045150843
100
AcDbArc
 50
22.6526517543
 51
99.1727073476
  0
ARC
  5
372
100
AcDbEntity
  8
RUNDUNGEN
100
AcDbCircle
 62
7
  6
CONTINUOUS
 10
98.4358284501
 20
108.9521255893
 40
18.4045150843
100
AcDbArc
 50
260.82729267
 51
337.3473477147
  0
ARC
  5
373
100
AcDbEntity
  8
RUNDUNGEN
100
AcDbCircle
 62
7
  6
CONTINUOUS
 10
98.4358284501
 20
108.9521255893
 40
18.4045150843
100
AcDbArc
 50
106.1965448146
 51
140.1066139026
  0
ARC
  5
374
100
AcDbEntity
  8
RUNDUNGEN
100
AcDbCircle
 62
7
  6
CONTINUOUS
 10
98.4358284501
 20
108.9521255893
 40
18.4045150843
100
AcDbArc
 50
219.893385815
 51
253.8034551834
  0
ARC
  5
375
100
AcDbEntity
  8
RUNDUNGEN
100
AcDbCircle
 62
7
  6
CONTINUOUS
 10
98.4357194966
 20
108.3260692386
 40
18.3067118496
100
AcDbArc
 50
116.3440164182
 51
133.5832433071
  0
ARC
  5
376
100
AcDbEntity
  8
RUNDUNGEN
100
AcDbCircle
 62
7
  6
CONTINUOUS
 10
98.4358234082
 20
108.9520471448
 40
17.7499215555
100
AcDbArc
 50
270.0000162752
 51
325.7060022483
  0
ARC
  5
377
100
AcDbEntity
  8
RUNDUNGEN
100
AcDbCircle
 62
7
  6
CONTINUOUS
 10
98.4358236757
 20
108.9522046725
 40
17.7499209167
100
AcDbArc
 50
34.2940071866
 51
89.9999845885
  0
ARC
  5
378
100
AcDbEntity
  8
RUNDUNGEN
100
AcDbCircle
 62
9
  6
CONTINUOUS
 10
98.4358284501
 20
108.9521255893
 40
15.7794263043
100
AcDbArc
 50
42.8906530964
 51
90.0
  0
ARC
  5
379
100
AcDbEntity
  8
RUNDUNGEN
100
AcDbCircle
 62
9
  6
CONTINUOUS
 10
98.4358284501
 20
108.9521255893
 40
15.7794263043
100
AcDbArc
 50
270.0
 51
317.1093469036
  0
ARC
  5
37A
100
AcDbEntity
  8
RUNDUNGEN
100
AcDbCircle
 62
7
  6
CONTINUOUS
 10
92.2089811275
 20
112.7244205617
 40
14.5924512101
100
AcDbArc
 50
19.7427786491
 51
21.6958215784
  0
ARC
  5
37B
100
AcDbEntity
  8
RUNDUNGEN
100
AcDbCircle
 62
7
  6
CONTINUOUS
 10
92.2089822519
 20
105.1798304703
 40
14.5924501023
100
AcDbArc
 50
338.3041773315
 51
340.2572204011
  0
ARC
  5
37C
100
AcDbEntity
  8
RUNDUNGEN
100
AcDbCircle
 62
9
  6
CONTINUOUS
 10
94.248620346
 20
111.6902688743
 40
13.448502973
100
AcDbArc
 50
135.9917757565
 51
137.6147765761
  0
ARC
  5
37D
100
AcDbEntity
  8
RUNDUNGEN
100
AcDbCircle
 62
9
  6
CONTINUOUS
 10
93.9862085071
 20
105.9675894201
 40
13.0885825348
100
AcDbArc
 50
222.3629065745
 51
224.0305410931
  0
ARC
  5
37E
100
AcDbEntity
  8
RUNDUNGEN
100
AcDbCircle
 62
7
  6
CONTINUOUS
 10
98.4358284269
 20
108.9521255277
 40
11.7500000631
100
AcDbArc
 50
53.0687193534
 51
85.565436174
  0
ARC
  5
37F
100
AcDbEntity
  8
RUNDUNGEN
100
AcDbCircle
 62
7
  6
CONTINUOUS
 10
98.435828485
 20
108.9521255029
 40
11.7499999041
100
AcDbArc
 50
274.434563582
 51
306.9312911894
  0
ARC
  5
380
100
AcDbEntity
  8
RUNDUNGEN
100
AcDbCircle
 62
9
  6
CONTINUOUS
 10
91.7285183803
 20
112.4063734278
 40
10.4268225694
100
AcDbArc
 50
131.4476722969
 51
133.6159836566
  0
ARC
  5
381
100
AcDbEntity
  8
RUNDUNGEN
100
AcDbCircle
 62
9
  6
CONTINUOUS
 10
91.4444697893
 20
105.1882352741
 40
10.0067081033
100
AcDbArc
 50
226.3384811928
 51
228.5978371531
  0
ARC
  5
382
100
AcDbEntity
  8
0
100
AcDbCircle
 62
7
  6
CONTINUOUS
 10
96.2869781449
 20
102.8134936922
 40
5.2983886399
100
AcDbArc
 50
269.1183899238
 51
269.9920049728
  0
ARC
  5
383
100
AcDbEntity
  8
0
100
AcDbCircle
 62
2
  6
CONTINUOUS
 10
109.2358284501
 20
108.9521255893
 40
4.0
100
AcDbArc
 50
255.0
 51
195.0
  0
CIRCLE
  5
384
100
AcDbEntity
  8
BEZUGSACHSEN
100
AcDbCircle
 62
7
  6
CONTINUOUS
 10
109.2358284501
 20
108.9521255893
 40
3.4
  0
ARC
  5
385
100
AcDbEntity
  8
RUNDUNGEN
100
AcDbCircle
 62
9
  6
CONTINUOUS
 10
109.2358284501
 20
108.9521255893
 40
2.5214201115
100
AcDbArc
 50
172.5839242185
 51
187.4160757815
  0
ARC
  5
386
100
AcDbEntity
  8
RUNDUNGEN
100
AcDbCircle
 62
9
  6
CONTINUOUS
 10
109.2358284501
 20
108.9521255893
 40
2.5214201115
100
AcDbArc
 50
82.5839242185
 51
97.4160757815
  0
ARC
  5
387
100
AcDbEntity
  8
RUNDUNGEN
100
AcDbCircle
 62
9
  6
CONTINUOUS
 10
109.2358284501
 20
108.9521255893
 40
2.5214201115
100
AcDbArc
 50
352.5839242185
 51
7.4160757815
  0
ARC
  5
388
100
AcDbEntity
  8
RUNDUNGEN
100
AcDbCircle
 62
9
  6
CONTINUOUS
 10
109.2358284501
 20
108.9521255893
 40
2.5214201115
100
AcDbArc
 50
262.5839242185
 51
277.4160757815
  0
ARC
  5
389
100
AcDbEntity
  8
0
100
AcDbCircle
 62
7
  6
CONTINUOUS
 10
100.213065769
 20
107.791843959
 40
0.4653802624
100
AcDbArc
 50
359.8097414304
 51
5.3297494361
  0
ARC
  5
38A
100
AcDbEntity
  8
0
100
AcDbCircle
 62
7
  6
CONTINUOUS
 10
100.213065769
 20
110.1124072196
 40
0.4653802624
100
AcDbArc
 50
354.6702504214
 51
0.1902585696
  0
ARC
  5
38B
100
AcDbEntity
  8
0
100
AcDbCircle
 62
7
  6
CONTINUOUS
 10
102.0756825475
 20
102.1858278895
 40
0.4415003558
100
AcDbArc
 50
124.1763491663
 51
149.5725661585
  0
ARC
  5
38C
100
AcDbEntity
  8
0
100
AcDbCircle
 62
9
  6
CONTINUOUS
 10
142.5454910961
 20
93.4425367056
 40
51.4832534283
100
AcDbArc
 50
147.7823610298
 51
148.1186094572
  0
ARC
  5
38D
100
AcDbEntity
  8
0
100
AcDbCircle
 62
9
  6
CONTINUOUS
 10
139.7059336045
 20
96.0882390206
 40
47.2564377619
100
AcDbArc
 50
148.660135927
 51
149.0234332401
  0
ARC
  5
38E
100
AcDbEntity
  8
0
100
AcDbCircle
 62
9
  6
CONTINUOUS
 10
148.2910102244
 20
103.7430261959
 40
59.5601203342
100
AcDbArc
 50
157.4057590304
 51
158.2292866235
  0
ARC
  5
38F
100
AcDbEntity
  8
0
100
AcDbCircle
 62
9
  6
CONTINUOUS
 10
147.7796768546
 20
113.9527360226
 40
59.0079305424
100
AcDbArc
 50
201.7668599692
 51
202.598094206
  0
ARC
  5
390
100
AcDbEntity
  8
0
100
AcDbCircle
 62
9
  6
CONTINUOUS
 10
146.5726582958
 20
105.2076334625
 40
56.8598286766
100
AcDbArc
 50
158.0963203351
 51
158.9445920316
  0
ARC
  5
391
100
AcDbEntity
  8
0
100
AcDbCircle
 62
9
  6
CONTINUOUS
 10
146.0805295713
 20
112.5029659944
 40
56.3309844646
100
AcDbArc
 50
201.0514260401
 51
201.9076615933
  0
ARC
  5
392
100
AcDbEntity
  8
RUNDUNGEN
100
AcDbCircle
 62
7
  6
CONTINUOUS
 10
114.9593459163
 20
102.0565695862
 40
0.4998804859
100
AcDbArc
 50
337.3110984189
 51
120.0159797973
  0
ARC
  5
393
100
AcDbEntity
  8
0
100
AcDbCircle
 62
9
  6
CONTINUOUS
 10
149.7064039106
 20
145.0234747863
 40
56.2770558623
100
AcDbArc
 50
207.7146031042
 51
207.9390856278
  0
ARC
  5
394
100
AcDbEntity
  8
0
100
AcDbCircle
 62
9
  6
CONTINUOUS
 10
142.5455205819
 20
124.4617329332
 40
51.483288216
100
AcDbArc
 50
211.8813906564
 51
212.2176388566
  0
ARC
  5
395
100
AcDbEntity
  8
0
100
AcDbCircle
 62
9
  6
CONTINUOUS
 10
139.7059514012
 20
121.816022915
 40
47.256458557
100
AcDbArc
 50
210.9765668365
 51
211.3398639803
  0
ARC
  5
396
100
AcDbEntity
  8
0
100
AcDbCircle
 62
9
  6
CONTINUOUS
 10
77.2464914947
 20
130.3818749607
 40
43.6043070686
100
AcDbArc
 50
294.7501272818
 51
296.3329140819
  0
ARC
  5
397
100
AcDbEntity
  8
0
100
AcDbCircle
 62
9
  6
CONTINUOUS
 10
76.8996345767
 20
129.9415605194
 40
42.6116142389
100
AcDbArc
 50
295.4100176571
 51
296.9989193196
  0
ARC
  5
398
100
AcDbEntity
  8
RUNDUNGEN
100
AcDbCircle
 62
9
  6
CONTINUOUS
 10
101.0031549503
 20
131.9992172645
 40
38.7799225511
100
AcDbArc
 50
244.9378191181
 51
246.9426835118
  0
ARC
  5
399
100
AcDbEntity
  8
RUNDUNGEN
100
AcDbCircle
 62
9
  6
CONTINUOUS
 10
100.8327160708
 20
132.5918985085
 40
38.3364869458
100
AcDbArc
 50
245.5344127119
 51
247.3888661929
  0
ARC
  5
39A
100
AcDbEntity
  8
0
100
AcDbCircle
 62
7
  6
CONTINUOUS
 10
101.3451056357
 20
117.8117448381
 40
27.0663845309
100
AcDbArc
 50
251.8534141123
 51
251.9952168846
  0
ARC
  5
39B
100
AcDbEntity
  8
RUNDUNGEN
100
AcDbCircle
 62
9
  6
CONTINUOUS
 10
93.4567695243
 20
116.9812461108
 40
26.6635863842
100
AcDbArc
 50
317.4517508896
 51
325.4606728612
  0
ARC
  5
39C
100
AcDbEntity
  8
RUNDUNGEN
100
AcDbCircle
 62
9
  6
CONTINUOUS
 10
93.1784608776
 20
117.4891812076
 40
26.2406144231
100
AcDbArc
 50
317.2157268762
 51
325.1364165535
  0
ARC
  5
39D
100
AcDbEntity
  8
0
100
AcDbCircle
 62
7
  6
CONTINUOUS
 10
96.2838941974
 20
115.4917805539
 40
4.8973668916
100
AcDbArc
 50
89.9725860836
 51
90.9193542307
  0
ARC
  5
39E
100
AcDbEntity
  8
RUNDUNGEN
100
AcDbCircle
 62
7
  6
CONTINUOUS
 10
84.9537632271
 20
120.7058579123
 40
0.5003426632
100
AcDbArc
 50
139.0467798241
 51
255.2811928415
  0
ARC
  5
39F
100
AcDbEntity
  8
RUNDUNGEN
100
AcDbCircle
 62
7
  6
CONTINUOUS
 10
114.9593443032
 20
115.8476843051
 40
0.4998818685
100
AcDbArc
 50
239.9843358468
 51
22.6885238582
  0
ARC
  5
3A0
100
AcDbEntity
  8
0
100
AcDbCircle
 62
7
  6
CONTINUOUS
 10
96.2859886343
 20
120.8394656344
 40
0.4503067467
100
AcDbArc
 50
270.0316522529
 51
29.8936336944
  0
ARC
  5
3A1
100
AcDbEntity
  8
0
100
AcDbCircle
 62
7
  6
CONTINUOUS
 10
99.2184115411
 20
120.8593251142
 40
0.4500160485
100
AcDbArc
 50
210.037238893
 51
259.2665906418
  0
ARC
  5
3A2
100
AcDbEntity
  8
0
100
AcDbCircle
 62
7
  6
CONTINUOUS
 10
95.57370444
 20
126.6770494323
 40
0.4500014714
100
AcDbArc
 50
99.1756226522
 51
209.9971474147
  0
ARC
  5
3A3
100
AcDbEntity
  8
0
100
AcDbCircle
 62
7
  6
CONTINUOUS
 10
93.4277155818
 20
126.1940569718
 40
0.4499782676
100
AcDbArc
 50
29.9995409846
 51
106.1970038609
  0
ARC
  5
3A4
100
AcDbEntity
  8
0
100
AcDbCircle
 62
7
  6
CONTINUOUS
 10
102.0756563068
 20
115.7183967986
 40
0.4414643133
100
AcDbArc
 50
210.4261940736
 51
235.8197342733
  0
ARC
  5
3A5
100
AcDbEntity
  8
0
100
AcDbCircle
 62
7
  6
CONTINUOUS
 10
99.2121231618
 20
120.8270984355
 40
0.417187671
100
AcDbArc
 50
259.2908243247
 51
266.8652534862
  0
ARC
  5
3A6
100
AcDbEntity
  8
RUNDUNGEN
100
AcDbCircle
 62
9
  6
CONTINUOUS
 10
709.7140744311
 20
-760.3982210396
 40
1066.4279143493
100
AcDbArc
 50
124.3918879386
 51
124.5121760771
  0
ARC
  5
3A7
100
AcDbEntity
  8
0
100
AcDbCircle
 62
9
  6
CONTINUOUS
 10
761.8197361007
 20
-282.1334633029
 40
766.2923334225
100
AcDbArc
 50
149.6328072269
 51
150.1137603846
  0
ARC
  5
3A8
100
AcDbEntity
  8
0
100
AcDbCircle
 62
7
  6
CONTINUOUS
 10
378.638126462
 20
-56.9359016825
 40
319.5128073057
100
AcDbArc
 50
150.0850827784
 51
150.6815296603
  0
ARC
  5
3A9
100
AcDbEntity
  8
RUNDUNGEN
100
AcDbCircle
 62
9
  6
CONTINUOUS
 10
669.4924695629
 20
919.6745816988
 40
995.3293835828
100
AcDbArc
 50
235.4835276185
 51
235.612408212
  0
ARC
  5
3AA
100
AcDbEntity
  8
0
100
AcDbCircle
 62
9
  6
CONTINUOUS
 10
690.5518287549
 20
458.6873399912
 40
683.8979800649
100
AcDbArc
 50
209.866142876
 51
210.3966449477
  0
ARC
  5
3AB
100
AcDbEntity
  8
0
100
AcDbCircle
 62
7
  6
CONTINUOUS
 10
422.795641287
 20
299.9297719847
 40
370.2997131587
100
AcDbArc
 50
209.3453454433
 51
209.8723525792
  0
ARC
  5
3AC
100
AcDbEntity
  8
0
100
AcDbCircle
 62
9
  6
CONTINUOUS
 10
273.9659426512
 20
214.2658733725
 40
198.5328926596
100
AcDbArc
 50
209.7344348424
 51
209.8821804676
  0
ARC
  5
3AD
100
AcDbEntity
  8
AUSFORMSCHRAEGEN
100
AcDbCircle
 62
7
  6
CONTINUOUS
 10
281.4524116861
 20
109.057060257
 40
170.934384942
100
AcDbArc
 50
180.4668626158
 51
181.0856055503
  0
ARC
  5
3AE
100
AcDbEntity
  8
AUSFORMSCHRAEGEN
100
AcDbCircle
 62
7
  6
CONTINUOUS
 10
279.0689564448
 20
108.8794802972
 40
168.5507462466
100
AcDbArc
 50
178.9100230099
 51
179.5375114468
  0
SPLINE
  5
3AF
100
AcDbEntity
  8
RUNDUNGEN
100
AcDbSpline
 62
9
  6
CONTINUOUS
 70
0
 71
3
 72
9
 73
5
 74
0
 42
0.0000001
 43
0.0000001
 44
0.0000000001
 40
0.0
 40
0.0
 40
0.0
 40
0.0
 40
0.2385210077
 40
1.0
 40
1.0
 40
1.0
 40
1.0
 10
81.4377822902
 20
174.6340605153
 30
0.0
 10
81.4377818792
 20
174.6848890405
 30
0.0
 10
81.4528918778
 20
174.8980738845
 30
0.0
 10
81.5246152366
 20
175.1042612562
 30
0.0
 10
81.5957792335
 20
175.2500944031
 30
0.0
  0
SPLINE
  5
3B0
100
AcDbEntity
  8
RUNDUNGEN
100
AcDbSpline
 62
9
  6
CONTINUOUS
 70
0
 71
3
 72
9
 73
5
 74
0
 42
0.0000001
 43
0.0000001
 44
0.0000000001
 40
0.0
 40
0.0
 40
0.0
 40
0.0
 40
0.505556638
 40
1.0
 40
1.0
 40
1.0
 40
1.0
 10
81.8797305049
 20
173.3780967981
 30
0.0
 10
81.7809527422
 20
173.5169371743
 30
0.0
 10
81.6269895775
 20
173.8227608147
 30
0.0
 10
81.5567682475
 20
174.1555834215
 30
0.0
 10
81.5391189894
 20
174.3212933411
 30
0.0
  0
SPLINE
  5
3B1
100
AcDbEntity
  8
RUNDUNGEN
100
AcDbSpline
 62
9
  6
CONTINUOUS
 70
0
 71
3
 72
9
 73
5
 74
0
 42
0.0000001
 43
0.0000001
 44
0.0000000001
 40
0.0
 40
0.0
 40
0.0
 40
0.0
 40
0.7486183754
 40
1.0
 40
1.0
 40
1.0
 40
1.0
 10
81.5391189894
 20
174.3212933411
 30
0.0
 10
81.5288504448
 20
174.4177053085
 30
0.0
 10
81.5228202184
 20
174.5474494639
 30
0.0
 10
81.5258203202
 20
174.6769322101
 30
0.0
 10
81.5271207382
 20
174.7094639042
 30
0.0
  0
SPLINE
  5
3B2
100
AcDbEntity
  8
RUNDUNGEN
100
AcDbSpline
 62
9
  6
CONTINUOUS
 70
0
 71
3
 72
9
 73
5
 74
0
 42
0.0000001
 43
0.0000001
 44
0.0000000001
 40
0.0
 40
0.0
 40
0.0
 40
0.0
 40
0.2482904728
 40
1.0
 40
1.0
 40
1.0
 40
1.0
 10
81.5407894474
 20
174.899593799
 30
0.0
 10
81.5437988281
 20
174.9288102132
 30
0.0
 10
81.5575468126
 20
175.0463096945
 30
0.0
 10
81.5775950229
 20
175.1630516837
 30
0.0
 10
81.5957792335
 20
175.2500944031
 30
0.0
  0
SPLINE
  5
3B3
100
AcDbEntity
  8
RUNDUNGEN
100
AcDbSpline
 62
9
  6
CONTINUOUS
 70
0
 71
3
 72
9
 73
5
 74
0
 42
0.0000001
 43
0.0000001
 44
0.0000000001
 40
0.0
 40
0.0
 40
0.0
 40
0.0
 40
0.2494454604
 40
1.0
 40
1.0
 40
1.0
 40
1.0
 10
81.4404683672
 20
252.2500944031
 30
0.0
 10
81.4648076551
 20
251.8672117811
 30
0.0
 10
81.5522670684
 20
250.33168231
 30
0.0
 10
81.5957838552
 20
248.7933940771
 30
0.0
 10
81.5957792335
 20
247.6390161302
 30
0.0
  0
SPLINE
  5
3B4
100
AcDbEntity
  8
RUNDUNGEN
100
AcDbSpline
 62
9
  6
CONTINUOUS
 70
0
 71
3
 72
9
 73
5
 74
0
 42
0.0000001
 43
0.0000001
 44
0.0000000001
 40
0.0
 40
0.0
 40
0.0
 40
0.0
 40
0.5000339858
 40
1.0
 40
1.0
 40
1.0
 40
1.0
 10
84.5089839028
 20
172.2500944614
 30
0.0
 10
84.083665894
 20
172.2501672916
 30
0.0
 10
83.22672369
 20
172.3865539603
 30
0.0
 10
82.4641909439
 20
172.8132135535
 30
0.0
 10
82.1414750602
 20
173.0901624586
 30
0.0
  0
SPLINE
  5
3B5
100
AcDbEntity
  8
RUNDUNGEN
100
AcDbSpline
 62
7
  6
CONTINUOUS
 70
0
 71
3
 72
21
 73
17
 74
0
 42
0.0000001
 43
0.0000001
 44
0.0000000001
 40
0.0
 40
0.0
 40
0.0
 40
0.0
 40
0.1248013601
 40
0.1873522285
 40
0.2498992035
 40
0.3124369882
 40
0.3749654845
 40
0.4374853425
 40
0.5000000675
 40
0.5625147795
 40
0.6250346091
 40
0.6875630714
 40
0.7501008274
 40
0.8126477852
 40
0.8751986447
 40
1.0
 40
1.0
 40
1.0
 40
1.0
 10
82.0955077992
 20
99.9229538743
 30
0.0
 10
83.1832870801
 20
100.1325727134
 30
0.0
 10
84.7864378351
 20
100.676658109
 30
0.0
 10
86.6819926977
 20
101.8412965699
 30
0.0
 10
87.9515090348
 20
102.9316889509
 30
0.0
 10
89.0170318693
 20
104.22277483
 30
0.0
 10
89.8290855487
 20
105.6880018064
 30
0.0
 10
90.3400610453
 20
107.2844187117
 30
0.0
 10
90.5147987935
 20
108.9521270166
 30
0.0
 10
90.3400605831
 20
110.6198350202
 30
0.0
 10
89.8290848056
 20
112.2162511215
 30
0.0
 10
89.0170312607
 20
113.6814772262
 30
0.0
 10
87.9515087678
 20
114.9725624511
 30
0.0
 10
86.6819928093
 20
116.0629545129
 30
0.0
 10
84.7864382169
 20
117.2275928864
 30
0.0
 10
83.1832875856
 20
117.7716782833
 30
0.0
 10
82.0955083461
 20
117.9812971148
 30
0.0
  0
SPLINE
  5
3B6
100
AcDbEntity
  8
RUNDUNGEN
100
AcDbSpline
 62
7
  6
CONTINUOUS
 70
0
 71
3
 72
11
 73
7
 74
0
 42
0.0000001
 43
0.0000001
 44
0.0000000001
 40
0.0
 40
0.0
 40
0.0
 40
0.0
 40
0.2500866376
 40
0.500068343
 40
0.7500086865
 40
1.0
 40
1.0
 40
1.0
 40
1.0
 10
81.4404689028
 20
119.4952637735
 30
0.0
 10
81.3560996892
 20
119.3592614096
 30
0.0
 10
81.2515139675
 20
119.0414215731
 30
0.0
 10
81.3335447321
 20
118.5498519724
 30
0.0
 10
81.6341327057
 20
118.1519442724
 30
0.0
 10
81.9384133237
 20
118.0115698405
 30
0.0
 10
82.0955083461
 20
117.9812971148
 30
0.0
  0
SPLINE
  5
3B7
100
AcDbEntity
  8
RUNDUNGEN
100
AcDbSpline
 62
7
  6
CONTINUOUS
 70
0
 71
3
 72
11
 73
7
 74
0
 42
0.0000001
 43
0.0000001
 44
0.0000000001
 40
0.0
 40
0.0
 40
0.0
 40
0.0
 40
0.2499518656
 40
0.4999058828
 40
0.7499050909
 40
1.0
 40
1.0
 40
1.0
 40
1.0
 10
82.0955077992
 20
99.9229538743
 30
0.0
 10
81.9384375149
 20
99.8926859152
 30
0.0
 10
81.6341697325
 20
99.7523365813
 30
0.0
 10
81.3335609192
 20
99.3544469805
 30
0.0
 10
81.2515075658
 20
98.8628523818
 30
0.0
 10
81.3560969461
 20
98.5449942004
 30
0.0
 10
81.4404689541
 20
98.4089872796
 30
0.0
  0
SPLINE
  5
3B8
100
AcDbEntity
  8
0
100
AcDbSpline
 62
7
  6
CONTINUOUS
 70
0
 71
3
 72
9
 73
5
 74
0
 42
0.0000001
 43
0.0000001
 44
0.0000000001
 40
0.0
 40
0.0
 40
0.0
 40
0.0
 40
0.1995369387
 40
1.0
 40
1.0
 40
1.0
 40
1.0
 10
98.114858961
 20
118.6991811633
 30
0.0
 10
98.2826118821
 20
118.4159009894
 30
0.0
 10
99.1203456082
 20
116.9944502534
 30
0.0
 10
99.9483464568
 20
115.5672824536
 30
0.0
 10
100.6083052705
 20
114.4232765238
 30
0.0
  0
LINE
  5
3B9
100
AcDbEntity
  8
0
100
AcDbLine
 62
7
  6
CONTINUOUS
 10
100.0121619833
 20
118.4560740171
 11
99.9187742274
 21
118.6228908031
  0
LINE
  5
3BA
100
AcDbEntity
  8
0
100
AcDbLine
 62
7
  6
CONTINUOUS
 10
99.9187742274
 20
118.6228908031
 11
99.8186197817
 21
118.8022665502
  0
SPLINE
  5
3BB
100
AcDbEntity
  8
0
100
AcDbSpline
 62
7
  6
CONTINUOUS
 70
0
 71
3
 72
9
 73
5
 74
0
 42
0.0000001
 43
0.0000001
 44
0.0000000001
 40
0.0
 40
0.0
 40
0.0
 40
0.0
 40
0.2535082118
 40
1.0
 40
1.0
 40
1.0
 40
1.0
 10
98.9891617816
 20
120.8901515421
 30
0.0
 10
98.9242229802
 20
121.0107330267
 30
0.0
 10
98.6681464438
 20
121.4864294661
 30
0.0
 10
98.4123728816
 20
121.9622889709
 30
0.0
 10
98.2215719856
 20
122.3175850085
 30
0.0
  0
LINE
  5
3BC
100
AcDbEntity
  8
0
100
AcDbLine
 62
7
  6
CONTINUOUS
 10
98.2215719856
 20
122.3175850085
 11
98.2178589778
 21
122.3244991515
  0
LINE
  5
3BD
100
AcDbEntity
  8
0
100
AcDbLine
 62
7
  6
CONTINUOUS
 10
98.2178589778
 20
122.3244991515
 11
98.0461318575
 21
122.6443650484
  0
LINE
  5
3BE
100
AcDbEntity
  8
0
100
AcDbLine
 62
7
  6
CONTINUOUS
 10
99.8564387221
 20
99.1697783837
 11
99.9545886459
 21
99.3453800279
  0
LINE
  5
3BF
100
AcDbEntity
  8
0
100
AcDbLine
 62
7
  6
CONTINUOUS
 10
99.9545886459
 20
99.3453800279
 11
100.0512463145
 21
99.5178750124
  0
LINE
  5
3C0
100
AcDbEntity
  8
0
100
AcDbLine
 62
7
  6
CONTINUOUS
 10
98.0461318575
 20
95.2598861301
 11
98.2215192262
 21
95.5865678864
  0
LINE
  5
3C1
100
AcDbEntity
  8
0
100
AcDbLine
 62
7
  6
CONTINUOUS
 10
98.2215192262
 20
95.5865678864
 11
98.2242079954
 21
95.5915747037
  0
SPLINE
  5
3C2
100
AcDbEntity
  8
0
100
AcDbSpline
 62
7
  6
CONTINUOUS
 70
0
 71
3
 72
9
 73
5
 74
0
 42
0.0000001
 43
0.0000001
 44
0.0000000001
 40
0.0
 40
0.0
 40
0.0
 40
0.0
 40
0.2467458625
 40
1.0
 40
1.0
 40
1.0
 40
1.0
 10
98.2242079954
 20
95.5915747037
 30
0.0
 10
98.2870590387
 20
95.7086105405
 30
0.0
 10
98.5418373888
 20
96.1828963844
 30
0.0
 10
98.7968712485
 20
96.6570450053
 30
0.0
 10
98.9891617816
 20
97.0140996365
 30
0.0
  0
SPLINE
  5
3C3
100
AcDbEntity
  8
0
100
AcDbSpline
 62
7
  6
CONTINUOUS
 70
0
 71
3
 72
9
 73
5
 74
0
 42
0.0000001
 43
0.0000001
 44
0.0000000001
 40
0.0
 40
0.0
 40
0.0
 40
0.0
 40
0.2909270559
 40
1.0
 40
1.0
 40
1.0
 40
1.0
 10
100.6083052706
 20
103.4809746548
 30
0.0
 10
100.3633604005
 20
103.0563708202
 30
0.0
 10
99.5197749994
 20
101.5978361088
 30
0.0
 10
98.6705769587
 20
100.1425167624
 30
0.0
 10
98.0613626774
 20
99.1147772664
 30
0.0
  0
SPLINE
  5
3C4
100
AcDbEntity
  8
RUNDUNGEN
100
AcDbSpline
 62
7
  6
CONTINUOUS
 70
0
 71
3
 72
13
 73
9
 74
0
 42
0.0000001
 43
0.0000001
 44
0.0000000001
 40
0.0
 40
0.0
 40
0.0
 40
0.0
 40
0.2498397755
 40
0.4995365577
 40
0.62466486
 40
0.7497835741
 40
0.8748961437
 40
1.0
 40
1.0
 40
1.0
 40
1.0
 10
84.5358714905
 20
119.9551787735
 30
0.0
 10
85.647537172
 20
119.5944703223
 30
0.0
 10
87.7950581068
 20
118.608867395
 30
0.0
 10
90.0840480669
 20
116.7310293357
 30
0.0
 10
91.5378803814
 20
114.8893419008
 30
0.0
 10
92.4070724254
 20
113.3550137312
 30
0.0
 10
93.0181730584
 20
111.7009443006
 30
0.0
 10
93.2351678274
 20
110.5438707653
 30
0.0
 10
93.2931484477
 20
109.961528456
 30
0.0
  0
SPLINE
  5
3C5
100
AcDbEntity
  8
RUNDUNGEN
100
AcDbSpline
 62
9
  6
CONTINUOUS
 70
0
 71
3
 72
13
 73
9
 74
0
 42
0.0000001
 43
0.0000001
 44
0.0000000001
 40
0.0
 40
0.0
 40
0.0
 40
0.0
 40
0.1256741489
 40
0.2516554042
 40
0.4999514182
 40
0.7482881438
 40
0.8743023821
 40
1.0
 40
1.0
 40
1.0
 40
1.0
 10
113.0998816258
 20
98.9508562877
 30
0.0
 10
113.1312295757
 20
98.9968768678
 30
0.0
 10
113.1785319854
 20
99.1006629859
 30
0.0
 10
113.2001054321
 20
99.3245567214
 30
0.0
 10
113.0821006763
 20
99.5991227118
 30
0.0
 10
112.8171347203
 20
99.737343174
 30
0.0
 10
112.5922154653
 20
99.7326615169
 30
0.0
 10
112.4851378882
 20
99.6933046577
 30
0.0
 10
112.4368764133
 20
99.6655094074
 30
0.0
  0
SPLINE
  5
3C6
100
AcDbEntity
  8
RUNDUNGEN
100
AcDbSpline
 62
9
  6
CONTINUOUS
 70
0
 71
3
 72
9
 73
5
 74
0
 42
0.0000001
 43
0.0000001
 44
0.0000000001
 40
0.0
 40
0.0
 40
0.0
 40
0.0
 40
0.2556710951
 40
1.0
 40
1.0
 40
1.0
 40
1.0
 10
109.9966844896
 20
98.2126292167
 30
0.0
 10
110.0035524756
 20
98.2232074685
 30
0.0
 10
110.0325717445
 20
98.2631306372
 30
0.0
 10
110.0707291934
 20
98.2964929017
 30
0.0
 10
110.1022726664
 20
98.3152864975
 30
0.0
  0
SPLINE
  5
3C7
100
AcDbEntity
  8
RUNDUNGEN
100
AcDbSpline
 62
9
  6
CONTINUOUS
 70
0
 71
3
 72
9
 73
5
 74
0
 42
0.0000001
 43
0.0000001
 44
0.0000000001
 40
0.0
 40
0.0
 40
0.0
 40
0.0
 40
0.2558193021
 40
1.0
 40
1.0
 40
1.0
 40
1.0
 10
109.801747024
 20
98.1079279299
 30
0.0
 10
109.808365695
 20
98.1180146944
 30
0.0
 10
109.8362641639
 20
98.156066205
 30
0.0
 10
109.8727597642
 20
98.187896319
 30
0.0
 10
109.9028984703
 20
98.2058781985
 30
0.0
  0
SPLINE
  5
3C8
100
AcDbEntity
  8
RUNDUNGEN
100
AcDbSpline
 62
9
  6
CONTINUOUS
 70
0
 71
3
 72
9
 73
5
 74
0
 42
0.0000001
 43
0.0000001
 44
0.0000000001
 40
0.0
 40
0.0
 40
0.0
 40
0.0
 40
0.5045762531
 40
1.0
 40
1.0
 40
1.0
 40
1.0
 10
107.3420788255
 20
98.2931112749
 30
0.0
 10
107.4174378142
 20
98.3582712474
 30
0.0
 10
107.6101296965
 20
98.4454747633
 30
0.0
 10
107.8182720177
 20
98.4021839998
 30
0.0
 10
107.9032025078
 20
98.3536574631
 30
0.0
  0
SPLINE
  5
3C9
100
AcDbEntity
  8
RUNDUNGEN
100
AcDbSpline
 62
9
  6
CONTINUOUS
 70
0
 71
3
 72
13
 73
9
 74
0
 42
0.0000001
 43
0.0000001
 44
0.0000000001
 40
0.0
 40
0.0
 40
0.0
 40
0.0
 40
0.1256742696
 40
0.2516556959
 40
0.4999514906
 40
0.7482878692
 40
0.8743022663
 40
1.0
 40
1.0
 40
1.0
 40
1.0
 10
113.0999096166
 20
118.9534139807
 30
0.0
 10
113.1312667719
 20
118.9073928158
 30
0.0
 10
113.178585317
 20
118.8036005542
 30
0.0
 10
113.2001763075
 20
118.5796849452
 30
0.0
 10
113.0821651234
 20
118.3050851578
 30
0.0
 10
112.8171643967
 20
118.1668566699
 30
0.0
 10
112.5922218273
 20
118.1715594797
 30
0.0
 10
112.4851381486
 20
118.2109356233
 30
0.0
 10
112.4368764134
 20
118.2387417713
 30
0.0
  0
LINE
  5
3CA
100
AcDbEntity
  8
0
100
AcDbLine
 62
7
  6
CONTINUOUS
 10
96.588756065
 20
126.6019411836
 11
96.6083326715
 21
126.6040077525
  0
SPLINE
  5
3CB
100
AcDbEntity
  8
RUNDUNGEN
100
AcDbSpline
 62
9
  6
CONTINUOUS
 70
0
 71
3
 72
9
 73
5
 74
0
 42
0.0000001
 43
0.0000001
 44
0.0000000001
 40
0.0
 40
0.0
 40
0.0
 40
0.0
 40
0.2556748644
 40
1.0
 40
1.0
 40
1.0
 40
1.0
 10
109.9966872798
 20
119.6916245548
 30
0.0
 10
110.0035549286
 20
119.6810458694
 30
0.0
 10
110.0325725893
 20
119.6411215801
 30
0.0
 10
110.0707293492
 20
119.6077581414
 30
0.0
 10
110.1022726658
 20
119.5889646799
 30
0.0
  0
SPLINE
  5
3CC
100
AcDbEntity
  8
RUNDUNGEN
100
AcDbSpline
 62
9
  6
CONTINUOUS
 70
0
 71
3
 72
9
 73
5
 74
0
 42
0.0000001
 43
0.0000001
 44
0.0000000001
 40
0.0
 40
0.0
 40
0.0
 40
0.0
 40
0.2558158948
 40
1.0
 40
1.0
 40
1.0
 40
1.0
 10
109.8017446626
 20
119.7963209953
 30
0.0
 10
109.8083642288
 20
119.7862352867
 30
0.0
 10
109.8362663522
 20
119.748187558
 30
0.0
 10
109.872764376
 20
119.7163619105
 30
0.0
 10
109.9029041156
 20
119.698382761
 30
0.0
  0
SPLINE
  5
3CD
100
AcDbEntity
  8
RUNDUNGEN
100
AcDbSpline
 62
9
  6
CONTINUOUS
 70
0
 71
3
 72
9
 73
5
 74
0
 42
0.0000001
 43
0.0000001
 44
0.0000000001
 40
0.0
 40
0.0
 40
0.0
 40
0.0
 40
0.5045762646
 40
1.0
 40
1.0
 40
1.0
 40
1.0
 10
107.3420792036
 20
119.6111403561
 30
0.0
 10
107.4174380404
 20
119.545980083
 30
0.0
 10
107.6101298422
 20
119.458775904
 30
0.0
 10
107.8182724687
 20
119.5020662477
 30
0.0
 10
107.9032031084
 20
119.5505926752
 30
0.0
  0
SPLINE
  5
3CE
100
AcDbEntity
  8
RUNDUNGEN
100
AcDbSpline
 62
9
  6
CONTINUOUS
 70
0
 71
3
 72
12
 73
8
 74
0
 42
0.0000001
 43
0.0000001
 44
0.0000000001
 40
0.0
 40
0.0
 40
0.0
 40
0.0
 40
0.1908532498
 40
0.3992232527
 40
0.64455663
 40
0.797537181
 40
1.0
 40
1.0
 40
1.0
 40
1.0
 10
107.9032030837
 20
98.3536584606
 30
0.0
 10
108.0133100968
 20
98.2771542862
 30
0.0
 10
108.2592066785
 20
98.1381733957
 30
0.0
 10
108.6937651884
 20
97.9993622154
 30
0.0
 10
109.1252974196
 20
97.9733461258
 30
0.0
 10
109.5430223217
 20
98.0448064418
 30
0.0
 10
109.7778630667
 20
98.1380835367
 30
0.0
 10
109.902898474
 20
98.205878192
 30
0.0
  0
SPLINE
  5
3CF
100
AcDbEntity
  8
RUNDUNGEN
100
AcDbSpline
 62
9
  6
CONTINUOUS
 70
0
 71
3
 72
11
 73
7
 74
0
 42
0.0000001
 43
0.0000001
 44
0.0000000001
 40
0.0
 40
0.0
 40
0.0
 40
0.0
 40
0.35420788
 40
0.6000119609
 40
0.808781401
 40
1.0
 40
1.0
 40
1.0
 40
1.0
 10
109.902898474
 20
119.6983729866
 30
0.0
 10
109.684569022
 20
119.8167688502
 30
0.0
 10
109.266389696
 20
119.9403639409
 30
0.0
 10
108.6940909121
 20
119.9047318281
 30
0.0
 10
108.2591442535
 20
119.7661207848
 30
0.0
 10
108.013311555
 20
119.6271007336
 30
0.0
 10
107.9032030837
 20
119.5505927179
 30
0.0
  0
SPLINE
  5
3D0
100
AcDbEntity
  8
RUNDUNGEN
100
AcDbSpline
 62
7
  6
CONTINUOUS
 70
0
 71
3
 72
11
 73
7
 74
0
 42
0.0000001
 43
0.0000001
 44
0.0000000001
 40
0.0
 40
0.0
 40
0.0
 40
0.0
 40
0.2499894507
 40
0.4998789201
 40
0.749861243
 40
1.0
 40
1.0
 40
1.0
 40
1.0
 10
84.5358714905
 20
119.9551787735
 30
0.0
 10
84.4589721026
 20
119.9801307789
 30
0.0
 10
84.3151645638
 20
120.0702121274
 30
0.0
 10
84.1927034131
 20
120.2909210035
 30
0.0
 10
84.1878652715
 20
120.542804436
 30
0.0
 10
84.2632805772
 20
120.6939995878
 30
0.0
 10
84.3151631523
 20
120.75606509
 30
0.0
  0
SPLINE
  5
3D1
100
AcDbEntity
  8
RUNDUNGEN
100
AcDbSpline
 62
7
  6
CONTINUOUS
 70
0
 71
3
 72
11
 73
7
 74
0
 42
0.0000001
 43
0.0000001
 44
0.0000000001
 40
0.0
 40
0.0
 40
0.0
 40
0.0
 40
0.2501526664
 40
0.5001506874
 40
0.7500266844
 40
1.0
 40
1.0
 40
1.0
 40
1.0
 10
84.3151631076
 20
97.1481861694
 30
0.0
 10
84.2632775991
 20
97.2102551088
 30
0.0
 10
84.1878573298
 20
97.3614609065
 30
0.0
 10
84.1927132311
 20
97.6133499901
 30
0.0
 10
84.3151745074
 20
97.8340520142
 30
0.0
 10
84.458977152
 20
97.9241220882
 30
0.0
 10
84.5358716027
 20
97.9490724681
 30
0.0
  0
SPLINE
  5
3D2
100
AcDbEntity
  8
RUNDUNGEN
100
AcDbSpline
 62
7
  6
CONTINUOUS
 70
0
 71
3
 72
9
 73
5
 74
0
 42
0.0000001
 43
0.0000001
 44
0.0000000001
 40
0.0
 40
0.0
 40
0.0
 40
0.0
 40
0.3400049288
 40
1.0
 40
1.0
 40
1.0
 40
1.0
 10
84.8266316446
 20
97.6823425654
 30
0.0
 10
84.8409180431
 20
97.6860980196
 30
0.0
 10
84.8834788963
 20
97.6951047552
 30
0.0
 10
84.9271188824
 20
97.6980980653
 30
0.0
 10
84.955789135
 20
97.6976379105
 30
0.0
  0
LINE
  5
3D3
100
AcDbEntity
  8
0
100
AcDbLine
 62
7
  6
CONTINUOUS
 10
96.6091093433
 20
91.3001616208
 11
96.5887565545
 21
91.3023102588
  0
SPLINE
  5
3D4
100
AcDbEntity
  8
RUNDUNGEN
100
AcDbSpline
 62
9
  6
CONTINUOUS
 70
0
 71
3
 72
9
 73
5
 74
0
 42
0.0000001
 43
0.0000001
 44
0.0000000001
 40
0.0
 40
0.0
 40
0.0
 40
0.0
 40
0.2483392206
 40
1.0
 40
1.0
 40
1.0
 40
1.0
 10
107.9032030837
 20
119.5505927179
 30
0.0
 10
107.7264986992
 20
119.4319733417
 30
0.0
 10
107.0148940375
 20
118.9544125306
 30
0.0
 10
106.303019708
 20
118.4772533624
 30
0.0
 10
105.7676962889
 20
118.1189432924
 30
0.0
  0
SPLINE
  5
3D5
100
AcDbEntity
  8
RUNDUNGEN
100
AcDbSpline
 62
7
  6
CONTINUOUS
 70
0
 71
3
 72
11
 73
7
 74
0
 42
0.0000001
 43
0.0000001
 44
0.0000000001
 40
0.0
 40
0.0
 40
0.0
 40
0.0
 40
0.0442092291
 40
0.1567598296
 40
0.3866589125
 40
1.0
 40
1.0
 40
1.0
 40
1.0
 10
105.7676963111
 20
118.1189432246
 30
0.0
 10
105.7657695962
 20
118.1237858557
 30
0.0
 10
105.7512655889
 20
118.1365363519
 30
0.0
 10
105.7192008819
 20
118.1678386776
 30
0.0
 10
105.631498486
 20
118.2398375259
 30
0.0
 10
105.55369407
 20
118.301121114
 30
0.0
 10
105.4958949704
 20
118.34456727
 30
0.0
  0
SPLINE
  5
3D6
100
AcDbEntity
  8
0
100
AcDbSpline
 62
7
  6
CONTINUOUS
 70
0
 71
3
 72
10
 73
6
 74
0
 42
0.0000001
 43
0.0000001
 44
0.0000000001
 40
0.0
 40
0.0
 40
0.0
 40
0.0
 40
0.4706864545
 40
0.7360151579
 40
1.0
 40
1.0
 40
1.0
 40
1.0
 10
99.1893095224
 20
120.4105350061
 30
0.0
 10
100.3498913241
 20
120.3468949951
 30
0.0
 10
102.1628785452
 20
119.9456377293
 30
0.0
 10
104.3860880702
 20
118.8525349096
 30
0.0
 10
105.4505898461
 20
118.0801453437
 30
0.0
 10
105.9436675906
 20
117.6537227517
 30
0.0
  0
SPLINE
  5
3D7
100
AcDbEntity
  8
RUNDUNGEN
100
AcDbSpline
 62
7
  6
CONTINUOUS
 70
0
 71
3
 72
11
 73
7
 74
0
 42
0.0000001
 43
0.0000001
 44
0.0000000001
 40
0.0
 40
0.0
 40
0.0
 40
0.0
 40
0.6133561146
 40
0.8432456723
 40
0.9557920837
 40
1.0
 40
1.0
 40
1.0
 40
1.0
 10
105.4958966613
 20
99.5596851867
 30
0.0
 10
105.5536968178
 20
99.6031321535
 30
0.0
 10
105.6315012048
 20
99.6644158367
 30
0.0
 10
105.7192030874
 20
99.7364144671
 30
0.0
 10
105.7512662886
 20
99.7677154428
 30
0.0
 10
105.7657696711
 20
99.7804654593
 30
0.0
 10
105.767696293
 20
99.7853079267
 30
0.0
  0
SPLINE
  5
3D8
100
AcDbEntity
  8
0
100
AcDbSpline
 62
7
  6
CONTINUOUS
 70
0
 71
3
 72
10
 73
6
 74
0
 42
0.0000001
 43
0.0000001
 44
0.0000000001
 40
0.0
 40
0.0
 40
0.0
 40
0.0
 40
0.2639851315
 40
0.5293141225
 40
1.0
 40
1.0
 40
1.0
 40
1.0
 10
105.9436675906
 20
100.2505284269
 30
0.0
 10
105.4505893041
 20
99.8241053661
 30
0.0
 10
104.3860862981
 20
99.0517150192
 30
0.0
 10
102.1628764013
 20
97.9586128602
 30
0.0
 10
100.3498899215
 20
97.5573561069
 30
0.0
 10
99.1893095392
 20
97.4937161738
 30
0.0
  0
SPLINE
  5
3D9
100
AcDbEntity
  8
0
100
AcDbSpline
 62
9
  6
CONTINUOUS
 70
0
 71
3
 72
10
 73
6
 74
0
 42
0.0000001
 43
0.0000001
 44
0.0000000001
 40
0.0
 40
0.0
 40
0.0
 40
0.0
 40
0.6490736914
 40
0.8545149551
 40
1.0
 40
1.0
 40
1.0
 40
1.0
 10
99.8857264354
 20
118.8508342539
 30
0.0
 10
99.710884878
 20
119.18372328
 30
0.0
 10
99.4841263235
 20
119.6240259277
 30
0.0
 10
99.2415946259
 20
120.1501615978
 30
0.0
 10
99.1636585085
 20
120.3380647291
 30
0.0
 10
99.1345996907
 20
120.4171769012
 30
0.0
  0
SPLINE
  5
3DA
100
AcDbEntity
  8
0
100
AcDbSpline
 62
7
  6
CONTINUOUS
 70
0
 71
3
 72
10
 73
6
 74
0
 42
0.0000001
 43
0.0000001
 44
0.0000000001
 40
0.0
 40
0.0
 40
0.0
 40
0.0
 40
0.3263217344
 40
0.5768326491
 40
1.0
 40
1.0
 40
1.0
 40
1.0
 10
101.8276523385
 20
115.3531923047
 30
0.0
 10
101.8731332724
 20
115.3222874976
 30
0.0
 10
101.9654336304
 20
115.2829782393
 30
0.0
 10
102.1353770278
 20
115.2726915424
 30
0.0
 10
102.2481508432
 20
115.3110944186
 30
0.0
 10
102.3085178934
 20
115.3490477483
 30
0.0
  0
SPLINE
  5
3DB
100
AcDbEntity
  8
0
100
AcDbSpline
 62
9
  6
CONTINUOUS
 70
0
 71
3
 72
9
 73
5
 74
0
 42
0.0000001
 43
0.0000001
 44
0.0000000001
 40
0.0
 40
0.0
 40
0.0
 40
0.0
 40
0.5818247401
 40
1.0
 40
1.0
 40
1.0
 40
1.0
 10
101.5731639819
 20
115.7974046606
 30
0.0
 10
101.2588024478
 20
116.3478233808
 30
0.0
 10
100.723292582
 20
117.2966027116
 30
0.0
 10
100.2020642695
 20
118.2533403408
 30
0.0
 10
99.9886518928
 20
118.6558402541
 30
0.0
  0
SPLINE
  5
3DC
100
AcDbEntity
  8
0
100
AcDbSpline
 62
9
  6
CONTINUOUS
 70
0
 71
3
 72
10
 73
6
 74
0
 42
0.0000001
 43
0.0000001
 44
0.0000000001
 40
0.0
 40
0.0
 40
0.0
 40
0.0
 40
0.1435361468
 40
0.3478147014
 40
1.0
 40
1.0
 40
1.0
 40
1.0
 10
99.1346065115
 20
97.4870697582
 30
0.0
 10
99.1645869395
 20
97.5686786766
 30
0.0
 10
99.2455510522
 20
97.7633282306
 30
0.0
 10
99.4998791707
 20
98.3131043812
 30
0.0
 10
99.7383821992
 20
98.7740857086
 30
0.0
 10
99.9225907734
 20
99.1235440369
 30
0.0
  0
SPLINE
  5
3DD
100
AcDbEntity
  8
0
100
AcDbSpline
 62
9
  6
CONTINUOUS
 70
0
 71
3
 72
9
 73
5
 74
0
 42
0.0000001
 43
0.0000001
 44
0.0000000001
 40
0.0
 40
0.0
 40
0.0
 40
0.0
 40
0.4204342495
 40
1.0
 40
1.0
 40
1.0
 40
1.0
 10
100.0233228678
 20
99.3137565964
 30
0.0
 10
100.2389831817
 20
99.7191966762
 30
0.0
 10
100.7624761771
 20
100.6779191196
 30
0.0
 10
101.2998898778
 20
101.6288721375
 30
0.0
 10
101.6140823406
 20
102.178442333
 30
0.0
  0
SPLINE
  5
3DE
100
AcDbEntity
  8
0
100
AcDbSpline
 62
7
  6
CONTINUOUS
 70
0
 71
3
 72
10
 73
6
 74
0
 42
0.0000001
 43
0.0000001
 44
0.0000000001
 40
0.0
 40
0.0
 40
0.0
 40
0.0
 40
0.4231696732
 40
0.6736718782
 40
1.0
 40
1.0
 40
1.0
 40
1.0
 10
102.3085178934
 20
102.5552034303
 30
0.0
 10
102.2481556623
 20
102.5931537302
 30
0.0
 10
102.1353950545
 20
102.6315497059
 30
0.0
 10
101.9654625021
 20
102.62128872
 30
0.0
 10
101.8731759586
 20
102.5819689393
 30
0.0
 10
101.8276953112
 20
102.551070143
 30
0.0
  0
LINE
  5
3DF
100
AcDbEntity
  8
0
100
AcDbLine
 62
9
  6
CONTINUOUS
 10
93.2931484477
 20
107.9427227225
 11
100.6764340077
 21
107.8350720057
  0
SPLINE
  5
3E0
100
AcDbEntity
  8
0
100
AcDbSpline
 62
9
  6
CONTINUOUS
 70
0
 71
3
 72
9
 73
5
 74
0
 42
0.0000001
 43
0.0000001
 44
0.0000000001
 40
0.0
 40
0.0
 40
0.0
 40
0.0
 40
0.6616477828
 40
1.0
 40
1.0
 40
1.0
 40
1.0
 10
97.4316830687
 20
99.6943188849
 30
0.0
 10
97.1575337589
 20
99.2159095396
 30
0.0
 10
96.7449903645
 20
98.4918458926
 30
0.0
 10
96.3384590651
 20
97.7642874218
 30
0.0
 10
96.2053008208
 20
97.5157398099
 30
0.0
  0
SPLINE
  5
3E1
100
AcDbEntity
  8
RUNDUNGEN
100
AcDbSpline
 62
7
  6
CONTINUOUS
 70
0
 71
3
 72
9
 73
5
 74
0
 42
0.0000001
 43
0.0000001
 44
0.0000000001
 40
0.0
 40
0.0
 40
0.0
 40
0.0
 40
0.1818945298
 40
1.0
 40
1.0
 40
1.0
 40
1.0
 10
84.9557891379
 20
120.2066132681
 30
0.0
 10
84.94789374
 20
120.20648655
 30
0.0
 10
84.9044904157
 20
120.2067964474
 30
0.0
 10
84.8609803886
 20
120.2128793051
 30
0.0
 10
84.8266316828
 20
120.2219085284
 30
0.0
  0
SPLINE
  5
3E2
100
AcDbEntity
  8
0
100
AcDbSpline
 62
9
  6
CONTINUOUS
 70
0
 71
3
 72
9
 73
5
 74
0
 42
0.0000001
 43
0.0000001
 44
0.0000000001
 40
0.0
 40
0.0
 40
0.0
 40
0.0
 40
0.3355845818
 40
1.0
 40
1.0
 40
1.0
 40
1.0
 10
96.2052976591
 20
120.3885161365
 30
0.0
 10
96.3426504716
 20
120.1321115421
 30
0.0
 10
96.7658094393
 20
119.3755621183
 30
0.0
 10
97.1950405715
 20
118.6225534693
 30
0.0
 10
97.4815439891
 20
118.1229782846
 30
0.0
  0
LINE
  5
3E3
100
AcDbEntity
  8
0
100
AcDbLine
 62
9
  6
CONTINUOUS
 10
100.6764340076
 20
110.0691791717
 11
93.2931484477
 21
109.961528456
  0
SPLINE
  5
3E4
100
AcDbEntity
  8
RUNDUNGEN
100
AcDbSpline
 62
7
  6
CONTINUOUS
 70
0
 71
3
 72
9
 73
5
 74
0
 42
0.0000001
 43
0.0000001
 44
0.0000000001
 40
0.0
 40
0.0
 40
0.0
 40
0.0
 40
0.2487151047
 40
1.0
 40
1.0
 40
1.0
 40
1.0
 10
96.2053156039
 20
120.3885170055
 30
0.0
 10
95.272675548
 20
120.3732928626
 30
0.0
 10
91.5228397258
 20
120.3122672533
 30
0.0
 10
87.7729943977
 20
120.2518269662
 30
0.0
 10
84.955789143
 20
120.206613268
 30
0.0
  0
SPLINE
  5
3E5
100
AcDbEntity
  8
RUNDUNGEN
100
AcDbSpline
 62
7
  6
CONTINUOUS
 70
0
 71
3
 72
9
 73
5
 74
0
 42
0.0000001
 43
0.0000001
 44
0.0000000001
 40
0.0
 40
0.0
 40
0.0
 40
0.0
 40
0.2511459947
 40
1.0
 40
1.0
 40
1.0
 40
1.0
 10
84.955789143
 20
97.6976379105
 30
0.0
 10
85.8975604884
 20
97.6825232982
 30
0.0
 10
89.6474549405
 20
97.6222483737
 30
0.0
 10
93.3973429479
 20
97.5615710325
 30
0.0
 10
96.2054550636
 20
97.5157322624
 30
0.0
  0
LINE
  5
3E6
100
AcDbEntity
  8
AUSFORMSCHRAEGEN
100
AcDbLine
 62
7
  6
CONTINUOUS
 10
110.5237079265
 20
107.6642461129
 11
112.3238020385
 21
107.537359654
  0
LINE
  5
3E7
100
AcDbEntity
  8
AUSFORMSCHRAEGEN
100
AcDbLine
 62
7
  6
CONTINUOUS
 10
112.3238020362
 20
110.3668915244
 11
110.5237079265
 21
110.2400050656
  0
LINE
  5
3E8
100
AcDbEntity
  8
0
100
AcDbLine
 62
9
  6
CONTINUOUS
 10
99.3519992195
 20
120.6663533068
 11
99.0717658883
 21
121.2074816707
  0
SPLINE
  5
3E9
100
AcDbEntity
  8
0
100
AcDbSpline
 62
9
  6
CONTINUOUS
 70
0
 71
3
 72
9
 73
5
 74
0
 42
0.0000001
 43
0.0000001
 44
0.0000000001
 40
0.0
 40
0.0
 40
0.0
 40
0.0
 40
0.2524913069
 40
1.0
 40
1.0
 40
1.0
 40
1.0
 10
99.0717658883
 20
121.2074816707
 30
0.0
 10
99.0183105946
 20
121.3106271712
 30
0.0
 10
98.806529244
 20
121.719102024
 30
0.0
 10
98.5944789177
 20
122.1274374125
 30
0.0
 10
98.4358284501
 20
122.4325983181
 30
0.0
  0
LINE
  5
3EA
100
AcDbEntity
  8
RUNDUNGEN
100
AcDbLine
 62
9
  6
CONTINUOUS
 10
109.9966872701
 20
119.6916245458
 11
109.8017469679
 21
119.7963231952
  0
SPLINE
  5
3EB
100
AcDbEntity
  8
RUNDUNGEN
100
AcDbSpline
 62
9
  6
CONTINUOUS
 70
0
 71
3
 72
12
 73
8
 74
0
 42
0.0000001
 43
0.0000001
 44
0.0000000001
 40
0.0
 40
0.0
 40
0.0
 40
0.0
 40
0.1965967804
 40
0.3489538934
 40
0.5958308553
 40
0.8066016156
 40
1.0
 40
1.0
 40
1.0
 40
1.0
 10
109.8017469679
 20
119.7963231952
 30
0.0
 10
109.6522598851
 20
119.8766807625
 30
0.0
 10
109.3689594528
 20
119.988762919
 30
0.0
 10
108.8600660662
 20
120.0769432781
 30
0.0
 10
108.3268467751
 20
120.0463468898
 30
0.0
 10
107.7867654206
 20
119.8764706305
 30
0.0
 10
107.4798447896
 20
119.7054517327
 30
0.0
 10
107.3420788986
 20
119.6111399911
 30
0.0
  0
SPLINE
  5
3EC
100
AcDbEntity
  8
RUNDUNGEN
100
AcDbSpline
 62
9
  6
CONTINUOUS
 70
0
 71
3
 72
12
 73
8
 74
0
 42
0.0000001
 43
0.0000001
 44
0.0000000001
 40
0.0
 40
0.0
 40
0.0
 40
0.0
 40
0.1933920178
 40
0.404155414
 40
0.651023665
 40
0.8033767847
 40
1.0
 40
1.0
 40
1.0
 40
1.0
 10
107.3420788986
 20
98.2931111875
 30
0.0
 10
107.4798433951
 20
98.1988069826
 30
0.0
 10
107.7867468184
 20
98.027784767
 30
0.0
 10
108.3268118786
 20
97.857907489
 30
0.0
 10
108.8600055705
 20
97.8273174219
 30
0.0
 10
109.3689312804
 20
97.915448797
 30
0.0
 10
109.6522049749
 20
98.0276242112
 30
0.0
 10
109.8017469679
 20
98.1079279834
 30
0.0
  0
LINE
  5
3ED
100
AcDbEntity
  8
RUNDUNGEN
100
AcDbLine
 62
9
  6
CONTINUOUS
 10
109.8017469679
 20
98.1079279834
 11
109.9966872701
 21
98.2126266328
  0
SPLINE
  5
3EE
100
AcDbEntity
  8
0
100
AcDbSpline
 62
9
  6
CONTINUOUS
 70
0
 71
3
 72
9
 73
5
 74
0
 42
0.0000001
 43
0.0000001
 44
0.0000000001
 40
0.0
 40
0.0
 40
0.0
 40
0.0
 40
0.2476285684
 40
1.0
 40
1.0
 40
1.0
 40
1.0
 10
98.4358284501
 20
95.4716528605
 30
0.0
 10
98.4888470138
 20
95.5736328482
 30
0.0
 10
98.7028884347
 20
95.9854924248
 30
0.0
 10
98.9166673538
 20
96.3974884317
 30
0.0
 10
99.077349841
 20
96.7075446458
 30
0.0
  0
LINE
  5
3EF
100
AcDbEntity
  8
0
100
AcDbLine
 62
9
  6
CONTINUOUS
 10
99.077349841
 20
96.7075446458
 11
99.3519993195
 21
97.237898076
  0
SPLINE
  5
3F0
100
AcDbEntity
  8
RUNDUNGEN
100
AcDbSpline
 62
9
  6
CONTINUOUS
 70
0
 71
3
 72
24
 73
20
 74
0
 42
0.0000001
 43
0.0000001
 44
0.0000000001
 40
0.0
 40
0.0
 40
0.0
 40
0.0
 40
0.0013402027
 40
0.0043010289
 40
0.0088927075
 40
0.0150232687
 40
0.0314955746
 40
0.0528102883
 40
0.0780587899
 40
0.1064371567
 40
0.1700535814
 40
0.2397908392
 40
0.3132060953
 40
0.3887157663
 40
0.4652266382
 40
0.6180906214
 40
0.7660813694
 40
0.9011330336
 40
1.0
 40
1.0
 40
1.0
 40
1.0
 10
113.1001058694
 20
118.9531820246
 30
0.0
 10
113.0990854329
 20
118.954176948
 30
0.0
 10
113.0944783221
 20
118.955525566
 30
0.0
 10
113.085703049
 20
118.958547228
 30
0.0
 10
113.0715606945
 20
118.9623648304
 30
0.0
 10
113.0436931202
 20
118.9698867325
 30
0.0
 10
112.9983657379
 20
118.9813010275
 30
0.0
 10
112.9332955039
 20
118.997331154
 30
0.0
 10
112.8558152501
 20
119.0160103911
 30
0.0
 10
112.7345332292
 20
119.0449014405
 30
0.0
 10
112.567104974
 20
119.0842488067
 30
0.0
 10
112.3529650826
 20
119.1341631333
 30
0.0
 10
112.1264630421
 20
119.1867584231
 30
0.0
 10
111.8929404385
 20
119.2409644051
 30
0.0
 10
111.5771569129
 20
119.3144369555
 30
0.0
 10
111.1864303178
 20
119.4059292592
 30
0.0
 10
110.7354996743
 20
119.5133629259
 30
0.0
 10
110.3407184975
 20
119.6086602543
 30
0.0
 10
110.0991977145
 20
119.6682734471
 30
0.0
 10
109.9966872701
 20
119.6916245458
 30
0.0
  0
SPLINE
  5
3F1
100
AcDbEntity
  8
RUNDUNGEN
100
AcDbSpline
 62
9
  6
CONTINUOUS
 70
0
 71
3
 72
24
 73
20
 74
0
 42
0.0000001
 43
0.0000001
 44
0.0000000001
 40
0.0
 40
0.0
 40
0.0
 40
0.0
 40
0.0988632008
 40
0.233911035
 40
0.3818928966
 40
0.5347469889
 40
0.6112539759
 40
0.686760271
 40
0.7601722984
 40
0.8299057769
 40
0.8935195006
 40
0.9218967927
 40
0.9471457594
 40
0.9684641394
 40
0.9849411841
 40
0.9910810987
 40
0.9956764038
 40
0.9986352651
 40
1.0
 40
1.0
 40
1.0
 40
1.0
 10
109.9966872701
 20
98.2126266328
 30
0.0
 10
110.0992296227
 20
98.2358284494
 30
0.0
 10
110.3406948418
 20
98.2956727401
 30
0.0
 10
110.735490775
 20
98.3908607613
 30
0.0
 10
111.1863987334
 20
98.4983273109
 30
0.0
 10
111.5771106719
 20
98.5898107922
 30
0.0
 10
111.8928820749
 20
98.6632831754
 30
0.0
 10
112.1263979689
 20
98.7174896042
 30
0.0
 10
112.3528934203
 20
98.7700846834
 30
0.0
 10
112.5670270311
 20
98.8199995959
 30
0.0
 10
112.7344510668
 20
98.8593444486
 30
0.0
 10
112.8557335819
 20
98.888229025
 30
0.0
 10
112.9332191957
 20
98.9069061049
 30
0.0
 10
112.9983023734
 20
98.9229299071
 30
0.0
 10
113.0436490794
 20
98.934345799
 30
0.0
 10
113.071537901
 20
98.941866894
 30
0.0
 10
113.0856882353
 20
98.9456947238
 30
0.0
 10
113.0944875746
 20
98.9487442414
 30
0.0
 10
113.0991092374
 20
98.9501194684
 30
0.0
 10
113.1001488332
 20
98.9511321518
 30
0.0
  0
SPLINE
  5
3F2
100
AcDbEntity
  8
RUNDUNGEN
100
AcDbSpline
 62
7
  6
CONTINUOUS
 70
0
 71
3
 72
14
 73
10
 74
0
 42
0.0000001
 43
0.0000001
 44
0.0000000001
 40
0.0
 40
0.0
 40
0.0
 40
0.0
 40
0.2275270219
 40
0.422329549
 40
0.5208149452
 40
0.6274991961
 40
0.7574317876
 40
0.8476253936
 40
1.0
 40
1.0
 40
1.0
 40
1.0
 10
85.8149309587
 20
121.5869664716
 30
0.0
 10
85.7496177681
 20
121.5248154387
 30
0.0
 10
85.6540452915
 20
121.3786818271
 30
0.0
 10
85.6250620895
 20
121.1679130828
 30
0.0
 10
85.6565096006
 20
121.0112201621
 30
0.0
 10
85.7147439589
 20
120.8901420227
 30
0.0
 10
85.8059099717
 20
120.7941199876
 30
0.0
 10
85.9353566624
 20
120.7209223662
 30
0.0
 10
86.0329270907
 20
120.7021254983
 30
0.0
 10
86.093306175
 20
120.7021255893
 30
0.0
  0
SPLINE
  5
3F3
100
AcDbEntity
  8
0
100
AcDbSpline
 62
7
  6
CONTINUOUS
 70
0
 71
3
 72
10
 73
6
 74
0
 42
0.0000001
 43
0.0000001
 44
0.0000000001
 40
0.0
 40
0.0
 40
0.0
 40
0.0
 40
0.2081341084
 40
0.4654826772
 40
1.0
 40
1.0
 40
1.0
 40
1.0
 10
90.3119372741
 20
124.7315518936
 30
0.0
 10
90.4873292348
 20
124.8184143621
 30
0.0
 10
90.8802591687
 20
125.0114423674
 30
0.0
 10
91.7394735228
 20
125.3940561205
 30
0.0
 10
92.4376603775
 20
125.6561343295
 30
0.0
 10
92.9153027964
 20
125.8126851399
 30
0.0
  0
SPLINE
  5
3F4
100
AcDbEntity
  8
0
100
AcDbSpline
 62
9
  6
CONTINUOUS
 70
0
 71
3
 72
9
 73
5
 74
0
 42
0.0000001
 43
0.0000001
 44
0.0000000001
 40
0.0
 40
0.0
 40
0.0
 40
0.0
 40
0.6230280623
 40
1.0
 40
1.0
 40
1.0
 40
1.0
 10
92.9153027964
 20
125.8126851399
 30
0.0
 10
92.9865973352
 20
125.5878813301
 30
0.0
 10
93.1022278438
 20
125.2274538925
 30
0.0
 10
93.2168417628
 20
124.8666517071
 30
0.0
 10
93.2627824278
 20
124.7315518936
 30
0.0
  0
SPLINE
  5
3F5
100
AcDbEntity
  8
0
100
AcDbSpline
 62
9
  6
CONTINUOUS
 70
0
 71
3
 72
11
 73
7
 74
0
 42
0.0000001
 43
0.0000001
 44
0.0000000001
 40
0.0
 40
0.0
 40
0.0
 40
0.0
 40
0.1720241323
 40
0.4660755088
 40
0.7773766447
 40
1.0
 40
1.0
 40
1.0
 40
1.0
 10
97.2019001928
 20
124.7315518936
 30
0.0
 10
97.1699951428
 20
124.8395741266
 30
0.0
 10
97.07815801
 20
125.1306210663
 30
0.0
 10
96.9256711953
 20
125.6162295607
 30
0.0
 10
96.7607684046
 20
126.1326744006
 30
0.0
 10
96.6539587876
 20
126.4655577594
 30
0.0
 10
96.6083735811
 20
126.6040125182
 30
0.0
  0
SPLINE
  5
3F6
100
AcDbEntity
  8
0
100
AcDbSpline
 62
7
  6
CONTINUOUS
 70
0
 71
3
 72
9
 73
5
 74
0
 42
0.0000001
 43
0.0000001
 44
0.0000000001
 40
0.0
 40
0.0
 40
0.0
 40
0.0
 40
0.5015963203
 40
1.0
 40
1.0
 40
1.0
 40
1.0
 10
96.6083735811
 20
126.6040125182
 30
0.0
 10
96.9127739013
 20
126.6361150649
 30
0.0
 10
97.5214068795
 20
126.6838856062
 30
0.0
 10
98.1316882585
 20
126.7021255893
 30
0.0
 10
98.4358284501
 20
126.7021255893
 30
0.0
  0
SPLINE
  5
3F7
100
AcDbEntity
  8
0
100
AcDbSpline
 62
7
  6
CONTINUOUS
 70
0
 71
3
 72
9
 73
5
 74
0
 42
0.0000001
 43
0.0000001
 44
0.0000000001
 40
0.0
 40
0.0
 40
0.0
 40
0.0
 40
0.498404276
 40
1.0
 40
1.0
 40
1.0
 40
1.0
 10
98.4358284501
 20
91.2021255893
 30
0.0
 10
98.1316882466
 20
91.2021255893
 30
0.0
 10
97.5214064269
 20
91.2203513341
 30
0.0
 10
96.9127773767
 20
91.2681563903
 30
0.0
 10
96.6083763298
 20
91.3002451956
 30
0.0
  0
SPLINE
  5
3F8
100
AcDbEntity
  8
0
100
AcDbSpline
 62
9
  6
CONTINUOUS
 70
0
 71
3
 72
10
 73
6
 74
0
 42
0.0000001
 43
0.0000001
 44
0.0000000001
 40
0.0
 40
0.0
 40
0.0
 40
0.0
 40
0.5338739819
 40
0.8278143985
 40
1.0
 40
1.0
 40
1.0
 40
1.0
 10
96.6083763298
 20
91.3002451956
 30
0.0
 10
96.7173443015
 20
91.6323874227
 30
0.0
 10
96.8815548042
 20
92.1489576311
 30
0.0
 10
97.0782646477
 20
92.773454333
 30
0.0
 10
97.169869177
 20
93.0646046266
 30
0.0
 10
97.2019001928
 20
93.172699285
 30
0.0
  0
SPLINE
  5
3F9
100
AcDbEntity
  8
0
100
AcDbSpline
 62
9
  6
CONTINUOUS
 70
0
 71
3
 72
9
 73
5
 74
0
 42
0.0000001
 43
0.0000001
 44
0.0000000001
 40
0.0
 40
0.0
 40
0.0
 40
0.0
 40
0.3765760757
 40
1.0
 40
1.0
 40
1.0
 40
1.0
 10
93.2627824278
 20
93.172699285
 30
0.0
 10
93.2169045904
 20
93.0377363991
 30
0.0
 10
93.1022632093
 20
92.6769437369
 30
0.0
 10
92.9865808561
 20
92.3165324265
 30
0.0
 10
92.9153028501
 20
92.0915662073
 30
0.0
  0
SPLINE
  5
3FA
100
AcDbEntity
  8
0
100
AcDbSpline
 62
7
  6
CONTINUOUS
 70
0
 71
3
 72
10
 73
6
 74
0
 42
0.0000001
 43
0.0000001
 44
0.0000000001
 40
0.0
 40
0.0
 40
0.0
 40
0.0
 40
0.5345258036
 40
0.7918761212
 40
1.0
 40
1.0
 40
1.0
 40
1.0
 10
92.9153028501
 20
92.0915662073
 30
0.0
 10
92.4376528465
 20
92.248119464
 30
0.0
 10
91.739457106
 20
92.5102014937
 30
0.0
 10
90.88024327
 20
92.8928163843
 30
0.0
 10
90.4873206125
 20
93.0858410866
 30
0.0
 10
90.3119372741
 20
93.172699285
 30
0.0
  0
SPLINE
  5
3FB
100
AcDbEntity
  8
RUNDUNGEN
100
AcDbSpline
 62
7
  6
CONTINUOUS
 70
0
 71
3
 72
14
 73
10
 74
0
 42
0.0000001
 43
0.0000001
 44
0.0000000001
 40
0.0
 40
0.0
 40
0.0
 40
0.0
 40
0.1523786394
 40
0.2425711356
 40
0.3725022383
 40
0.4791860555
 40
0.577671218
 40
0.7724735107
 40
1.0
 40
1.0
 40
1.0
 40
1.0
 10
86.093306175
 20
97.2021255893
 30
0.0
 10
86.032925642
 20
97.2021256222
 30
0.0
 10
85.93535398
 20
97.1833286712
 30
0.0
 10
85.8059083585
 20
97.1101287617
 30
0.0
 10
85.7147437819
 20
97.0141078161
 30
0.0
 10
85.6565100336
 20
96.893030598
 30
0.0
 10
85.6250637481
 20
96.7363382579
 30
0.0
 10
85.6540453703
 20
96.5255705508
 30
0.0
 10
85.7496168905
 20
96.3794369386
 30
0.0
 10
85.8149296915
 20
96.3172861261
 30
0.0
  0
SPLINE
  5
3FC
100
AcDbEntity
  8
RUNDUNGEN
100
AcDbSpline
 62
9
  6
CONTINUOUS
 70
0
 71
3
 72
23
 73
19
 74
0
 42
0.0000001
 43
0.0000001
 44
0.0000000001
 40
0.0
 40
0.0
 40
0.0
 40
0.0
 40
0.1150956391
 40
0.2467065455
 40
0.3821946465
 40
0.5191855058
 40
0.6562751151
 40
0.724294682
 40
0.7914258474
 40
0.856845912
 40
0.8884264974
 40
0.9187537686
 40
0.9471094292
 40
0.9721514091
 40
0.982686455
 40
0.991265798
 40
0.9972484068
 40
1.0
 40
1.0
 40
1.0
 40
1.0
 10
110.1022726664
 20
98.3152864975
 30
0.0
 10
110.1930090559
 20
98.3650225434
 30
0.0
 10
110.3856787949
 20
98.4749218016
 30
0.0
 10
110.68422264
 20
98.6450072008
 30
0.0
 10
110.9992874562
 20
98.8258728459
 30
0.0
 10
111.3183708426
 20
99.0096250628
 30
0.0
 10
111.5846137581
 20
99.1635902589
 30
0.0
 10
111.7962917034
 20
99.2864522377
 30
0.0
 10
111.9521224057
 20
99.3771781681
 30
0.0
 10
112.0795155221
 20
99.451639717
 30
0.0
 10
112.1782255066
 20
99.5096028295
 30
0.0
 10
112.2481355873
 20
99.5508098315
 30
0.0
 10
112.312864373
 20
99.5892152191
 30
0.0
 10
112.3622335264
 20
99.6186783367
 30
0.0
 10
112.3961025857
 20
99.6393386924
 30
0.0
 10
112.4154547108
 20
99.651038724
 30
0.0
 10
112.4282880781
 20
99.6596755322
 30
0.0
 10
112.4351939059
 20
99.663695966
 30
0.0
 10
112.4368764125
 20
99.6655094088
 30
0.0
  0
LINE
  5
3FD
100
AcDbEntity
  8
RUNDUNGEN
100
AcDbLine
 62
9
  6
CONTINUOUS
 10
109.902898474
 20
98.205878192
 11
110.1022726664
 21
98.3152864975
  0
SPLINE
  5
3FE
100
AcDbEntity
  8
RUNDUNGEN
100
AcDbSpline
 62
9
  6
CONTINUOUS
 70
0
 71
3
 72
23
 73
19
 74
0
 42
0.0000001
 43
0.0000001
 44
0.0000000001
 40
0.0
 40
0.0
 40
0.0
 40
0.0
 40
0.0027411696
 40
0.0087201208
 40
0.0172862359
 40
0.0278130595
 40
0.0528470426
 40
0.0812009173
 40
0.1115293284
 40
0.1431111357
 40
0.2085342781
 40
0.2756690661
 40
0.3436919905
 40
0.4807894214
 40
0.6177887788
 40
0.7532850761
 40
0.8849028105
 40
1.0
 40
1.0
 40
1.0
 40
1.0
 10
112.4368764125
 20
118.2387417697
 30
0.0
 10
112.435202631
 20
118.2405505216
 30
0.0
 10
112.4283060401
 20
118.2445639084
 30
0.0
 10
112.4154942807
 20
118.2531871026
 30
0.0
 10
112.3961616784
 20
118.2648766545
 30
0.0
 10
112.3623155165
 20
118.2855232698
 30
0.0
 10
112.3129605304
 20
118.314978828
 30
0.0
 10
112.2482386316
 20
118.3533804902
 30
0.0
 10
112.1783282022
 20
118.3945879589
 30
0.0
 10
112.079614118
 20
118.4525537422
 30
0.0
 10
111.9522149475
 20
118.5270190627
 30
0.0
 10
111.7963764902
 20
118.6177496534
 30
0.0
 10
111.5846871135
 20
118.7406184614
 30
0.0
 10
111.3184289254
 20
118.8945926036
 30
0.0
 10
110.999326469
 20
119.0783558931
 30
0.0
 10
110.6842433536
 20
119.2592321614
 30
0.0
 10
110.3856865139
 20
119.4293248703
 30
0.0
 10
110.1930103509
 20
119.5392280915
 30
0.0
 10
110.1022726664
 20
119.588964681
 30
0.0
  0
LINE
  5
3FF
100
AcDbEntity
  8
RUNDUNGEN
100
AcDbLine
 62
9
  6
CONTINUOUS
 10
110.1022726664
 20
119.588964681
 11
109.902898474
 21
119.6983729866
  0
SPLINE
  5
400
100
AcDbEntity
  8
0
100
AcDbSpline
 62
7
  6
CONTINUOUS
 70
0
 71
3
 72
9
 73
5
 74
0
 42
0.0000001
 43
0.0000001
 44
0.0000000001
 40
0.0
 40
0.0
 40
0.0
 40
0.0
 40
0.5171336179
 40
1.0
 40
1.0
 40
1.0
 40
1.0
 10
100.6602027439
 20
105.2577569636
 30
0.0
 10
100.6571956091
 20
104.9897601861
 30
0.0
 10
100.6591941301
 20
104.4714766441
 30
0.0
 10
100.6603373318
 20
103.9531944814
 30
0.0
 10
100.6644536962
 20
103.7029742912
 30
0.0
  0
SPLINE
  5
401
100
AcDbEntity
  8
0
100
AcDbSpline
 62
7
  6
CONTINUOUS
 70
0
 71
3
 72
9
 73
5
 74
0
 42
0.0000001
 43
0.0000001
 44
0.0000000001
 40
0.0
 40
0.0
 40
0.0
 40
0.0
 40
0.4828843919
 40
1.0
 40
1.0
 40
1.0
 40
1.0
 10
100.6644536615
 20
114.2012769127
 30
0.0
 10
100.6603378642
 20
113.9510250515
 30
0.0
 10
100.659193807
 20
113.4326966836
 30
0.0
 10
100.6571954096
 20
112.9143668881
 30
0.0
 10
100.6602037707
 20
112.6463555513
 30
0.0
  0
SPLINE
  5
402
100
AcDbEntity
  8
RUNDUNGEN
100
AcDbSpline
 62
7
  6
CONTINUOUS
 70
0
 71
3
 72
9
 73
5
 74
0
 42
0.0000001
 43
0.0000001
 44
0.0000000001
 40
0.0
 40
0.0
 40
0.0
 40
0.0
 40
0.5815653824
 40
1.0
 40
1.0
 40
1.0
 40
1.0
 10
106.7355000519
 20
108.6266762386
 30
0.0
 10
106.5641720778
 20
108.6266762386
 30
0.0
 10
106.2695842283
 20
108.625244199
 30
0.0
 10
105.9749788462
 20
108.6215002808
 30
0.0
 10
105.8517725042
 20
108.6175396972
 30
0.0
  0
SPLINE
  5
403
100
AcDbEntity
  8
RUNDUNGEN
100
AcDbSpline
 62
7
  6
CONTINUOUS
 70
0
 71
3
 72
9
 73
5
 74
0
 42
0.0000001
 43
0.0000001
 44
0.0000000001
 40
0.0
 40
0.0
 40
0.0
 40
0.0
 40
0.4184270946
 40
1.0
 40
1.0
 40
1.0
 40
1.0
 10
108.9012418906
 20
105.5680488798
 30
0.0
 10
108.9052029074
 20
105.6912558892
 30
0.0
 10
108.9089469114
 20
105.9858682048
 30
0.0
 10
108.9103790994
 20
106.2804629738
 30
0.0
 10
108.9103790994
 20
106.4517971911
 30
0.0
  0
SPLINE
  5
404
100
AcDbEntity
  8
RUNDUNGEN
100
AcDbSpline
 62
7
  6
CONTINUOUS
 70
0
 71
3
 72
9
 73
5
 74
0
 42
0.0000001
 43
0.0000001
 44
0.0000000001
 40
0.0
 40
0.0
 40
0.0
 40
0.0
 40
0.5815729054
 40
1.0
 40
1.0
 40
1.0
 40
1.0
 10
109.5612778009
 20
106.4517971911
 30
0.0
 10
109.5612778009
 20
106.2804629738
 30
0.0
 10
109.5627099888
 20
105.9858682048
 30
0.0
 10
109.5664539928
 20
105.6912558892
 30
0.0
 10
109.5704150097
 20
105.5680488798
 30
0.0
  0
SPLINE
  5
405
100
AcDbEntity
  8
RUNDUNGEN
100
AcDbSpline
 62
7
  6
CONTINUOUS
 70
0
 71
3
 72
9
 73
5
 74
0
 42
0.0000001
 43
0.0000001
 44
0.0000000001
 40
0.0
 40
0.0
 40
0.0
 40
0.0
 40
0.4184346176
 40
1.0
 40
1.0
 40
1.0
 40
1.0
 10
112.6198843961
 20
108.6175396972
 30
0.0
 10
112.4966780541
 20
108.6215002808
 30
0.0
 10
112.202072672
 20
108.625244199
 30
0.0
 10
111.9074848224
 20
108.6266762386
 30
0.0
 10
111.7361568483
 20
108.6266762386
 30
0.0
  0
SPLINE
  5
406
100
AcDbEntity
  8
RUNDUNGEN
100
AcDbSpline
 62
7
  6
CONTINUOUS
 70
0
 71
3
 72
9
 73
5
 74
0
 42
0.0000001
 43
0.0000001
 44
0.0000000001
 40
0.0
 40
0.0
 40
0.0
 40
0.0
 40
0.5815653824
 40
1.0
 40
1.0
 40
1.0
 40
1.0
 10
111.7361568483
 20
109.27757494
 30
0.0
 10
111.9074848224
 20
109.27757494
 30
0.0
 10
112.202072672
 20
109.2790069796
 30
0.0
 10
112.4966780541
 20
109.2827508978
 30
0.0
 10
112.6198843961
 20
109.2867114814
 30
0.0
  0
SPLINE
  5
407
100
AcDbEntity
  8
RUNDUNGEN
100
AcDbSpline
 62
7
  6
CONTINUOUS
 70
0
 71
3
 72
9
 73
5
 74
0
 42
0.0000001
 43
0.0000001
 44
0.0000000001
 40
0.0
 40
0.0
 40
0.0
 40
0.0
 40
0.4184270946
 40
1.0
 40
1.0
 40
1.0
 40
1.0
 10
109.5704150097
 20
112.3362022987
 30
0.0
 10
109.5664539928
 20
112.2129952893
 30
0.0
 10
109.5627099888
 20
111.9183829738
 30
0.0
 10
109.5612778009
 20
111.6237882047
 30
0.0
 10
109.5612778009
 20
111.4524539875
 30
0.0
  0
SPLINE
  5
408
100
AcDbEntity
  8
RUNDUNGEN
100
AcDbSpline
 62
7
  6
CONTINUOUS
 70
0
 71
3
 72
9
 73
5
 74
0
 42
0.0000001
 43
0.0000001
 44
0.0000000001
 40
0.0
 40
0.0
 40
0.0
 40
0.0
 40
0.5815729054
 40
1.0
 40
1.0
 40
1.0
 40
1.0
 10
108.9103790994
 20
111.4524539875
 30
0.0
 10
108.9103790994
 20
111.6237882047
 30
0.0
 10
108.9089469114
 20
111.9183829738
 30
0.0
 10
108.9052029074
 20
112.2129952893
 30
0.0
 10
108.9012418906
 20
112.3362022987
 30
0.0
  0
SPLINE
  5
409
100
AcDbEntity
  8
RUNDUNGEN
100
AcDbSpline
 62
7
  6
CONTINUOUS
 70
0
 71
3
 72
9
 73
5
 74
0
 42
0.0000001
 43
0.0000001
 44
0.0000000001
 40
0.0
 40
0.0
 40
0.0
 40
0.0
 40
0.4184346176
 40
1.0
 40
1.0
 40
1.0
 40
1.0
 10
105.8517725042
 20
109.2867114814
 30
0.0
 10
105.9749788462
 20
109.2827508978
 30
0.0
 10
106.2695842283
 20
109.2790069796
 30
0.0
 10
106.5641720778
 20
109.27757494
 30
0.0
 10
106.7355000519
 20
109.27757494
 30
0.0
  0
SPLINE
  5
40A
100
AcDbEntity
  8
RUNDUNGEN
100
AcDbSpline
 62
9
  6
CONTINUOUS
 70
0
 71
3
 72
9
 73
5
 74
0
 42
0.0000001
 43
0.0000001
 44
0.0000000001
 40
0.0
 40
0.0
 40
0.0
 40
0.0
 40
0.2518433792
 40
1.0
 40
1.0
 40
1.0
 40
1.0
 10
105.7676962814
 20
99.7853078913
 30
0.0
 10
105.9470559471
 20
99.6652563019
 30
0.0
 10
106.6591363943
 20
99.1884051394
 30
0.0
 10
107.3708564652
 20
98.7110159936
 30
0.0
 10
107.9032030837
 20
98.3536584606
 30
0.0
  0
SPLINE
  5
40B
100
AcDbEntity
  8
0
100
AcDbSpline
 62
7
  6
CONTINUOUS
 70
0
 71
3
 72
10
 73
6
 74
0
 42
0.0000001
 43
0.0000001
 44
0.0000000001
 40
0.0
 40
0.0
 40
0.0
 40
0.0
 40
0.4014231794
 40
0.6365624302
 40
1.0
 40
1.0
 40
1.0
 40
1.0
 10
100.6764340076
 20
110.0691791717
 30
0.0
 10
100.6690055941
 20
109.9838334961
 30
0.0
 10
100.6171023547
 20
109.8488133263
 30
0.0
 10
100.4636115979
 20
109.6972264051
 30
0.0
 10
100.3344667449
 20
109.6523718065
 30
0.0
 10
100.2569492172
 20
109.6497521866
 30
0.0
  0
SPLINE
  5
40C
100
AcDbEntity
  8
0
100
AcDbSpline
 62
7
  6
CONTINUOUS
 70
0
 71
3
 72
10
 73
6
 74
0
 42
0.0000001
 43
0.0000001
 44
0.0000000001
 40
0.0
 40
0.0
 40
0.0
 40
0.0
 40
0.4973111155
 40
0.7488000332
 40
1.0
 40
1.0
 40
1.0
 40
1.0
 10
93.8083840107
 20
109.5521255893
 30
0.0
 10
93.6903825834
 20
109.5521255893
 30
0.0
 10
93.5049683857
 20
109.6080926026
 30
0.0
 10
93.3396267601
 20
109.7849014259
 30
0.0
 10
93.2990537371
 20
109.9022172614
 30
0.0
 10
93.2931484477
 20
109.961528456
 30
0.0
  0
SPLINE
  5
40D
100
AcDbEntity
  8
0
100
AcDbSpline
 62
7
  6
CONTINUOUS
 70
0
 71
3
 72
10
 73
6
 74
0
 42
0.0000001
 43
0.0000001
 44
0.0000000001
 40
0.0
 40
0.0
 40
0.0
 40
0.0
 40
0.2511999668
 40
0.5026888845
 40
1.0
 40
1.0
 40
1.0
 40
1.0
 10
93.2931484477
 20
107.9427227225
 30
0.0
 10
93.2990537371
 20
108.0020339171
 30
0.0
 10
93.3396267601
 20
108.1193497527
 30
0.0
 10
93.5049683857
 20
108.296158576
 30
0.0
 10
93.6903825834
 20
108.3521255893
 30
0.0
 10
93.8083840107
 20
108.3521255893
 30
0.0
  0
SPLINE
  5
40E
100
AcDbEntity
  8
0
100
AcDbSpline
 62
7
  6
CONTINUOUS
 70
0
 71
3
 72
10
 73
6
 74
0
 42
0.0000001
 43
0.0000001
 44
0.0000000001
 40
0.0
 40
0.0
 40
0.0
 40
0.0
 40
0.3634375694
 40
0.5985768201
 40
1.0
 40
1.0
 40
1.0
 40
1.0
 10
100.2569492172
 20
108.2544989919
 30
0.0
 10
100.334466745
 20
108.2518793721
 30
0.0
 10
100.4636115981
 20
108.2070247734
 30
0.0
 10
100.617102355
 20
108.0554378518
 30
0.0
 10
100.6690055944
 20
107.9204176815
 30
0.0
 10
100.6764340077
 20
107.8350720057
 30
0.0
  0
SPLINE
  5
40F
100
AcDbEntity
  8
0
100
AcDbSpline
 62
7
  6
CONTINUOUS
 70
0
 71
3
 72
11
 73
7
 74
0
 42
0.0000001
 43
0.0000001
 44
0.0000000001
 40
0.0
 40
0.0
 40
0.0
 40
0.0
 40
0.2428882371
 40
0.4921658266
 40
0.7457944975
 40
1.0
 40
1.0
 40
1.0
 40
1.0
 10
96.2441865
 20
125.9302818249
 30
0.0
 10
96.2085425682
 20
125.9924669606
 30
0.0
 10
96.1666417218
 20
126.1385945128
 30
0.0
 10
96.2153182829
 20
126.3623176879
 30
0.0
 10
96.3665593192
 20
126.5391737601
 30
0.0
 10
96.5141555157
 20
126.5940576652
 30
0.0
 10
96.5887560579
 20
126.6019412509
 30
0.0
  0
SPLINE
  5
410
100
AcDbEntity
  8
0
100
AcDbSpline
 62
9
  6
CONTINUOUS
 70
0
 71
3
 72
9
 73
5
 74
0
 42
0.0000001
 43
0.0000001
 44
0.0000000001
 40
0.0
 40
0.0
 40
0.0
 40
0.0
 40
0.5044200296
 40
1.0
 40
1.0
 40
1.0
 40
1.0
 10
97.2019001928
 20
124.7315518936
 30
0.0
 10
97.1245710873
 20
124.7291446718
 30
0.0
 10
96.9668473334
 20
124.7645524178
 30
0.0
 10
96.8503704893
 20
124.8775849559
 30
0.0
 10
96.8122036001
 20
124.943318624
 30
0.0
  0
SPLINE
  5
411
100
AcDbEntity
  8
0
100
AcDbSpline
 62
9
  6
CONTINUOUS
 70
0
 71
3
 72
9
 73
5
 74
0
 42
0.0000001
 43
0.0000001
 44
0.0000000001
 40
0.0
 40
0.0
 40
0.0
 40
0.0
 40
0.5044208971
 40
1.0
 40
1.0
 40
1.0
 40
1.0
 10
98.4358284501
 20
122.4325983181
 30
0.0
 10
98.3584992375
 20
122.4301915641
 30
0.0
 10
98.2007758631
 20
122.4655994621
 30
0.0
 10
98.0842986758
 20
122.5786315391
 30
0.0
 10
98.0461318575
 20
122.6443650484
 30
0.0
  0
SPLINE
  5
412
100
AcDbEntity
  8
0
100
AcDbSpline
 62
7
  6
CONTINUOUS
 70
0
 71
3
 72
9
 73
5
 74
0
 42
0.0000001
 43
0.0000001
 44
0.0000000001
 40
0.0
 40
0.0
 40
0.0
 40
0.0
 40
0.498958815
 40
1.0
 40
1.0
 40
1.0
 40
1.0
 10
98.9891617815
 20
120.890151542
 30
0.0
 10
99.025802075
 20
120.8268758837
 30
0.0
 10
99.1322033233
 20
120.7158146832
 30
0.0
 10
99.2787952034
 20
120.6720287404
 30
0.0
 10
99.3519992186
 20
120.6663533286
 30
0.0
  0
SPLINE
  5
413
100
AcDbEntity
  8
0
100
AcDbSpline
 62
7
  6
CONTINUOUS
 70
0
 71
3
 72
9
 73
5
 74
0
 42
0.0000001
 43
0.0000001
 44
0.0000000001
 40
0.0
 40
0.0
 40
0.0
 40
0.0
 40
0.2466480971
 40
1.0
 40
1.0
 40
1.0
 40
1.0
 10
100.6083052706
 20
114.4232765238
 30
0.0
 10
100.6176302204
 20
114.4067784362
 30
0.0
 10
100.6510551627
 20
114.3374856418
 30
0.0
 10
100.6654055167
 20
114.2591523436
 30
0.0
 10
100.6644536615
 20
114.2012769127
 30
0.0
  0
SPLINE
  5
414
100
AcDbEntity
  8
0
100
AcDbSpline
 62
7
  6
CONTINUOUS
 70
0
 71
3
 72
11
 73
7
 74
0
 42
0.0000001
 43
0.0000001
 44
0.0000000001
 40
0.0
 40
0.0
 40
0.0
 40
0.0
 40
0.2485624423
 40
0.4983041065
 40
0.7491596927
 40
1.0
 40
1.0
 40
1.0
 40
1.0
 10
96.1346400403
 20
121.376637396
 30
0.0
 10
96.1731243858
 20
121.3097779141
 30
0.0
 10
96.2155752549
 20
121.1523481842
 30
0.0
 10
96.1522933479
 20
120.9177375969
 30
0.0
 10
95.9806853056
 20
120.7446288174
 30
0.0
 10
95.8219936002
 20
120.7021255893
 30
0.0
 10
95.7441423892
 20
120.7021255893
 30
0.0
  0
SPLINE
  5
415
100
AcDbEntity
  8
0
100
AcDbSpline
 62
7
  6
CONTINUOUS
 70
0
 71
3
 72
10
 73
6
 74
0
 42
0.0000001
 43
0.0000001
 44
0.0000000001
 40
0.0
 40
0.0
 40
0.0
 40
0.0
 40
0.4147124824
 40
0.6845711482
 40
1.0
 40
1.0
 40
1.0
 40
1.0
 10
93.5091653644
 20
125.6356983503
 30
0.0
 10
93.4662680079
 20
125.707531347
 30
0.0
 10
93.3580810537
 20
125.8077503013
 30
0.0
 10
93.1613233526
 20
125.865703861
 30
0.0
 10
93.0395043721
 20
125.8531397017
 30
0.0
 10
92.9789839337
 20
125.8334694304
 30
0.0
  0
SPLINE
  5
416
100
AcDbEntity
  8
0
100
AcDbSpline
 62
9
  6
CONTINUOUS
 70
0
 71
3
 72
11
 73
7
 74
0
 42
0.0000001
 43
0.0000001
 44
0.0000000001
 40
0.0
 40
0.0
 40
0.0
 40
0.0
 40
0.253163119
 40
0.5063832847
 40
0.7554024858
 40
1.0
 40
1.0
 40
1.0
 40
1.0
 10
93.2627824278
 20
124.7315518936
 30
0.0
 10
93.339468289
 20
124.7342998944
 30
0.0
 10
93.4939528761
 20
124.7801282479
 30
0.0
 10
93.6621624503
 20
124.9488518069
 30
0.0
 10
93.7286074213
 20
125.175675192
 30
0.0
 10
93.6893849675
 20
125.3290013103
 30
0.0
 10
93.6524790205
 20
125.3933014893
 30
0.0
  0
SPLINE
  5
417
100
AcDbEntity
  8
0
100
AcDbSpline
 62
7
  6
CONTINUOUS
 70
0
 71
3
 72
9
 73
5
 74
0
 42
0.0000001
 43
0.0000001
 44
0.0000000001
 40
0.0
 40
0.0
 40
0.0
 40
0.0
 40
0.2579519299
 40
1.0
 40
1.0
 40
1.0
 40
1.0
 10
100.6644536962
 20
103.7029742912
 30
0.0
 10
100.6647797477
 20
103.683154698
 30
0.0
 10
100.660969513
 20
103.6063031303
 30
0.0
 10
100.6363581046
 20
103.5306195086
 30
0.0
 10
100.6083052706
 20
103.4809746548
 30
0.0
  0
SPLINE
  5
418
100
AcDbEntity
  8
0
100
AcDbSpline
 62
7
  6
CONTINUOUS
 70
0
 71
3
 72
11
 73
7
 74
0
 42
0.0000001
 43
0.0000001
 44
0.0000000001
 40
0.0
 40
0.0
 40
0.0
 40
0.0
 40
0.2486379453
 40
0.4984449129
 40
0.7491829564
 40
1.0
 40
1.0
 40
1.0
 40
1.0
 10
96.1346400403
 20
96.5276137825
 30
0.0
 10
96.1727874333
 20
96.5938878714
 30
0.0
 10
96.2151604012
 20
96.7496177243
 30
0.0
 10
96.154254564
 20
96.9827075529
 30
0.0
 10
95.9861254186
 20
97.1548545419
 30
0.0
 10
95.8299690479
 20
97.2021255893
 30
0.0
 10
95.7528300575
 20
97.2021255893
 30
0.0
  0
SPLINE
  5
419
100
AcDbEntity
  8
0
100
AcDbSpline
 62
9
  6
CONTINUOUS
 70
0
 71
3
 72
11
 73
7
 74
0
 42
0.0000001
 43
0.0000001
 44
0.0000000001
 40
0.0
 40
0.0
 40
0.0
 40
0.0
 40
0.2531636564
 40
0.5063827583
 40
0.755401239
 40
1.0
 40
1.0
 40
1.0
 40
1.0
 10
93.2627824278
 20
93.172699285
 30
0.0
 10
93.3394689582
 20
93.1699526812
 30
0.0
 10
93.493955337
 20
93.1241267038
 30
0.0
 10
93.6621668472
 20
92.955402718
 30
0.0
 10
93.7286096202
 20
92.728577034
 30
0.0
 10
93.6893854237
 20
92.5752505499
 30
0.0
 10
93.6524790205
 20
92.5109496892
 30
0.0
  0
SPLINE
  5
41A
100
AcDbEntity
  8
0
100
AcDbSpline
 62
7
  6
CONTINUOUS
 70
0
 71
3
 72
10
 73
6
 74
0
 42
0.0000001
 43
0.0000001
 44
0.0000000001
 40
0.0
 40
0.0
 40
0.0
 40
0.0
 40
0.4147153106
 40
0.6845737815
 40
1.0
 40
1.0
 40
1.0
 40
1.0
 10
93.5091653644
 20
92.2685528283
 30
0.0
 10
93.4662680274
 20
92.1967191548
 30
0.0
 10
93.3580799599
 20
92.0965001925
 30
0.0
 10
93.1613221684
 20
92.03854724
 30
0.0
 10
93.0395038573
 20
92.0511116667
 30
0.0
 10
92.9789839242
 20
92.0707817752
 30
0.0
  0
SPLINE
  5
41B
100
AcDbEntity
  8
0
100
AcDbSpline
 62
7
  6
CONTINUOUS
 70
0
 71
3
 72
11
 73
7
 74
0
 42
0.0000001
 43
0.0000001
 44
0.0000000001
 40
0.0
 40
0.0
 40
0.0
 40
0.0
 40
0.2428989756
 40
0.4921650954
 40
0.7457936916
 40
1.0
 40
1.0
 40
1.0
 40
1.0
 10
96.2441865006
 20
91.9739693533
 30
0.0
 10
96.2085425927
 20
91.9117805202
 30
0.0
 10
96.1666383768
 20
91.7656536324
 30
0.0
 10
96.2153221643
 20
91.541932259
 30
0.0
 10
96.3665587929
 20
91.3650777246
 30
0.0
 10
96.5141557451
 20
91.3101938481
 30
0.0
 10
96.5887565469
 20
91.3023101862
 30
0.0
  0
SPLINE
  5
41C
100
AcDbEntity
  8
0
100
AcDbSpline
 62
9
  6
CONTINUOUS
 70
0
 71
3
 72
9
 73
5
 74
0
 42
0.0000001
 43
0.0000001
 44
0.0000000001
 40
0.0
 40
0.0
 40
0.0
 40
0.0
 40
0.5044208971
 40
1.0
 40
1.0
 40
1.0
 40
1.0
 10
97.2019001928
 20
93.172699285
 30
0.0
 10
97.1245709801
 20
93.175106039
 30
0.0
 10
96.9668476058
 20
93.1396981409
 30
0.0
 10
96.8503704185
 20
93.0266660639
 30
0.0
 10
96.8122036001
 20
92.9609325546
 30
0.0
  0
SPLINE
  5
41D
100
AcDbEntity
  8
0
100
AcDbSpline
 62
9
  6
CONTINUOUS
 70
0
 71
3
 72
9
 73
5
 74
0
 42
0.0000001
 43
0.0000001
 44
0.0000000001
 40
0.0
 40
0.0
 40
0.0
 40
0.0
 40
0.504420901
 40
1.0
 40
1.0
 40
1.0
 40
1.0
 10
98.4358284501
 20
95.4716528605
 30
0.0
 10
98.3584992368
 20
95.4740596149
 30
0.0
 10
98.2007758621
 20
95.4386517166
 30
0.0
 10
98.0842986755
 20
95.325619639
 30
0.0
 10
98.0461318575
 20
95.2598861301
 30
0.0
  0
LINE
  5
41E
100
AcDbEntity
  8
0
100
AcDbLine
 62
9
  6
CONTINUOUS
 10
100.2569492172
 20
109.6497521866
 11
93.8083840107
 21
109.5521255893
  0
LINE
  5
41F
100
AcDbEntity
  8
0
100
AcDbLine
 62
9
  6
CONTINUOUS
 10
93.8083840107
 20
108.3521255893
 11
100.2569492172
 21
108.2544989919
  0
SPLINE
  5
420
100
AcDbEntity
  8
0
100
AcDbSpline
 62
9
  6
CONTINUOUS
 70
0
 71
3
 72
9
 73
5
 74
0
 42
0.0000001
 43
0.0000001
 44
0.0000000001
 40
0.0
 40
0.0
 40
0.0
 40
0.0
 40
0.3391886694
 40
1.0
 40
1.0
 40
1.0
 40
1.0
 10
96.6763546362
 20
121.0638783282
 30
0.0
 10
96.847496081
 20
120.8018634435
 30
0.0
 10
97.330946451
 20
120.0157888355
 30
0.0
 10
97.8041967267
 20
119.223802548
 30
0.0
 10
98.114858961
 20
118.6991811633
 30
0.0
  0
SPLINE
  5
421
100
AcDbEntity
  8
0
100
AcDbSpline
 62
9
  6
CONTINUOUS
 70
0
 71
3
 72
9
 73
5
 74
0
 42
0.0000001
 43
0.0000001
 44
0.0000000001
 40
0.0
 40
0.0
 40
0.0
 40
0.0
 40
0.332052571
 40
1.0
 40
1.0
 40
1.0
 40
1.0
 10
93.5091653644
 20
125.6356983503
 30
0.0
 10
93.524876419
 20
125.6087796614
 30
0.0
 10
93.5723760533
 20
125.5278240833
 30
0.0
 10
93.6195148938
 20
125.4466332117
 30
0.0
 10
93.6524790205
 20
125.3933014893
 30
0.0
  0
SPLINE
  5
422
100
AcDbEntity
  8
0
100
AcDbSpline
 62
9
  6
CONTINUOUS
 70
0
 71
3
 72
9
 73
5
 74
0
 42
0.0000001
 43
0.0000001
 44
0.0000000001
 40
0.0
 40
0.0
 40
0.0
 40
0.0
 40
0.6528761587
 40
1.0
 40
1.0
 40
1.0
 40
1.0
 10
99.8186197817
 20
118.8022665502
 30
0.0
 10
99.597946094
 20
119.1980444399
 30
0.0
 10
99.2625859436
 20
119.8056662375
 30
0.0
 10
98.9358380121
 20
120.418202486
 30
0.0
 10
98.8288325353
 20
120.6340638389
 30
0.0
  0
SPLINE
  5
423
100
AcDbEntity
  8
0
100
AcDbSpline
 62
9
  6
CONTINUOUS
 70
0
 71
3
 72
10
 73
6
 74
0
 42
0.0000001
 43
0.0000001
 44
0.0000000001
 40
0.0
 40
0.0
 40
0.0
 40
0.0
 40
0.1716602057
 40
0.4514421293
 40
1.0
 40
1.0
 40
1.0
 40
1.0
 10
96.8122036001
 20
124.943318624
 30
0.0
 10
96.7813879459
 20
125.0007315485
 30
0.0
 10
96.6961362428
 20
125.149416603
 30
0.0
 10
96.5078521937
 20
125.4789899586
 30
0.0
 10
96.3502621034
 20
125.7511001983
 30
0.0
 10
96.2441865
 20
125.9302818249
 30
0.0
  0
SPLINE
  5
424
100
AcDbEntity
  8
0
100
AcDbSpline
 62
9
  6
CONTINUOUS
 70
0
 71
3
 72
9
 73
5
 74
0
 42
0.0000001
 43
0.0000001
 44
0.0000000001
 40
0.0
 40
0.0
 40
0.0
 40
0.0
 40
0.344604205
 40
1.0
 40
1.0
 40
1.0
 40
1.0
 10
98.8288325353
 20
97.2701873396
 30
0.0
 10
98.9390253768
 20
97.4924691104
 30
0.0
 10
99.2783063818
 20
98.1276591973
 30
0.0
 10
99.6264669437
 20
98.7577658371
 30
0.0
 10
99.8564387221
 20
99.1697783837
 30
0.0
  0
SPLINE
  5
425
100
AcDbEntity
  8
0
100
AcDbSpline
 62
9
  6
CONTINUOUS
 70
0
 71
3
 72
10
 73
6
 74
0
 42
0.0000001
 43
0.0000001
 44
0.0000000001
 40
0.0
 40
0.0
 40
0.0
 40
0.0
 40
0.5483917287
 40
0.8280901117
 40
1.0
 40
1.0
 40
1.0
 40
1.0
 10
96.2441865
 20
91.9739693537
 30
0.0
 10
96.3502306136
 20
92.1530963334
 30
0.0
 10
96.5077751932
 20
92.4251234924
 30
0.0
 10
96.6960546322
 20
92.7546993041
 30
0.0
 10
96.7813468543
 20
92.9034341203
 30
0.0
 10
96.8122036001
 20
92.9609325546
 30
0.0
  0
SPLINE
  5
426
100
AcDbEntity
  8
0
100
AcDbSpline
 62
9
  6
CONTINUOUS
 70
0
 71
3
 72
9
 73
5
 74
0
 42
0.0000001
 43
0.0000001
 44
0.0000000001
 40
0.0
 40
0.0
 40
0.0
 40
0.0
 40
0.6581310357
 40
1.0
 40
1.0
 40
1.0
 40
1.0
 10
98.0613626774
 20
99.1147772664
 30
0.0
 10
97.7634541288
 20
98.6122348728
 30
0.0
 10
97.3078314018
 20
97.8504618304
 30
0.0
 10
96.8423072906
 20
97.094446031
 30
0.0
 10
96.6763546362
 20
96.8403728503
 30
0.0
  0
SPLINE
  5
427
100
AcDbEntity
  8
0
100
AcDbSpline
 62
9
  6
CONTINUOUS
 70
0
 71
3
 72
9
 73
5
 74
0
 42
0.0000001
 43
0.0000001
 44
0.0000000001
 40
0.0
 40
0.0
 40
0.0
 40
0.0
 40
0.1530804143
 40
1.0
 40
1.0
 40
1.0
 40
1.0
 10
93.6524790205
 20
92.5109496892
 30
0.0
 10
93.6449254329
 20
92.498726321
 30
0.0
 10
93.5965897509
 20
92.4182585456
 30
0.0
 10
93.5492373727
 20
92.3372109407
 30
0.0
 10
93.5091653644
 20
92.2685528283
 30
0.0
  0
ELLIPSE
  5
428
100
AcDbEntity
  8
RUNDUNGEN
100
AcDbEllipse
 62
7
  6
CONTINUOUS
 10
108.9030507789
 20
116.4573273022
 30
0.0
 11
0.0
 21
-2.0004061978
 31
0.0
 40
0.9997969423
 41
2.618081809
 42
3.6651034982
  0
ELLIPSE
  5
429
100
AcDbEntity
  8
RUNDUNGEN
100
AcDbEllipse
 62
7
  6
CONTINUOUS
 10
108.9030507789
 20
101.4469238764
 30
0.0
 11
0.0
 21
2.0004061978
 31
0.0
 40
0.9997969423
 41
2.618081809
 42
3.6651034982
  0
ELLIPSE
  5
42A
100
AcDbEntity
  8
AUSFORMSCHRAEGEN
100
AcDbEllipse
 62
7
  6
CONTINUOUS
 10
108.1485792195
 20
108.9521255893
 30
0.0
 11
-0.0
 21
11.75
 31
0.0
 40
0.0338856626
 41
-1.8577748254
 42
-1.6295347236
  0
ELLIPSE
  5
42B
100
AcDbEntity
  8
AUSFORMSCHRAEGEN
100
AcDbEllipse
 62
7
  6
CONTINUOUS
 10
108.1485792195
 20
108.9521255893
 30
0.0
 11
0.0
 21
11.75
 31
0.0
 40
0.0338856626
 41
-1.5120579299
 42
-1.2838178282
  0
ELLIPSE
  5
42C
100
AcDbEntity
  8
0
100
AcDbEllipse
 62
7
  6
CONTINUOUS
 10
91.2115610541
 20
108.9521255893
 30
0.0
 11
19.2056116009
 21
11.7449495457
 31
0.0
 40
0.0179359482
 41
-0.9657792541
 42
-0.7075699621
  0
ELLIPSE
  5
42D
100
AcDbEntity
  8
0
100
AcDbEllipse
 62
7
  6
CONTINUOUS
 10
91.2115610541
 20
108.9521255893
 30
0.0
 11
19.2056116009
 21
-11.7449495457
 31
0.0
 40
0.0179359482
 41
0.7075699621
 42
0.9657792541
  0
ELLIPSE
  5
42E
100
AcDbEntity
  8
RUNDUNGEN
100
AcDbEllipse
 62
7
  6
CONTINUOUS
 10
98.4358284501
 20
109.5967115878
 30
0.0
 11
0.0
 21
18.325598009
 31
0.0
 40
0.9993812007
 41
-3.9018799705
 42
-3.6011850873
  0
ELLIPSE
  5
42F
100
AcDbEntity
  8
AUSFORMSCHRAEGEN
100
AcDbEllipse
 62
7
  6
CONTINUOUS
 10
72.1863162
 20
108.9521255893
 30
0.0
 11
388.8841568629
 21
-11.7428596058
 31
0.0
 40
0.001053195
 41
1.4771937742
 42
1.4840467991
  0
ELLIPSE
  5
430
100
AcDbEntity
  8
AUSFORMSCHRAEGEN
100
AcDbEllipse
 62
7
  6
CONTINUOUS
 10
72.1863162
 20
108.9521255893
 30
0.0
 11
388.8841568629
 21
11.7428596058
 31
0.0
 40
0.001053195
 41
-1.4840467991
 42
-1.4771937742
  0
ELLIPSE
  5
431
100
AcDbEntity
  8
0
100
AcDbEllipse
 62
7
  6
CONTINUOUS
 10
100.4521487382
 20
110.0021427246
 30
0.0
 11
0.4025750024
 21
-0.2012721715
 31
0.0
 40
0.9998096356
 41
-1.1071030277
 42
0.4635410001
  0
ELLIPSE
  5
432
100
AcDbEntity
  8
0
100
AcDbEllipse
 62
7
  6
CONTINUOUS
 10
100.4521487382
 20
107.902108454
 30
0.0
 11
0.4025750024
 21
0.2012721715
 31
0.0
 40
0.9998096356
 41
-0.4635410001
 42
1.1071030277
  0
ELLIPSE
  5
433
100
AcDbEntity
  8
0
100
AcDbEllipse
 62
7
  6
CONTINUOUS
 10
102.1061397678
 20
115.3625761579
 30
0.0
 11
-0.0269806876
 21
0.4492762648
 31
0.0
 40
0.9998096356
 41
-4.2486956813
 42
-2.6780516535
  0
ELLIPSE
  5
434
100
AcDbEntity
  8
0
100
AcDbEllipse
 62
7
  6
CONTINUOUS
 10
100.4521487382
 20
114.0273041154
 30
0.0
 11
0.3631759709
 21
-0.2658909216
 31
0.0
 40
0.9997660869
 41
0.6318523941
 42
1.1554763119
  0
ELLIPSE
  5
435
100
AcDbEntity
  8
0
100
AcDbEllipse
 62
7
  6
CONTINUOUS
 10
100.4521487382
 20
103.8769470632
 30
0.0
 11
0.3631759709
 21
0.2658909216
 31
0.0
 40
0.9997660869
 41
-1.1554763119
 42
-0.6318523941
  0
ELLIPSE
  5
436
100
AcDbEntity
  8
0
100
AcDbEllipse
 62
7
  6
CONTINUOUS
 10
102.1061397678
 20
102.5416750207
 30
0.0
 11
0.0269806876
 21
0.4492762648
 31
0.0
 40
0.9998096356
 41
-0.4635410001
 42
1.1071030277
  0
ELLIPSE
  5
437
100
AcDbEntity
  8
RUNDUNGEN
100
AcDbEllipse
 62
7
  6
CONTINUOUS
 10
79.7755744123
 20
108.9521255893
 30
0.0
 11
13.567731326
 21
0.0
 31
0.0
 40
0.8660254038
 41
-1.2123130597
 42
-0.0860126438
  0
ENDSEC
  0
SECTION
  2
OBJECTS
  0
DICTIONARY
  5
C
100
AcDbDictionary
280
0
281
1
  3
ACAD_GROUP
350
D
  3
ACAD_MLINESTYLE
350
17
  3
ACAD_LAYOUT
350
1A
  3
ACAD_PLOTSETTINGS
350
19
  3
ACAD_PLOTSTYLENAME
350
E
  3
ACAD_TABLESTYLE
350
       438
  0
DICTIONARY
  5
D
102
{ACAD_REACTORS
330
C
102
}
100
AcDbDictionary
280
0
281
1
  0
ACDBDICTIONARYWDFLT
  5
E
102
{ACAD_REACTORS
330
C
102
}
100
AcDbDictionary
281
1
  3
Normal
350
F
100
AcDbDictionaryWithDefault
340
F
  0
DICTIONARY
  5
17
102
{ACAD_REACTORS
330
C
102
}
100
AcDbDictionary
280
0
281
1
  3
Standard
350
18
  0
DICTIONARY
  5
438
330
C
100
AcDbDictionary
281
1
  3
Standard
350
       43B
  3
Standard1
350
       43C
  0
DICTIONARY
  5
19
102
{ACAD_REACTORS
330
C
102
}
100
AcDbDictionary
281
1
  0
DICTIONARY
  5
1A
102
{ACAD_REACTORS
330
C
102
}
100
AcDbDictionary
281
1
  3
Model
350
439
  3
Layout1
350
43A
  0
ACDBPLACEHOLDER
  5
F
102
{ACAD_REACTORS
330
E
102
}
  0
MLINESTYLE
  5
18
102
{ACAD_REACTORS
330
17
102
}
100
AcDbMlineStyle
  2
STANDARD
 70
0
  3

 62
256
 51
90.0
 52
90.0
 71
2
 49
0.5
 62
256
  6
BYLAYER
 49
-0.5
 62
256
  6
BYLAYER
  0
LAYOUT
  5
439
102
{ACAD_REACTORS
330
1A
102
}
100
AcDbPlotSettings
  1

  2
none_device
  4

  6

 40
0.0
 41
0.0
 42
0.0
 43
0.0
 44
210.0
 45
297.0
 46
0.0
 47
0.0
 48
0.0
 49
0.0
140
0.0
141
0.0
142
1.0
143
1.0
 70
1024
 72
1
 73
0
 74
0
  7

 75
0
147
1.0
148
0.0
149
0.0
100
AcDbLayout
  1
Model
 70
0
 71
0
 10
0.0
 20
0.0
 11
210.0
 21
297.0
 12
0.0
 22
0.0
 32
0.0
 14
0.0
 24
0.0
 34
0.0
 15
0.0
 25
0.0
 35
0.0
146
0.0
 13
0.0
 23
0.0
 33
0.0
 16
1.0
 26
0.0
 36
0.0
 17
0.0
 27
1.0
 37
0.0
 76
0
330
213
345
0
346
0
  0
LAYOUT
  5
43A
102
{ACAD_REACTORS
330
1A
102
}
100
AcDbPlotSettings
  1

  2
none_device
  4

  6

 40
0.0
 41
0.0
 42
0.0
 43
0.0
 44
210.0
 45
297.0
 46
0.0
 47
0.0
 48
0.0
 49
0.0
140
0.0
141
0.0
142
1.0
143
1.0
 70
0
 72
1
 73
0
 74
0
  7

 75
0
147
1.0
148
0.0
149
0.0
100
AcDbLayout
  1
Layout1
 70
0
 71
1
 10
0.0
 20
0.0
 11
210.0
 21
297.0
 12
0.0
 22
0.0
 32
0.0
 14
0.0
 24
0.0
 34
0.0
 15
0.0
 25
0.0
 35
0.0
146
0.0
 13
0.0
 23
0.0
 33
0.0
 16
1.0
 26
0.0
 36
0.0
 17
0.0
 27
1.0
 37
0.0
 76
0
330
214
345
0
346
0
  0
TABLESTYLE
  5
43B
102
{ACAD_REACTORS
330
438
330
2E5
102
}
330
438
100
AcDbTableStyle
  3
Standard
 70
0
 71
0
 40
0.06
 41
0.06
280
1
281
1
  7
Standard
140
0.18
170
1
 62
0
 63
7
283
0
  7
Standard
140
0.18
170
1
 62
0
 63
7
283
0
  7
Standard
140
0.18
170
1
 62
0
 63
7
283
0
  0
TABLESTYLE
  5
43C
102
{ACAD_REACTORS
330
438
102
}
330
438
100
AcDbTableStyle
  3
Standard1
 70
1
 71
0
 40
0.06
 41
0.06
280
1
281
1
  7
Standard
140
0.18
170
1
 62
0
 63
7
283
0
  7
Standard
140
0.18
170
1
 62
0
 63
7
283
0
  7
Standard
140
0.18
170
1
 62
0
 63
7
283
0
  0
ENDSEC
  0
EOF
