999
DXF file: st-np3xl.dxf
999
Pro/ENGINEER 2011080 by Parametric Technology Corporation
  0
SECTION
  2
HEADER
  9
$ACADVER
  1
AC1021
  9
$DWGCODEPAGE
  3
ANSI_1252
  9
$EXTMAX
 10
210.0
 20
297.0
 30
0.0
  9
$EXTMIN
 10
0.0
 20
0.0
 30
0.0
  9
$LIMMIN
 10
0.0
 20
0.0
  9
$LIMMAX
 10
210.0
 20
297.0
  9
$VIEWCTR
 10
105.0
 20
148.5
  9
$VIEWSIZE
 40
297.0
  9
$CLAYER
  8
0
  9
$LTSCALE
 40
19.36
  9
$CELTYPE
  6
BYLAYER
  9
$DIMSCALE
 40
1.0
  9
$DIMASZ
 40
3.5
  9
$DIMEXO
 40
2.2
  9
$DIMDLI
 40
13.376
  9
$DIMEXE
 40
6.336
  9
$DIMCEN
 40
3.168
  9
$DIMLFAC
 40
1.0
  9
$DIMBLK
  1
_FILLED
  9
$DIMTXT
 40
3.5
  9
$DIMTOL
 70
1
  9
$DIMLIM
 70
0
  9
$DIMTFAC
 40
1.0
  9
$DIMTP
 40
0.005
  9
$DIMTM
 40
0.005
  9
$PDMODE
 70
3
  9
$PDSIZE
 40
0.3125
  9
$HANDSEED
  5
510
  9
$TILEMODE
 70
1
  9
$MEASUREMENT
 70
1
  9
$INSUNITS
 70
4
  0
ENDSEC
  0
SECTION
  2
CLASSES
  0
CLASS
  1
ACDBDICTIONARYWDFLT
  2
AcDbDictionaryWithDefault
  3
AutoCAD 2000
 90
0
 91
1
280
0
281
0
  0
CLASS
  1
ACDBPLACEHOLDER
  2
AcDbPlaceHolder
  3
AutoCAD 2000
 90
0
 91
1
280
0
281
0
  0
CLASS
  1
LAYOUT
  2
AcDbLayout
  3
AutoCAD 2000
 90
0
 91
0
280
0
281
0
  0
CLASS
  1
TABLESTYLE
  2
AcDbTableStyle
  3
ObjectDBX Classes
 90
2047
 91
1
280
0
281
0
  0
CLASS
  1
ACAD_TABLE
  2
AcDbTable
  3
ObjectDBX Classes
 90
1025
 91
1
280
0
281
1
  0
ENDSEC
  0
SECTION
  2
TABLES
  0
TABLE
  2
VPORT
  5
8
100
AcDbSymbolTable
 70
2
  0
VPORT
  5
1F4
100
AcDbSymbolTableRecord
100
AcDbViewportTableRecord
  2
*ACTIVE
 70
0
 10
0.0
 20
0.0
 11
1.0
 21
1.0
 12
105.0
 22
148.5
 13
0.0
 23
0.0
 14
1.0
 24
1.0
 15
0.0
 25
0.0
 16
0.0
 26
0.0
 36
1.0
 17
0.0
 27
0.0
 37
0.0
 40
297.0
 41
0.7070707071
 42
50.0
 43
0.0
 44
0.0
 50
0.0
 51
0.0
 71
0
 72
100
 73
1
 74
1
 75
0
 76
0
 77
0
 78
0
  0
ENDTAB
  0
TABLE
  2
LTYPE
  5
5
100
AcDbSymbolTable
 70
6
  0
LTYPE
  5
14
100
AcDbSymbolTableRecord
100
AcDbLinetypeTableRecord
  2
BYBLOCK
 70
0
  3

 72
65
 73
0
 40
0.0
  0
LTYPE
  5
15
100
AcDbSymbolTableRecord
100
AcDbLinetypeTableRecord
  2
BYLAYER
 70
0
  3

 72
65
 73
0
 40
0.0
  0
LTYPE
  5
16
100
AcDbSymbolTableRecord
100
AcDbLinetypeTableRecord
  2
CONTINUOUS
 70
64
  3
Solid line
 72
65
 73
0
 40
0.0
  0
LTYPE
  5
1F5
100
AcDbSymbolTableRecord
100
AcDbLinetypeTableRecord
  2
CENTER
 70
64
  3
____ _ ____ _ ____ _ ____ _ ____ _ ____ _ ____
 72
65
 73
4
 40
0.6
 49
0.375
 74
0
 49
-0.075
 74
0
 49
0.075
 74
0
 49
-0.075
 74
0
  0
LTYPE
  5
1F6
100
AcDbSymbolTableRecord
100
AcDbLinetypeTableRecord
  2
HIDDEN
 70
64
  3
- - - - - - - - - - - - - - - - - - - -
 72
65
 73
2
 40
0.2
 49
0.1
 74
0
 49
-0.1
 74
0
  0
LTYPE
  5
1F7
100
AcDbSymbolTableRecord
100
AcDbLinetypeTableRecord
  2
PHANTOM
 70
64
  3
_____ _ _ _____ _ _ _____ _ _ _____
 72
65
 73
6
 40
0.8
 49
0.45
 74
0
 49
-0.05
 74
0
 49
0.1
 74
0
 49
-0.05
 74
0
 49
0.1
 74
0
 49
-0.05
 74
0
  0
LTYPE
  5
1F8
100
AcDbSymbolTableRecord
100
AcDbLinetypeTableRecord
  2
DOT
 70
64
  3
. . . . . . . . . . . . . . . . . . . .
 72
65
 73
2
 40
0.2
 49
0.1
 74
0
 49
-0.1
 74
0
  0
LTYPE
  5
1F9
100
AcDbSymbolTableRecord
100
AcDbLinetypeTableRecord
  2
DASHED
 70
64
  3
- - - - - - - - - - - - - - - - - - - -
 72
65
 73
2
 40
0.2
 49
0.1
 74
0
 49
-0.1
 74
0
  0
ENDTAB
  0
TABLE
  2
LAYER
  5
2
100
AcDbSymbolTable
 70
36
  0
LAYER
  5
10
100
AcDbSymbolTableRecord
100
AcDbLayerTableRecord
  2
0
 70
0
 62
7
  6
CONTINUOUS
370
-3
390
F
  0
LAYER
  5
1FA
100
AcDbSymbolTableRecord
100
AcDbLayerTableRecord
  2
DEFAULT_1
 70
0
 62
7
  6
CENTER
370
-3
390
F
  0
LAYER
  5
1FB
100
AcDbSymbolTableRecord
100
AcDbLayerTableRecord
  2
DEFAULT_2
 70
0
 62
8
  6
HIDDEN
370
-3
390
F
  0
LAYER
  5
1FC
100
AcDbSymbolTableRecord
100
AcDbLayerTableRecord
  2
DEFAULT_3
 70
0
 62
7
  6
PHANTOM
370
-3
390
F
  0
LAYER
  5
1FD
100
AcDbSymbolTableRecord
100
AcDbLayerTableRecord
  2
AUSFORMSCHRAEGEN
 70
0
 62
7
  6
CONTINUOUS
370
-3
390
F
  0
LAYER
  5
1FE
100
AcDbSymbolTableRecord
100
AcDbLayerTableRecord
  2
BEMASSUNGEN
 70
0
 62
7
  6
CONTINUOUS
370
-3
390
F
  0
LAYER
  5
1FF
100
AcDbSymbolTableRecord
100
AcDbLayerTableRecord
  2
BEZUGSACHSEN
 70
0
 62
7
  6
CONTINUOUS
370
-3
390
F
  0
LAYER
  5
200
100
AcDbSymbolTableRecord
100
AcDbLayerTableRecord
  2
BEZUGSEBENEN
 70
0
 62
7
  6
CONTINUOUS
370
-3
390
F
  0
LAYER
  5
201
100
AcDbSymbolTableRecord
100
AcDbLayerTableRecord
  2
BEZUGSPUNKTE
 70
0
 62
7
  6
CONTINUOUS
370
-3
390
F
  0
LAYER
  5
202
100
AcDbSymbolTableRecord
100
AcDbLayerTableRecord
  2
BG_STARTBEZUEGE
 70
0
 62
7
  6
CONTINUOUS
370
-3
390
F
  0
LAYER
  5
203
100
AcDbSymbolTableRecord
100
AcDbLayerTableRecord
  2
BOHRUNGEN
 70
0
 62
7
  6
CONTINUOUS
370
-3
390
F
  0
LAYER
  5
204
100
AcDbSymbolTableRecord
100
AcDbLayerTableRecord
  2
BZ-EBENEN
 70
0
 62
7
  6
CONTINUOUS
370
-3
390
F
  0
LAYER
  5
205
100
AcDbSymbolTableRecord
100
AcDbLayerTableRecord
  2
BZ-KOORDSYS
 70
0
 62
7
  6
CONTINUOUS
370
-3
390
F
  0
LAYER
  5
206
100
AcDbSymbolTableRecord
100
AcDbLayerTableRecord
  2
BZ-KURVEN
 70
0
 62
7
  6
CONTINUOUS
370
-3
390
F
  0
LAYER
  5
207
100
AcDbSymbolTableRecord
100
AcDbLayerTableRecord
  2
FASEN
 70
0
 62
7
  6
CONTINUOUS
370
-3
390
F
  0
LAYER
  5
208
100
AcDbSymbolTableRecord
100
AcDbLayerTableRecord
  2
FLAECHEN
 70
0
 62
7
  6
CONTINUOUS
370
-3
390
F
  0
LAYER
  5
209
100
AcDbSymbolTableRecord
100
AcDbLayerTableRecord
  2
GEWINDE
 70
0
 62
7
  6
CONTINUOUS
370
-3
390
F
  0
LAYER
  5
20A
100
AcDbSymbolTableRecord
100
AcDbLayerTableRecord
  2
HILFEN
 70
0
 62
7
  6
CONTINUOUS
370
-3
390
F
  0
LAYER
  5
20B
100
AcDbSymbolTableRecord
100
AcDbLayerTableRecord
  2
KANTENFASEN
 70
0
 62
7
  6
CONTINUOUS
370
-3
390
F
  0
LAYER
  5
20C
100
AcDbSymbolTableRecord
100
AcDbLayerTableRecord
  2
KE-OHNE-GEOMETRIE
 70
0
 62
7
  6
CONTINUOUS
370
-3
390
F
  0
LAYER
  5
20D
100
AcDbSymbolTableRecord
100
AcDbLayerTableRecord
  2
KURVEN
 70
0
 62
7
  6
CONTINUOUS
370
-3
390
F
  0
LAYER
  5
20E
100
AcDbSymbolTableRecord
100
AcDbLayerTableRecord
  2
OBERFL-SYMBOLE
 70
0
 62
7
  6
CONTINUOUS
370
-3
390
F
  0
LAYER
  5
20F
100
AcDbSymbolTableRecord
100
AcDbLayerTableRecord
  2
PLAZIERUNG
 70
0
 62
7
  6
CONTINUOUS
370
-3
390
F
  0
LAYER
  5
210
100
AcDbSymbolTableRecord
100
AcDbLayerTableRecord
  2
RADIEN
 70
0
 62
7
  6
CONTINUOUS
370
-3
390
F
  0
LAYER
  5
211
100
AcDbSymbolTableRecord
100
AcDbLayerTableRecord
  2
REF-BEMASSUNGEN
 70
0
 62
7
  6
CONTINUOUS
370
-3
390
F
  0
LAYER
  5
212
100
AcDbSymbolTableRecord
100
AcDbLayerTableRecord
  2
RUNDUNGEN
 70
0
 62
7
  6
CONTINUOUS
370
-3
390
F
  0
LAYER
  5
213
100
AcDbSymbolTableRecord
100
AcDbLayerTableRecord
  2
TEIL_STARTBEZUEGE
 70
0
 62
7
  6
CONTINUOUS
370
-3
390
F
  0
LAYER
  5
214
100
AcDbSymbolTableRecord
100
AcDbLayerTableRecord
  2
XSEC_DATUMS
 70
0
 62
7
  6
CONTINUOUS
370
-3
390
F
  0
LAYER
  5
215
100
AcDbSymbolTableRecord
100
AcDbLayerTableRecord
  2
ZEICHNUNGSBEMASSUNGEN
 70
0
 62
7
  6
CONTINUOUS
370
-3
390
F
  0
ENDTAB
  0
TABLE
  2
STYLE
  5
3
100
AcDbSymbolTable
 70
1
  0
STYLE
  5
11
100
AcDbSymbolTableRecord
100
AcDbTextStyleTableRecord
  2
STANDARD
 70
0
 40
0.0
 41
0.7
 50
0.0
 71
0
 42
0.2
  3
txt
  4

  0
STYLE
  5
216
100
AcDbSymbolTableRecord
100
AcDbTextStyleTableRecord
  2
TEXTSTYLE_1
 70
0
 40
0.0
 41
0.8
 50
0.0
 71
0
 42
0.2
  3
gdt
  4

  0
STYLE
  5
217
100
AcDbSymbolTableRecord
100
AcDbTextStyleTableRecord
  2
TEXTSTYLE_2
 70
0
 40
0.0
 41
0.7
 50
0.0
 71
0
 42
0.2
  3
gdt
  4

  0
STYLE
  5
218
100
AcDbSymbolTableRecord
100
AcDbTextStyleTableRecord
  2
TEXTSTYLE_3
 70
0
 40
0.0
 41
0.8
 50
0.0
 71
0
 42
0.2
  3
txt
  4

  0
ENDTAB
  0
TABLE
  2
VIEW
  5
6
100
AcDbSymbolTable
 70
0
  0
ENDTAB
  0
TABLE
  2
UCS
  5
7
100
AcDbSymbolTable
 70
0
  0
ENDTAB
  0
TABLE
  2
APPID
  5
9
100
AcDbSymbolTable
 70
1
  0
APPID
  5
219
100
AcDbSymbolTableRecord
100
AcDbRegAppTableRecord
  2
ACAD
 70
0
  0
ENDTAB
  0
TABLE
  2
BLOCK_RECORD
  5
1
100
AcDbSymbolTable
 70
0
  0
BLOCK_RECORD
  5
21A
100
AcDbSymbolTableRecord
100
AcDbBlockTableRecord
  2
*Model_Space
  0
BLOCK_RECORD
  5
21B
100
AcDbSymbolTableRecord
100
AcDbBlockTableRecord
  2
*Paper_Space
  0
BLOCK_RECORD
  5
21C
100
AcDbSymbolTableRecord
100
AcDbBlockTableRecord
  2
_FILLED
  0
BLOCK_RECORD
  5
21D
100
AcDbSymbolTableRecord
100
AcDbBlockTableRecord
  2
*D0
  0
BLOCK_RECORD
  5
21E
100
AcDbSymbolTableRecord
100
AcDbBlockTableRecord
  2
*D1
  0
BLOCK_RECORD
  5
21F
100
AcDbSymbolTableRecord
100
AcDbBlockTableRecord
  2
*D2
  0
BLOCK_RECORD
  5
220
100
AcDbSymbolTableRecord
100
AcDbBlockTableRecord
  2
*D3
  0
BLOCK_RECORD
  5
221
100
AcDbSymbolTableRecord
100
AcDbBlockTableRecord
  2
SYMBOL_3_BL0
  0
BLOCK_RECORD
  5
222
100
AcDbSymbolTableRecord
100
AcDbBlockTableRecord
  2
*T1
  0
ENDTAB
  0
TABLE
  2
DIMSTYLE
  5
A
100
AcDbSymbolTable
 70
1
100
AcDbDimStyleTable
 71
0
  0
DIMSTYLE
105
223
100
AcDbSymbolTableRecord
100
AcDbDimStyleTableRecord
  2
STANDARD
 70
0
  3

  4

 40
1.0
 41
3.5
 42
0.0625
 43
0.38
 44
0.18
 45
0.0
 46
0.0
 47
0.005
 48
0.005
140
3.5
141
0.09
142
0.0
143
25.4
144
1.0
145
0.0
146
1.0
147
0.09
 71
1.0
 72
0.0
 73
0
 74
0
 75
0
 76
0
 77
1
 78
8
170
0
171
2
172
0
173
0
174
0
175
0
176
0
177
0
178
5
270
2
271
3
272
3
273
2
274
2
275
0
280
0
281
0
282
0
283
1
284
8
285
0
286
0
287
3
288
0
340
11
341
21C
342
21C
343
21C
344
21C
  0
DIMSTYLE
105
224
100
AcDbSymbolTableRecord
100
AcDbDimStyleTableRecord
  2
DIMSTYLE_1
 70
0
  3

  4

 40
1.0
 41
3.5
 42
0.0625
 43
0.38
 44
0.18
 45
0.0
 46
0.0
 47
0.2
 48
0.2
140
3.5
141
0.09
142
0.0
143
25.4
144
1.0
145
0.0
146
1.0
147
0.09
 71
0.0
 72
0.0
 73
0
 74
0
 75
0
 76
0
 77
1
 78
8
170
0
171
2
172
0
173
0
174
0
175
0
176
0
177
0
178
5
270
2
271
3
272
3
273
2
274
2
275
0
280
0
281
0
282
0
283
1
284
8
285
0
286
0
287
3
288
0
340
11
341
21C
342
21C
343
21C
344
21C
  0
DIMSTYLE
105
225
100
AcDbSymbolTableRecord
100
AcDbDimStyleTableRecord
  2
DIMSTYLE_2
 70
0
  3

  4

 40
1.0
 41
3.5
 42
0.0625
 43
0.38
 44
0.18
 45
0.0
 46
0.0
 47
0.2
 48
0.2
140
3.5
141
0.09
142
0.0
143
25.4
144
1.0
145
0.0
146
1.0
147
0.09
 71
0.0
 72
0.0
 73
0
 74
0
 75
0
 76
0
 77
1
 78
8
170
0
171
2
172
0
173
0
174
0
175
0
176
0
177
0
178
5
270
2
271
1
272
1
273
2
274
2
275
0
280
0
281
0
282
0
283
1
284
8
285
0
286
0
287
3
288
0
340
11
341
21C
342
21C
343
21C
344
21C
  0
DIMSTYLE
105
226
100
AcDbSymbolTableRecord
100
AcDbDimStyleTableRecord
  2
DIMSTYLE_3
 70
0
  3

  4

 40
1.0
 41
3.5
 42
0.0625
 43
0.38
 44
0.18
 45
0.0
 46
0.0
 47
0.3
 48
0.3
140
3.5
141
0.09
142
0.0
143
25.4
144
1.0
145
0.0
146
1.0
147
0.09
 71
0.0
 72
0.0
 73
0
 74
0
 75
0
 76
0
 77
1
 78
8
170
0
171
2
172
0
173
0
174
0
175
0
176
0
177
0
178
5
270
2
271
3
272
3
273
2
274
2
275
0
280
0
281
0
282
0
283
1
284
8
285
0
286
0
287
3
288
0
340
11
341
21C
342
21C
343
21C
344
21C
  0
DIMSTYLE
105
227
100
AcDbSymbolTableRecord
100
AcDbDimStyleTableRecord
  2
DIMSTYLE_4
 70
0
  3

  4

 40
1.0
 41
3.5
 42
0.0625
 43
0.38
 44
0.18
 45
0.0
 46
0.0
 47
0.3
 48
0.3
140
3.5
141
0.09
142
0.0
143
25.4
144
1.0
145
0.0
146
1.0
147
0.09
 71
0.0
 72
0.0
 73
0
 74
0
 75
0
 76
0
 77
1
 78
8
170
0
171
2
172
0
173
0
174
0
175
0
176
0
177
0
178
5
270
2
271
2
272
2
273
2
274
2
275
0
280
0
281
0
282
0
283
1
284
8
285
0
286
0
287
3
288
0
340
11
341
21C
342
21C
343
21C
344
21C
  0
ENDTAB
  0
ENDSEC
  0
SECTION
  2
BLOCKS
  0
BLOCK
  5
20
100
AcDbEntity
  8
0
100
AcDbBlockBegin
  2
*Model_Space
 70
0
 10
0.0
 20
0.0
 30
0.0
  3
*Model_Space
  1

  0
ENDBLK
  5
21
100
AcDbEntity
  8
0
100
AcDbBlockEnd
  0
BLOCK
  5
1C
100
AcDbEntity
  8
0
100
AcDbBlockBegin
  2
*Paper_Space
 70
0
 10
0.0
 20
0.0
 30
0.0
  3
*Paper_Space
  1

  0
ENDBLK
  5
1D
100
AcDbEntity
  8
0
100
AcDbBlockEnd
  0
BLOCK
  5
228
100
AcDbEntity
  8
0
100
AcDbBlockBegin
 62
2
  6
CONTINUOUS
  2
SYMBOL_3_BL0
 70
64
 10
98.0245925022
 20
9.2066660654
  3
SYMBOL_3_BL0
  1

  0
LINE
  5
229
100
AcDbEntity
  8
0
100
AcDbLine
 62
2
  6
CONTINUOUS
 10
77.5544360471
 20
8.0329859648
 11
75.0539855722
 21
9.5420032339
  0
LINE
  5
22A
100
AcDbEntity
  8
0
100
AcDbLine
 62
2
  6
CONTINUOUS
 10
75.2018073047
 20
10.3803457168
 11
77.7022587796
 21
8.8713284476
  0
LINE
  5
22B
100
AcDbEntity
  8
0
100
AcDbLine
 62
2
  6
CONTINUOUS
 10
107.6509415813
 20
8.0329859648
 11
106.0530264731
 21
8.9551632959
  0
LINE
  5
22C
100
AcDbEntity
  8
0
100
AcDbLine
 62
2
  6
CONTINUOUS
 10
97.3194792782
 20
8.8713284476
 11
98.5968389666
 21
8.0329859648
  0
LINE
  5
22D
100
AcDbEntity
  8
0
100
AcDbLine
 62
2
  6
CONTINUOUS
 10
100.5250274771
 20
8.0329859648
 11
99.2476677888
 21
8.8713284476
  0
LINE
  5
22E
100
AcDbEntity
  8
0
100
AcDbLine
 62
2
  6
CONTINUOUS
 10
107.8554912111
 20
9.2904996891
 11
109.7467977884
 21
8.0329859648
  0
LINE
  5
22F
100
AcDbEntity
  8
0
100
AcDbLine
 62
2
  6
CONTINUOUS
 10
115.1413990258
 20
10.1843850714
 11
115.471200429
 21
8.8651804588
  0
LINE
  5
230
100
AcDbEntity
  8
0
100
AcDbLine
 62
2
  6
CONTINUOUS
 10
115.5621982643
 20
8.5011891175
 11
115.6792490525
 21
8.0329859648
  0
LINE
  5
231
100
AcDbEntity
  8
0
100
AcDbLine
 62
2
  6
CONTINUOUS
 10
116.611688365
 20
10.3803457168
 11
117.198528303
 21
8.0329859648
  0
LINE
  5
232
100
AcDbEntity
  8
0
100
AcDbLine
 62
2
  6
CONTINUOUS
 10
73.1950539363
 20
8.0329859648
 11
73.6089561873
 21
10.3803457168
  0
LINE
  5
233
100
AcDbEntity
  8
0
100
AcDbLine
 62
2
  6
CONTINUOUS
 10
75.0539855722
 20
9.5420032339
 11
74.7879050537
 21
8.0329859648
  0
LINE
  5
234
100
AcDbEntity
  8
0
100
AcDbLine
 62
2
  6
CONTINUOUS
 10
77.7022587796
 20
8.8713284476
 11
77.9683382981
 21
10.3803457168
  0
LINE
  5
235
100
AcDbEntity
  8
0
100
AcDbLine
 62
2
  6
CONTINUOUS
 10
79.5611904155
 20
10.3803457168
 11
79.1472871645
 21
8.0329859648
  0
LINE
  5
236
100
AcDbEntity
  8
0
100
AcDbLine
 62
2
  6
CONTINUOUS
 10
80.4048008888
 20
8.0329859648
 11
80.8187041397
 21
10.3803457168
  0
LINE
  5
237
100
AcDbEntity
  8
0
100
AcDbLine
 62
2
  6
CONTINUOUS
 10
82.2390275694
 20
9.8773396271
 11
82.1651167031
 21
9.4581683856
  0
LINE
  5
238
100
AcDbEntity
  8
0
100
AcDbLine
 62
2
  6
CONTINUOUS
 10
82.0764228636
 20
8.9551632959
 11
82.0025119974
 21
8.5359920545
  0
LINE
  5
239
100
AcDbEntity
  8
0
100
AcDbLine
 62
2
  6
CONTINUOUS
 10
84.3448077585
 20
9.4581683856
 11
84.256113919
 21
8.9551632959
  0
LINE
  5
23A
100
AcDbEntity
  8
0
100
AcDbLine
 62
2
  6
CONTINUOUS
 10
85.010417554
 20
10.3803457168
 11
84.9217247145
 21
9.8773396271
  0
LINE
  5
23B
100
AcDbEntity
  8
0
100
AcDbLine
 62
2
  6
CONTINUOUS
 10
84.6852081425
 20
8.5359920545
 11
84.596515303
 21
8.0329859648
  0
LINE
  5
23C
100
AcDbEntity
  8
0
100
AcDbLine
 62
2
  6
CONTINUOUS
 10
85.5789415251
 20
8.850126486
 11
85.8487610368
 21
10.3803457168
  0
LINE
  5
23D
100
AcDbEntity
  8
0
100
AcDbLine
 62
2
  6
CONTINUOUS
 10
87.357777306
 20
10.3803457168
 11
87.1119527508
 21
8.9862012398
  0
LINE
  5
23E
100
AcDbEntity
  8
0
100
AcDbLine
 62
2
  6
CONTINUOUS
 10
88.9423444384
 20
8.907020383
 11
89.2021319682
 21
10.3803457168
  0
LINE
  5
23F
100
AcDbEntity
  8
0
100
AcDbLine
 62
2
  6
CONTINUOUS
 10
90.7111492373
 20
10.3803457168
 11
90.4145627741
 21
8.6983237607
  0
LINE
  5
240
100
AcDbEntity
  8
0
100
AcDbLine
 62
2
  6
CONTINUOUS
 10
91.1945133626
 20
9.7935057788
 11
91.2979891753
 21
10.3803457168
  0
LINE
  5
241
100
AcDbEntity
  8
0
100
AcDbLine
 62
2
  6
CONTINUOUS
 10
92.0577658004
 20
8.0329859648
 11
92.3681932386
 21
9.7935057788
  0
LINE
  5
242
100
AcDbEntity
  8
0
100
AcDbLine
 62
2
  6
CONTINUOUS
 10
94.0448782043
 20
9.7935057788
 11
93.7344517661
 21
8.0329859648
  0
LINE
  5
243
100
AcDbEntity
  8
0
100
AcDbLine
 62
2
  6
CONTINUOUS
 10
95.322033893
 20
10.3803457168
 11
95.2185580803
 21
9.7935057788
  0
LINE
  5
244
100
AcDbEntity
  8
0
100
AcDbLine
 62
2
  6
CONTINUOUS
 10
95.908873831
 20
10.3803457168
 11
95.49497158
 21
8.0329859648
  0
LINE
  5
245
100
AcDbEntity
  8
0
100
AcDbLine
 62
2
  6
CONTINUOUS
 10
97.1716565457
 20
8.0329859648
 11
97.3194792782
 21
8.8713284476
  0
LINE
  5
246
100
AcDbEntity
  8
0
100
AcDbLine
 62
2
  6
CONTINUOUS
 10
97.4081721177
 20
9.3743345373
 11
97.5116479304
 21
9.9611744753
  0
LINE
  5
247
100
AcDbEntity
  8
0
100
AcDbLine
 62
2
  6
CONTINUOUS
 10
101.1957022634
 20
8.0329859648
 11
101.6096045144
 21
10.3803457168
  0
LINE
  5
248
100
AcDbEntity
  8
0
100
AcDbLine
 62
2
  6
CONTINUOUS
 10
103.28629048
 20
10.3803457168
 11
102.8723872291
 21
8.0329859648
  0
LINE
  5
249
100
AcDbEntity
  8
0
100
AcDbLine
 62
2
  6
CONTINUOUS
 10
104.2137358016
 20
8.0329859648
 11
104.6276390526
 21
10.3803457168
  0
LINE
  5
24A
100
AcDbEntity
  8
0
100
AcDbLine
 62
2
  6
CONTINUOUS
 10
106.3043240183
 20
10.3803457168
 11
106.1121553661
 21
9.2904996891
  0
LINE
  5
24B
100
AcDbEntity
  8
0
100
AcDbLine
 62
2
  6
CONTINUOUS
 10
106.0530264731
 20
8.9551632959
 11
105.8904217673
 21
8.0329859648
  0
LINE
  5
24C
100
AcDbEntity
  8
0
100
AcDbLine
 62
2
  6
CONTINUOUS
 10
117.8923160475
 20
8.5313940628
 11
118.1405795982
 21
9.9393685148
  0
LINE
  5
24D
100
AcDbEntity
  8
0
100
AcDbLine
 62
2
  6
CONTINUOUS
 10
119.4637212037
 20
8.8526434815
 11
119.6196779214
 21
9.7371138808
  0
LINE
  5
24E
100
AcDbEntity
  8
0
100
AcDbLine
 62
2
  6
CONTINUOUS
 10
120.5561772267
 20
8.8812524297
 11
120.5944831573
 21
9.0984910365
  0
LINE
  5
24F
100
AcDbEntity
  8
0
100
AcDbLine
 62
2
  6
CONTINUOUS
 10
121.0125094008
 20
8.0329859648
 11
121.017391392
 21
8.0606719147
  0
LINE
  5
250
100
AcDbEntity
  8
0
100
AcDbLine
 62
2
  6
CONTINUOUS
 10
121.1430231646
 20
8.7731656253
 11
121.1620821301
 21
8.8812524297
  0
LINE
  5
251
100
AcDbEntity
  8
0
100
AcDbLine
 62
2
  6
CONTINUOUS
 10
122.5272706596
 20
8.0329859648
 11
122.7151483196
 21
9.0984910365
  0
LINE
  5
252
100
AcDbEntity
  8
0
100
AcDbLine
 62
2
  6
CONTINUOUS
 10
122.8291061133
 20
9.7447798669
 11
122.854131068
 21
9.8867056101
  0
LINE
  5
253
100
AcDbEntity
  8
0
100
AcDbLine
 62
2
  6
CONTINUOUS
 10
109.7467977884
 20
8.0329859648
 11
107.6509415813
 21
8.0329859648
  0
LINE
  5
254
100
AcDbEntity
  8
0
100
AcDbLine
 62
2
  6
CONTINUOUS
 10
73.1950539363
 20
8.0329859648
 11
74.7879050537
 21
8.0329859648
  0
LINE
  5
255
100
AcDbEntity
  8
0
100
AcDbLine
 62
2
  6
CONTINUOUS
 10
105.8904217673
 20
8.0329859648
 11
104.2137358016
 21
8.0329859648
  0
LINE
  5
256
100
AcDbEntity
  8
0
100
AcDbLine
 62
2
  6
CONTINUOUS
 10
102.8723872291
 20
8.0329859648
 11
101.1957022634
 21
8.0329859648
  0
LINE
  5
257
100
AcDbEntity
  8
0
100
AcDbLine
 62
2
  6
CONTINUOUS
 10
93.7344517661
 20
8.0329859648
 11
92.0577658004
 21
8.0329859648
  0
LINE
  5
258
100
AcDbEntity
  8
0
100
AcDbLine
 62
2
  6
CONTINUOUS
 10
95.49497158
 20
8.0329859648
 11
97.1716565457
 21
8.0329859648
  0
LINE
  5
259
100
AcDbEntity
  8
0
100
AcDbLine
 62
2
  6
CONTINUOUS
 10
84.596515303
 20
8.0329859648
 11
80.4048008888
 21
8.0329859648
  0
LINE
  5
25A
100
AcDbEntity
  8
0
100
AcDbLine
 62
2
  6
CONTINUOUS
 10
98.5968389666
 20
8.0329859648
 11
100.5250274771
 21
8.0329859648
  0
LINE
  5
25B
100
AcDbEntity
  8
0
100
AcDbLine
 62
2
  6
CONTINUOUS
 10
79.1472871645
 20
8.0329859648
 11
77.5544360471
 21
8.0329859648
  0
LINE
  5
25C
100
AcDbEntity
  8
0
100
AcDbLine
 62
2
  6
CONTINUOUS
 10
111.8930159044
 20
8.0329859648
 11
113.5278499458
 21
8.0329859648
  0
LINE
  5
25D
100
AcDbEntity
  8
0
100
AcDbLine
 62
2
  6
CONTINUOUS
 10
115.6792490525
 20
8.0329859648
 11
117.198528303
 21
8.0329859648
  0
LINE
  5
25E
100
AcDbEntity
  8
0
100
AcDbLine
 62
2
  6
CONTINUOUS
 10
121.0125094008
 20
8.0329859648
 11
122.5272706596
 21
8.0329859648
  0
LINE
  5
25F
100
AcDbEntity
  8
0
100
AcDbLine
 62
2
  6
CONTINUOUS
 10
113.8790013104
 20
8.5011891175
 11
115.5621982643
 21
8.5011891175
  0
LINE
  5
260
100
AcDbEntity
  8
0
100
AcDbLine
 62
2
  6
CONTINUOUS
 10
82.0025119974
 20
8.5359920545
 11
84.6852081425
 21
8.5359920545
  0
LINE
  5
261
100
AcDbEntity
  8
0
100
AcDbLine
 62
2
  6
CONTINUOUS
 10
114.1519948163
 20
8.8651804588
 11
115.471200429
 21
8.8651804588
  0
LINE
  5
262
100
AcDbEntity
  8
0
100
AcDbLine
 62
2
  6
CONTINUOUS
 10
120.5561772267
 20
8.8812524297
 11
121.1620821301
 21
8.8812524297
  0
LINE
  5
263
100
AcDbEntity
  8
0
100
AcDbLine
 62
2
  6
CONTINUOUS
 10
84.256113919
 20
8.9551632959
 11
82.0764228636
 21
8.9551632959
  0
LINE
  5
264
100
AcDbEntity
  8
0
100
AcDbLine
 62
2
  6
CONTINUOUS
 10
120.5944831573
 20
9.0984910365
 11
122.7151483196
 21
9.0984910365
  0
LINE
  5
265
100
AcDbEntity
  8
0
100
AcDbLine
 62
2
  6
CONTINUOUS
 10
98.4693321973
 20
9.3743345373
 11
97.4081721177
 21
9.3743345373
  0
LINE
  5
266
100
AcDbEntity
  8
0
100
AcDbLine
 62
2
  6
CONTINUOUS
 10
82.1651167031
 20
9.4581683856
 11
84.3448077585
 21
9.4581683856
  0
LINE
  5
267
100
AcDbEntity
  8
0
100
AcDbLine
 62
2
  6
CONTINUOUS
 10
121.2929528933
 20
9.7447798669
 11
122.8291061133
 21
9.7447798669
  0
LINE
  5
268
100
AcDbEntity
  8
0
100
AcDbLine
 62
2
  6
CONTINUOUS
 10
95.2185580803
 20
9.7935057788
 11
94.0448782043
 21
9.7935057788
  0
LINE
  5
269
100
AcDbEntity
  8
0
100
AcDbLine
 62
2
  6
CONTINUOUS
 10
92.3681932386
 20
9.7935057788
 11
91.1945133626
 21
9.7935057788
  0
LINE
  5
26A
100
AcDbEntity
  8
0
100
AcDbLine
 62
2
  6
CONTINUOUS
 10
84.9217247145
 20
9.8773396271
 11
82.2390275694
 21
9.8773396271
  0
LINE
  5
26B
100
AcDbEntity
  8
0
100
AcDbLine
 62
2
  6
CONTINUOUS
 10
97.5116479304
 20
9.9611744753
 11
98.7657596609
 21
9.9611744753
  0
LINE
  5
26C
100
AcDbEntity
  8
0
100
AcDbLine
 62
2
  6
CONTINUOUS
 10
73.6089561873
 20
10.3803457168
 11
75.2018073047
 21
10.3803457168
  0
LINE
  5
26D
100
AcDbEntity
  8
0
100
AcDbLine
 62
2
  6
CONTINUOUS
 10
77.9683382981
 20
10.3803457168
 11
79.5611904155
 21
10.3803457168
  0
LINE
  5
26E
100
AcDbEntity
  8
0
100
AcDbLine
 62
2
  6
CONTINUOUS
 10
80.8187041397
 20
10.3803457168
 11
85.010417554
 21
10.3803457168
  0
LINE
  5
26F
100
AcDbEntity
  8
0
100
AcDbLine
 62
2
  6
CONTINUOUS
 10
99.0107422175
 20
10.3803457168
 11
95.908873831
 21
10.3803457168
  0
LINE
  5
270
100
AcDbEntity
  8
0
100
AcDbLine
 62
2
  6
CONTINUOUS
 10
85.8487610368
 20
10.3803457168
 11
87.357777306
 21
10.3803457168
  0
LINE
  5
271
100
AcDbEntity
  8
0
100
AcDbLine
 62
2
  6
CONTINUOUS
 10
89.2021319682
 20
10.3803457168
 11
90.7111492373
 21
10.3803457168
  0
LINE
  5
272
100
AcDbEntity
  8
0
100
AcDbLine
 62
2
  6
CONTINUOUS
 10
91.2979891753
 20
10.3803457168
 11
95.322033893
 21
10.3803457168
  0
LINE
  5
273
100
AcDbEntity
  8
0
100
AcDbLine
 62
2
  6
CONTINUOUS
 10
101.6096045144
 20
10.3803457168
 11
103.28629048
 21
10.3803457168
  0
LINE
  5
274
100
AcDbEntity
  8
0
100
AcDbLine
 62
2
  6
CONTINUOUS
 10
104.6276390526
 20
10.3803457168
 11
106.3043240183
 21
10.3803457168
  0
LINE
  5
275
100
AcDbEntity
  8
0
100
AcDbLine
 62
2
  6
CONTINUOUS
 10
108.0476608634
 20
10.3803457168
 11
110.1607010394
 21
10.3803457168
  0
LINE
  5
276
100
AcDbEntity
  8
0
100
AcDbLine
 62
2
  6
CONTINUOUS
 10
113.6535357184
 20
10.3803457168
 11
116.611688365
 21
10.3803457168
  0
LINE
  5
277
100
AcDbEntity
  8
0
100
AcDbLine
 62
2
  6
CONTINUOUS
 10
111.8930159044
 20
8.0329859648
 11
113.6535357184
 21
10.3803457168
  0
LINE
  5
278
100
AcDbEntity
  8
0
100
AcDbLine
 62
2
  6
CONTINUOUS
 10
113.5278499458
 20
8.0329859648
 11
113.8790013104
 21
8.5011891175
  0
LINE
  5
279
100
AcDbEntity
  8
0
100
AcDbLine
 62
2
  6
CONTINUOUS
 10
114.1519948163
 20
8.8651804588
 11
115.1413990258
 21
10.1843850714
  0
LINE
  5
27A
100
AcDbEntity
  8
0
100
AcDbLine
 62
2
  6
CONTINUOUS
 10
106.1121553661
 20
9.2904996891
 11
108.0476608634
 21
10.3803457168
  0
LINE
  5
27B
100
AcDbEntity
  8
0
100
AcDbLine
 62
2
  6
CONTINUOUS
 10
110.1607010394
 20
10.3803457168
 11
107.8554912111
 21
9.2904996891
  0
ARC
  5
27C
100
AcDbEntity
  8
0
100
AcDbCircle
 62
2
  6
CONTINUOUS
 10
87.4421951532
 20
8.9279703451
 40
0.335336967
100
AcDbArc
 50
169.9999581174
 51
257.3876854477
  0
ARC
  5
27D
100
AcDbEntity
  8
0
100
AcDbCircle
 62
2
  6
CONTINUOUS
 10
87.9547452256
 20
11.2186881996
 40
2.6826964808
100
AcDbArc
 50
257.3877479741
 51
286.262665946
  0
ARC
  5
27E
100
AcDbEntity
  8
0
100
AcDbCircle
 62
2
  6
CONTINUOUS
 10
88.612102036
 20
8.9652512777
 40
0.3353371135
100
AcDbArc
 50
286.2627744417
 51
349.9999581174
  0
ARC
  5
27F
100
AcDbEntity
  8
0
100
AcDbCircle
 62
2
  6
CONTINUOUS
 10
89.9191986705
 20
8.7856696027
 40
0.5030061094
100
AcDbArc
 50
284.4613069912
 51
350.0000240953
  0
ARC
  5
280
100
AcDbEntity
  8
0
100
AcDbCircle
 62
2
  6
CONTINUOUS
 10
87.9512572319
 20
16.4164137933
 40
8.3834278607
100
AcDbArc
 50
256.2209051549
 51
284.4612653568
  0
ARC
  5
281
100
AcDbEntity
  8
0
100
AcDbCircle
 62
2
  6
CONTINUOUS
 10
86.0743056287
 20
8.7627806441
 40
0.503005856
100
AcDbArc
 50
170.0000240953
 51
256.2208762229
  0
ARC
  5
282
100
AcDbEntity
  8
0
100
AcDbCircle
 62
2
  6
CONTINUOUS
 10
99.5460702487
 20
10.1920990574
 40
1.3167024847
100
AcDbArc
 50
270.8139664646
 51
287.332045501
  0
ARC
  5
283
100
AcDbEntity
  8
0
100
AcDbCircle
 62
2
  6
CONTINUOUS
 10
99.6328970916
 20
9.9138785609
 40
1.025248295
100
AcDbArc
 50
287.332041554
 51
306.9952583027
  0
ARC
  5
284
100
AcDbEntity
  8
0
100
AcDbCircle
 62
2
  6
CONTINUOUS
 10
99.765875851
 20
9.7373788803
 40
0.8042604703
100
AcDbArc
 50
306.9952804959
 51
331.1991469186
  0
ARC
  5
285
100
AcDbEntity
  8
0
100
AcDbCircle
 62
2
  6
CONTINUOUS
 10
99.9698034819
 20
9.6252650832
 40
0.5715468569
100
AcDbArc
 50
331.1991187457
 51
28.8007934081
  0
ARC
  5
286
100
AcDbEntity
  8
0
100
AcDbCircle
 62
2
  6
CONTINUOUS
 10
99.765875851
 20
9.5131502861
 40
0.8042612359
100
AcDbArc
 50
28.8008530814
 51
53.0047195041
  0
ARC
  5
287
100
AcDbEntity
  8
0
100
AcDbCircle
 62
2
  6
CONTINUOUS
 10
99.6328970916
 20
9.3366506055
 40
1.0252479986
100
AcDbArc
 50
53.0047416973
 51
72.667958446
  0
ARC
  5
288
100
AcDbEntity
  8
0
100
AcDbCircle
 62
2
  6
CONTINUOUS
 10
99.5460702487
 20
9.058430109
 40
1.3167024858
100
AcDbArc
 50
72.667954499
 51
88.2637233921
  0
ARC
  5
289
100
AcDbEntity
  8
0
100
AcDbCircle
 62
2
  6
CONTINUOUS
 10
99.1751869199
 20
-1.8011792383
 40
12.1826353158
100
AcDbArc
 50
88.0677150838
 51
90.7734183662
  0
ARC
  5
28A
100
AcDbEntity
  8
0
100
AcDbCircle
 62
2
  6
CONTINUOUS
 10
97.8450613271
 20
126.7276131626
 40
117.8646306221
100
AcDbArc
 50
270.6818443076
 51
270.8360085966
  0
ARC
  5
28B
100
AcDbEntity
  8
0
100
AcDbCircle
 62
2
  6
CONTINUOUS
 10
98.7233307377
 20
9.4400284185
 40
0.5228699142
100
AcDbArc
 50
74.2117758502
 51
85.3455498836
  0
ARC
  5
28C
100
AcDbEntity
  8
0
100
AcDbCircle
 62
2
  6
CONTINUOUS
 10
98.7726766484
 20
9.6145531026
 40
0.3415029724
100
AcDbArc
 50
49.80595642
 51
74.2116374161
  0
ARC
  5
28D
100
AcDbEntity
  8
0
100
AcDbCircle
 62
2
  6
CONTINUOUS
 10
98.8829964487
 20
9.7451268663
 40
0.1705654939
100
AcDbArc
 50
340.193968067
 51
49.8058745946
  0
ARC
  5
28E
100
AcDbEntity
  8
0
100
AcDbCircle
 62
2
  6
CONTINUOUS
 10
98.7221697398
 20
9.8030467615
 40
0.3415041793
100
AcDbArc
 50
315.7883508031
 51
340.1940327095
  0
ARC
  5
28F
100
AcDbEntity
  8
0
100
AcDbCircle
 62
2
  6
CONTINUOUS
 10
98.592172975
 20
9.9295155326
 40
0.5228695114
100
AcDbArc
 50
298.8638229053
 51
315.7882717965
  0
ARC
  5
290
100
AcDbEntity
  8
0
100
AcDbCircle
 62
2
  6
CONTINUOUS
 10
98.4693321973
 20
10.1523731293
 40
0.777340892
100
AcDbArc
 50
285.0000006491
 51
298.8638426666
  0
ARC
  5
291
100
AcDbEntity
  8
0
100
AcDbCircle
 62
2
  6
CONTINUOUS
 10
98.4666332022
 20
10.1523751293
 40
0.7780452733
100
AcDbArc
 50
270.1987562222
 51
285.191946156
  0
ARC
  5
292
100
AcDbEntity
  8
0
100
AcDbCircle
 62
2
  6
CONTINUOUS
 10
120.6619260353
 20
-2.9792851063
 40
13.3596308353
100
AcDbArc
 50
81.6598945895
 51
99.8027888696
  0
ARC
  5
293
100
AcDbEntity
  8
0
100
AcDbCircle
 62
2
  6
CONTINUOUS
 10
120.1292479993
 20
21.3907487912
 40
13.3596309136
100
AcDbArc
 50
261.4614728694
 51
273.8118136955
  0
ARC
  5
294
100
AcDbEntity
  8
0
100
AcDbCircle
 62
2
  6
CONTINUOUS
 10
118.4389290582
 20
9.88676061
 40
0.302952678
100
AcDbArc
 50
99.8027796749
 51
169.9998425607
  0
ARC
  5
295
100
AcDbEntity
  8
0
100
AcDbCircle
 62
2
  6
CONTINUOUS
 10
118.1906655075
 20
8.478787158
 40
0.3029519545
100
AcDbArc
 50
170.000028812
 51
261.4614258049
  0
ARC
  5
296
100
AcDbEntity
  8
0
100
AcDbCircle
 62
2
  6
CONTINUOUS
 10
122.555781608
 20
9.9393125149
 40
0.3029519545
100
AcDbArc
 50
350.000028812
 51
81.6598857953
  0
ARC
  5
297
100
AcDbEntity
  8
0
100
AcDbCircle
 62
2
  6
CONTINUOUS
 10
120.4567834065
 20
6.5595326313
 40
3.4740280808
100
AcDbArc
 50
80.2083456985
 51
99.7818280968
  0
ARC
  5
298
100
AcDbEntity
  8
0
100
AcDbCircle
 62
2
  6
CONTINUOUS
 10
120.2291178185
 20
11.9365299005
 40
3.4740282835
100
AcDbArc
 50
261.5304821195
 51
281.1930777907
  0
ARC
  5
299
100
AcDbEntity
  8
0
100
AcDbCircle
 62
2
  6
CONTINUOUS
 10
119.9180273815
 20
9.684506976
 40
0.3029528628
100
AcDbArc
 50
99.7818543358
 51
170.000028812
  0
ARC
  5
29A
100
AcDbEntity
  8
0
100
AcDbCircle
 62
2
  6
CONTINUOUS
 10
120.9960754306
 20
9.6844149762
 40
0.3029523856
100
AcDbArc
 50
11.4934186918
 51
80.2083192078
  0
ARC
  5
29B
100
AcDbEntity
  8
0
100
AcDbCircle
 62
2
  6
CONTINUOUS
 10
119.7620716637
 20
8.8000365767
 40
0.3029529393
100
AcDbArc
 50
170.000061653
 51
261.5304593161
  0
ARC
  5
29C
100
AcDbEntity
  8
0
100
AcDbCircle
 62
2
  6
CONTINUOUS
 10
120.8446737046
 20
8.8257725301
 40
0.3029520503
100
AcDbArc
 50
281.1930976978
 51
350.000028812
  0
ENDBLK
  5
29D
100
AcDbEntity
  8
0
  6
BYBLOCK
 62
0
100
AcDbBlockEnd
  0
BLOCK
  5
29E
100
AcDbEntity
  8
0
100
AcDbBlockBegin
  2
_FILLED
 70
64
 10
0.0
 20
0.0
  3
_FILLED
  1

  0
SOLID
  5
29F
100
AcDbEntity
  8
0
  6
BYBLOCK
 62
0
100
AcDbTrace
 10
0.0
 20
0.0
 11
-1.0
 21
0.125
 12
-1.0
 22
-0.125
 13
-1.0
 23
-0.125
  0
ENDBLK
  5
2A0
100
AcDbEntity
  8
0
  6
BYBLOCK
 62
0
100
AcDbBlockEnd
  0
BLOCK
  5
2A1
100
AcDbEntity
  8
ZEICHNUNGSBEMASSUNGEN
100
AcDbBlockBegin
 62
2
  6
CONTINUOUS
  2
*D0
 70
65
 10
0.0
 20
0.0
  3
*D0
  1

  0
MTEXT
  5
2A2
100
AcDbEntity
  8
ZEICHNUNGSBEMASSUNGEN
100
AcDbMText
 62
5
  6
CONTINUOUS
  7
TEXTSTYLE_2
 71
3
 72
1
 10
84.3839364268
 20
226.1617554651
 30
0.0
 11
1.0
 21
0.0
 31
0.0
 44
0.9
  1
\Q15.0;{\Fgdt;n}\Ftxt;20.3 [0.8]
 40
3.5
 41
27.9166666667
  0
LINE
  5
2A3
100
AcDbEntity
  8
ZEICHNUNGSBEMASSUNGEN
100
AcDbLine
 62
2
  6
CONTINUOUS
 10
107.9868099901
 20
180.1819685115
 11
107.9868099901
 21
223.2558888072
  0
LINE
  5
2A4
100
AcDbEntity
  8
ZEICHNUNGSBEMASSUNGEN
100
AcDbLine
 62
2
  6
CONTINUOUS
 10
87.6868099901
 20
180.1819685115
 11
87.6868099901
 21
223.2558888072
  0
LINE
  5
2A5
100
AcDbEntity
  8
ZEICHNUNGSBEMASSUNGEN
100
AcDbLine
 62
2
  6
CONTINUOUS
 10
107.9868099901
 20
221.7558888072
 11
97.8368099901
 21
221.7558888072
  0
LINE
  5
2A6
100
AcDbEntity
  8
ZEICHNUNGSBEMASSUNGEN
100
AcDbLine
 62
2
  6
CONTINUOUS
 10
87.6868099901
 20
221.7558888072
 11
97.8368099901
 21
221.7558888072
  0
LINE
  5
2A7
100
AcDbEntity
  8
ZEICHNUNGSBEMASSUNGEN
100
AcDbLine
 62
2
  6
CONTINUOUS
 10
97.8368099901
 20
221.7558888072
 11
56.4672697602
 21
221.7558888072
  0
INSERT
  5
2A8
100
AcDbEntity
  8
ZEICHNUNGSBEMASSUNGEN
100
AcDbBlockReference
 62
2
  6
CONTINUOUS
  2
_FILLED
 10
107.9868099901
 20
221.7558888072
 41
3.5
 42
3.5
 43
3.5
  0
INSERT
  5
2A9
100
AcDbEntity
  8
ZEICHNUNGSBEMASSUNGEN
100
AcDbBlockReference
 62
2
  6
CONTINUOUS
  2
_FILLED
 10
87.6868099901
 20
221.7558888072
 41
3.5
 42
3.5
 43
3.5
 50
180.0
  0
ENDBLK
  5
2AA
100
AcDbEntity
  8
0
  6
BYBLOCK
 62
0
100
AcDbBlockEnd
  0
BLOCK
  5
2AB
100
AcDbEntity
  8
ZEICHNUNGSBEMASSUNGEN
100
AcDbBlockBegin
 62
2
  6
CONTINUOUS
  2
*D1
 70
65
 10
0.0
 20
0.0
  3
*D1
  1

  0
MTEXT
  5
2AC
100
AcDbEntity
  8
ZEICHNUNGSBEMASSUNGEN
100
AcDbMText
 62
5
  6
CONTINUOUS
  7
TEXTSTYLE_2
 71
3
 72
1
 10
88.1489428125
 20
92.861720076
 30
0.0
 11
1.0
 21
0.0
 31
0.0
 44
0.9
  1
\Q15.0;{\Fgdt;n}\Ftxt;15.3 [0.602]
 40
3.5
 41
32.4166666667
  0
LINE
  5
2AD
100
AcDbEntity
  8
ZEICHNUNGSBEMASSUNGEN
100
AcDbLine
 62
2
  6
CONTINUOUS
 10
90.2024349901
 20
134.1319685115
 11
90.2024349901
 21
86.9558534182
  0
LINE
  5
2AE
100
AcDbEntity
  8
ZEICHNUNGSBEMASSUNGEN
100
AcDbLine
 62
2
  6
CONTINUOUS
 10
105.4711849901
 20
134.1319685115
 11
105.4711849901
 21
86.9558534182
  0
LINE
  5
2AF
100
AcDbEntity
  8
ZEICHNUNGSBEMASSUNGEN
100
AcDbLine
 62
2
  6
CONTINUOUS
 10
90.2024349901
 20
88.4558534182
 11
97.8368099901
 21
88.4558534182
  0
LINE
  5
2B0
100
AcDbEntity
  8
ZEICHNUNGSBEMASSUNGEN
100
AcDbLine
 62
2
  6
CONTINUOUS
 10
97.8368099901
 20
88.4558534182
 11
55.7322761459
 21
88.4558534182
  0
LINE
  5
2B1
100
AcDbEntity
  8
ZEICHNUNGSBEMASSUNGEN
100
AcDbLine
 62
2
  6
CONTINUOUS
 10
105.4711849901
 20
88.4558534182
 11
97.8368099901
 21
88.4558534182
  0
INSERT
  5
2B2
100
AcDbEntity
  8
ZEICHNUNGSBEMASSUNGEN
100
AcDbBlockReference
 62
2
  6
CONTINUOUS
  2
_FILLED
 10
90.2024349901
 20
88.4558534182
 41
3.5
 42
3.5
 43
3.5
 50
180.0
  0
INSERT
  5
2B3
100
AcDbEntity
  8
ZEICHNUNGSBEMASSUNGEN
100
AcDbBlockReference
 62
2
  6
CONTINUOUS
  2
_FILLED
 10
105.4711849901
 20
88.4558534182
 41
3.5
 42
3.5
 43
3.5
  0
ENDBLK
  5
2B4
100
AcDbEntity
  8
0
  6
BYBLOCK
 62
0
100
AcDbBlockEnd
  0
BLOCK
  5
2B5
100
AcDbEntity
  8
ZEICHNUNGSBEMASSUNGEN
100
AcDbBlockBegin
 62
2
  6
CONTINUOUS
  2
*D2
 70
65
 10
0.0
 20
0.0
  3
*D2
  1

  0
MTEXT
  5
2B6
100
AcDbEntity
  8
ZEICHNUNGSBEMASSUNGEN
100
AcDbMText
 62
5
  6
CONTINUOUS
  7
STANDARD
 71
2
 72
1
 10
135.3738657859
 20
153.3842060451
 30
0.0
 11
0.0
 21
1.0
 31
0.0
 44
0.9
  1
\Q15.0;104.8-106.8 [4.13-4.2]
 40
3.5
 41
52.0
  0
LINE
  5
2B7
100
AcDbEntity
  8
ZEICHNUNGSBEMASSUNGEN
100
AcDbLine
 62
2
  6
CONTINUOUS
 10
103.8368099901
 20
206.8219685115
 11
138.8738657859
 21
206.8219685115
  0
LINE
  5
2B8
100
AcDbEntity
  8
ZEICHNUNGSBEMASSUNGEN
100
AcDbLine
 62
2
  6
CONTINUOUS
 10
138.8738657859
 20
206.8219685115
 11
141.2488657859
 21
206.8219685115
  0
LINE
  5
2B9
100
AcDbEntity
  8
ZEICHNUNGSBEMASSUNGEN
100
AcDbLine
 62
2
  6
CONTINUOUS
 10
97.8368099901
 20
99.9464435787
 11
138.8738657859
 21
99.9464435787
  0
LINE
  5
2BA
100
AcDbEntity
  8
ZEICHNUNGSBEMASSUNGEN
100
AcDbLine
 62
2
  6
CONTINUOUS
 10
138.8738657859
 20
99.9464435787
 11
141.2488657859
 21
99.9464435787
  0
LINE
  5
2BB
100
AcDbEntity
  8
ZEICHNUNGSBEMASSUNGEN
100
AcDbLine
 62
2
  6
CONTINUOUS
 10
139.7488657859
 20
206.8219685115
 11
139.7488657859
 21
153.3842060451
  0
LINE
  5
2BC
100
AcDbEntity
  8
ZEICHNUNGSBEMASSUNGEN
100
AcDbLine
 62
2
  6
CONTINUOUS
 10
139.7488657859
 20
99.9464435787
 11
139.7488657859
 21
153.3842060451
  0
INSERT
  5
2BD
100
AcDbEntity
  8
ZEICHNUNGSBEMASSUNGEN
100
AcDbBlockReference
 62
2
  6
CONTINUOUS
  2
_FILLED
 10
139.7488657859
 20
206.8219685115
 41
3.5
 42
3.5
 43
3.5
 50
90.0
  0
INSERT
  5
2BE
100
AcDbEntity
  8
ZEICHNUNGSBEMASSUNGEN
100
AcDbBlockReference
 62
2
  6
CONTINUOUS
  2
_FILLED
 10
139.7488657859
 20
99.9464435787
 41
3.5
 42
3.5
 43
3.5
 50
270.0
  0
ENDBLK
  5
2BF
100
AcDbEntity
  8
0
  6
BYBLOCK
 62
0
100
AcDbBlockEnd
  0
BLOCK
  5
2C0
100
AcDbEntity
  8
ZEICHNUNGSBEMASSUNGEN
100
AcDbBlockBegin
 62
2
  6
CONTINUOUS
  2
*D3
 70
65
 10
0.0
 20
0.0
  3
*D3
  1

  0
MTEXT
  5
2C1
100
AcDbEntity
  8
ZEICHNUNGSBEMASSUNGEN
100
AcDbMText
 62
5
  6
CONTINUOUS
  7
STANDARD
 71
2
 72
1
 10
119.1384979424
 20
168.6519685115
 30
0.0
 11
0.0
 21
1.0
 31
0.0
 44
0.9
  1
\Q15.0;74.3-76.3 [2.9-3]
 40
3.5
 41
40.75
  0
LINE
  5
2C2
100
AcDbEntity
  8
ZEICHNUNGSBEMASSUNGEN
100
AcDbLine
 62
2
  6
CONTINUOUS
 10
103.8368099901
 20
206.8219685115
 11
122.6384979424
 21
206.8219685115
  0
LINE
  5
2C3
100
AcDbEntity
  8
ZEICHNUNGSBEMASSUNGEN
100
AcDbLine
 62
2
  6
CONTINUOUS
 10
122.6384979424
 20
206.8219685115
 11
125.0134979424
 21
206.8219685115
  0
LINE
  5
2C4
100
AcDbEntity
  8
ZEICHNUNGSBEMASSUNGEN
100
AcDbLine
 62
2
  6
CONTINUOUS
 10
102.1118098759
 20
130.4819685115
 11
122.6384979424
 21
130.4819685115
  0
LINE
  5
2C5
100
AcDbEntity
  8
ZEICHNUNGSBEMASSUNGEN
100
AcDbLine
 62
2
  6
CONTINUOUS
 10
122.6384979424
 20
130.4819685115
 11
125.0134979424
 21
130.4819685115
  0
LINE
  5
2C6
100
AcDbEntity
  8
ZEICHNUNGSBEMASSUNGEN
100
AcDbLine
 62
2
  6
CONTINUOUS
 10
123.5134979424
 20
206.8219685115
 11
123.5134979424
 21
168.6519685115
  0
LINE
  5
2C7
100
AcDbEntity
  8
ZEICHNUNGSBEMASSUNGEN
100
AcDbLine
 62
2
  6
CONTINUOUS
 10
123.5134979424
 20
130.4819685115
 11
123.5134979424
 21
168.6519685115
  0
INSERT
  5
2C8
100
AcDbEntity
  8
ZEICHNUNGSBEMASSUNGEN
100
AcDbBlockReference
 62
2
  6
CONTINUOUS
  2
_FILLED
 10
123.5134979424
 20
206.8219685115
 41
3.5
 42
3.5
 43
3.5
 50
90.0
  0
INSERT
  5
2C9
100
AcDbEntity
  8
ZEICHNUNGSBEMASSUNGEN
100
AcDbBlockReference
 62
2
  6
CONTINUOUS
  2
_FILLED
 10
123.5134979424
 20
130.4819685115
 41
3.5
 42
3.5
 43
3.5
 50
270.0
  0
ENDBLK
  5
2CA
100
AcDbEntity
  8
0
  6
BYBLOCK
 62
0
100
AcDbBlockEnd
  0
BLOCK
  5
2CB
100
AcDbEntity
  8
0
100
AcDbBlockBegin
  2
*T1
 70
1
 10
0.0
 20
0.0
  3
*T1
  1

  0
LINE
  5
2CC
100
AcDbEntity
  8
0
100
AcDbLine
 62
7
  6
CONTINUOUS
 10
0.0
 20
0.0
 11
133.0
 21
0.0
  0
LINE
  5
2CD
100
AcDbEntity
  8
0
100
AcDbLine
 62
7
  6
CONTINUOUS
 10
0.0
 20
0.0
 11
0.0
 21
-46.0
  0
LINE
  5
2CE
100
AcDbEntity
  8
0
100
AcDbLine
 62
7
  6
CONTINUOUS
 10
82.0
 20
-5.0
 11
133.0
 21
-5.0
  0
LINE
  5
2CF
100
AcDbEntity
  8
0
100
AcDbLine
 62
7
  6
CONTINUOUS
 10
0.0
 20
-10.0
 11
41.0
 21
-10.0
  0
LINE
  5
2D0
100
AcDbEntity
  8
0
100
AcDbLine
 62
7
  6
CONTINUOUS
 10
82.0
 20
-10.0
 11
133.0
 21
-10.0
  0
LINE
  5
2D1
100
AcDbEntity
  8
0
100
AcDbLine
 62
7
  6
CONTINUOUS
 10
82.0
 20
-15.0
 11
133.0
 21
-15.0
  0
LINE
  5
2D2
100
AcDbEntity
  8
0
100
AcDbLine
 62
7
  6
CONTINUOUS
 10
0.0
 20
-20.0
 11
133.0
 21
-20.0
  0
LINE
  5
2D3
100
AcDbEntity
  8
0
100
AcDbLine
 62
7
  6
CONTINUOUS
 10
82.0
 20
-28.0
 11
133.0
 21
-28.0
  0
LINE
  5
2D4
100
AcDbEntity
  8
0
100
AcDbLine
 62
7
  6
CONTINUOUS
 10
0.0
 20
-37.0
 11
133.0
 21
-37.0
  0
LINE
  5
2D5
100
AcDbEntity
  8
0
100
AcDbLine
 62
7
  6
CONTINUOUS
 10
0.0
 20
-46.0
 11
133.0
 21
-46.0
  0
LINE
  5
2D6
100
AcDbEntity
  8
0
100
AcDbLine
 62
7
  6
CONTINUOUS
 10
41.0
 20
0.0
 11
41.0
 21
-20.0
  0
LINE
  5
2D7
100
AcDbEntity
  8
0
100
AcDbLine
 62
7
  6
CONTINUOUS
 10
64.0
 20
0.0
 11
64.0
 21
-20.0
  0
LINE
  5
2D8
100
AcDbEntity
  8
0
100
AcDbLine
 62
7
  6
CONTINUOUS
 10
82.0
 20
0.0
 11
82.0
 21
-46.0
  0
LINE
  5
2D9
100
AcDbEntity
  8
0
100
AcDbLine
 62
7
  6
CONTINUOUS
 10
101.0
 20
0.0
 11
101.0
 21
-20.0
  0
LINE
  5
2DA
100
AcDbEntity
  8
0
100
AcDbLine
 62
7
  6
CONTINUOUS
 10
116.0
 20
0.0
 11
116.0
 21
-37.0
  0
LINE
  5
2DB
100
AcDbEntity
  8
0
100
AcDbLine
 62
7
  6
CONTINUOUS
 10
133.0
 20
0.0
 11
133.0
 21
-46.0
  0
MTEXT
  5
2DC
100
AcDbEntity
  8
0
100
AcDbMText
 62
5
  6
CONTINUOUS
  7
TEXTSTYLE_3
 71
1
 72
1
 10
0.0625
 20
-2.7341257188
 30
0.0
 11
1.0
 21
0.0
 31
0.0
 44
0.9
  1
\Q15.0; Allgemeintoleranzen\P ISO 2768-m
 40
1.8
 41
49.2
  0
MTEXT
  5
2DD
100
AcDbEntity
  8
0
100
AcDbMText
 62
5
  6
CONTINUOUS
  7
TEXTSTYLE_3
 71
2
 72
1
 10
52.5
 20
-1.5352761804
 30
0.0
 11
1.0
 21
0.0
 31
0.0
 44
0.9
  1
\Q15.0;Werkstoff
 40
2.0
 41
26.2857142857
  0
MTEXT
  5
2DE
100
AcDbEntity
  8
0
100
AcDbMText
 62
5
  6
CONTINUOUS
  7
TEXTSTYLE_3
 71
2
 72
1
 10
73.0
 20
-1.5352761804
 30
0.0
 11
1.0
 21
0.0
 31
0.0
 44
0.9
  1
\Q15.0;Massstab:
 40
2.0
 41
24.2857142857
  0
MTEXT
  5
2DF
100
AcDbEntity
  8
0
100
AcDbMText
 62
5
  6
CONTINUOUS
  7
TEXTSTYLE_3
 71
2
 72
1
 10
108.5
 20
-1.5352761804
 30
0.0
 11
1.0
 21
0.0
 31
0.0
 44
0.9
  1
\Q15.0;Datum
 40
2.0
 41
15.3333333333
  0
MTEXT
  5
2E0
100
AcDbEntity
  8
0
100
AcDbMText
 62
5
  6
CONTINUOUS
  7
TEXTSTYLE_3
 71
2
 72
1
 10
124.5
 20
-1.5352761804
 30
0.0
 11
1.0
 21
0.0
 31
0.0
 44
0.9
  1
\Q15.0;Name
 40
2.0
 41
12.5714285714
  0
MTEXT
  5
2E1
100
AcDbEntity
  8
0
100
AcDbMText
 62
5
  6
CONTINUOUS
  7
TEXTSTYLE_3
 71
1
 72
1
 10
82.0625
 20
-6.5352761804
 30
0.0
 11
1.0
 21
0.0
 31
0.0
 44
0.9
  1
\Q15.0; Gezeichnet
 40
2.0
 41
30.380952381
  0
MTEXT
  5
2E2
100
AcDbEntity
  8
0
100
AcDbMText
 62
5
  6
CONTINUOUS
  7
TEXTSTYLE_3
 71
2
 72
1
 10
108.5
 20
-6.5352761804
 30
0.0
 11
1.0
 21
0.0
 31
0.0
 44
0.9
  1
\Q15.0;25.11.09
 40
2.0
 41
21.4285714286
  0
MTEXT
  5
2E3
100
AcDbEntity
  8
0
100
AcDbMText
 62
5
  6
CONTINUOUS
  7
TEXTSTYLE_3
 71
2
 72
1
 10
124.5
 20
-6.5352761804
 30
0.0
 11
1.0
 21
0.0
 31
0.0
 44
0.9
  1
\Q15.0;jutz b
 40
2.0
 41
16.0
  0
MTEXT
  5
2E4
100
AcDbEntity
  8
0
100
AcDbMText
 62
5
  6
CONTINUOUS
  7
TEXTSTYLE_3
 71
1
 72
1
 10
0.0625
 20
-12.7341257188
 30
0.0
 11
1.0
 21
0.0
 31
0.0
 44
0.9
  1
\Q15.0; Zeichnung urheberrechtlich\P geschuetzt (DIN 34) (C)
 40
1.8
 41
66.0
  0
MTEXT
  5
2E5
100
AcDbEntity
  8
0
100
AcDbMText
 62
5
  6
CONTINUOUS
  7
TEXTSTYLE_3
 71
2
 72
1
 10
52.5
 20
-11.5352761804
 30
0.0
 11
1.0
 21
0.0
 31
0.0
 44
0.9
  1
\Q15.0;-
 40
2.0
 41
2.8571428571
  0
MTEXT
  5
2E6
100
AcDbEntity
  8
0
100
AcDbMText
 62
5
  6
CONTINUOUS
  7
TEXTSTYLE_3
 71
2
 72
1
 10
73.0
 20
-10.2015916314
 30
0.0
 11
1.0
 21
0.0
 31
0.0
 44
0.9
  1
\Q15.0;1:1
 40
3.5
 41
10.5
  0
MTEXT
  5
2E7
100
AcDbEntity
  8
0
100
AcDbMText
 62
5
  6
CONTINUOUS
  7
TEXTSTYLE_3
 71
1
 72
1
 10
82.0625
 20
-11.5352761804
 30
0.0
 11
1.0
 21
0.0
 31
0.0
 44
0.9
  1
\Q15.0; Freigegeben
 40
2.0
 41
33.5238095238
  0
MTEXT
  5
2E8
100
AcDbEntity
  8
0
100
AcDbMText
 62
5
  6
CONTINUOUS
  7
TEXTSTYLE_3
 71
2
 72
1
 10
52.5
 20
-16.5352761804
 30
0.0
 11
1.0
 21
0.0
 31
0.0
 44
0.9
  1
\Q15.0;-
 40
2.0
 41
2.8571428571
  0
MTEXT
  5
2E9
100
AcDbEntity
  8
0
100
AcDbMText
 62
5
  6
CONTINUOUS
  7
TEXTSTYLE_3
 71
2
 72
1
 10
73.0
 20
-16.5352761804
 30
0.0
 11
1.0
 21
0.0
 31
0.0
 44
0.9
  1
(\Q15.0;A4\Q0.0;)
 40
2.0
 41
10.0
  0
MTEXT
  5
2EA
100
AcDbEntity
  8
0
100
AcDbMText
 62
5
  6
CONTINUOUS
  7
TEXTSTYLE_3
 71
1
 72
1
 10
82.0625
 20
-16.5352761804
 30
0.0
 11
1.0
 21
0.0
 31
0.0
 44
0.9
  1
\Q15.0; Geaendert
 40
2.0
 41
28.2857142857
  0
MTEXT
  5
2EB
100
AcDbEntity
  8
0
100
AcDbMText
 62
5
  6
CONTINUOUS
  7
TEXTSTYLE_3
 71
1
 72
1
 10
0.0625
 20
-20.921875
 30
0.0
 11
1.0
 21
0.0
 31
0.0
 44
0.9
  1
\Q15.0; Benennung
 40
2.0
 41
29.1428571429
  0
MTEXT
  5
2EC
100
AcDbEntity
  8
0
100
AcDbMText
 62
5
  6
CONTINUOUS
  7
TEXTSTYLE_3
 71
1
 72
1
 10
82.0625
 20
-20.9647238196
 30
0.0
 11
1.0
 21
0.0
 31
0.0
 44
1.2
  1
\Q15.0; Aend.-Nr.\P -
 40
2.0
 41
28.2857142857
  0
MTEXT
  5
2ED
100
AcDbEntity
  8
0
100
AcDbMText
 62
5
  6
CONTINUOUS
  7
TEXTSTYLE_3
 71
2
 72
1
 10
124.5
 20
-20.835314297
 30
0.0
 11
1.0
 21
0.0
 31
0.0
 44
0.9
  1
\Q15.0;Aend.-Index\P\H3.0; 
 40
2.0
 41
31.1428571429
  0
MTEXT
  5
2EE
100
AcDbEntity
  8
0
100
AcDbMText
 62
5
  6
CONTINUOUS
  7
TEXTSTYLE_3
 71
2
 72
1
 10
41.0
 20
-23.8117333157
 30
0.0
 11
1.0
 21
0.0
 31
0.0
 44
0.9
  1
\Q15.0;Plug
 40
3.5
 41
19.0
  0
MTEXT
  5
2EF
100
AcDbEntity
  8
0
100
AcDbMText
 62
5
  6
CONTINUOUS
  7
TEXTSTYLE_3
 71
2
 72
1
 10
40.25
 20
-30.088190451
 30
0.0
 11
1.0
 21
0.0
 31
0.0
 44
0.9
  1
\Q15.0;NP3XL
 40
5.0
 41
37.8571428571
  0
MTEXT
  5
2F0
100
AcDbEntity
  8
0
100
AcDbMText
 62
5
  6
CONTINUOUS
  7
TEXTSTYLE_3
 71
1
 72
1
 10
82.0625
 20
-31.5352761804
 30
0.0
 11
1.0
 21
0.0
 31
0.0
 44
0.9
  1
\Q15.0; Ersatz fuer:
 40
2.0
 41
34.5714285714
  0
MTEXT
  5
2F1
100
AcDbEntity
  8
0
100
AcDbMText
 62
5
  6
CONTINUOUS
  7
TEXTSTYLE_3
 71
2
 72
1
 10
124.5
 20
-29.4647238196
 30
0.0
 11
1.0
 21
0.0
 31
0.0
 44
1.2
  1
\Q15.0;Blatt 1\Pvon 1 Bl.
 40
2.0
 41
24.5714285714
  0
MTEXT
  5
2F2
100
AcDbEntity
  8
0
100
AcDbMText
 62
5
  6
CONTINUOUS
  7
TEXTSTYLE_3
 71
1
 72
1
 10
82.0625
 20
-37.5352761804
 30
0.0
 11
1.0
 21
0.0
 31
0.0
 44
0.9
  1
\Q15.0; Zeichn. Nr.
 40
2.0
 41
32.9523809524
  0
MTEXT
  5
2F3
100
AcDbEntity
  8
0
100
AcDbMText
 62
5
  6
CONTINUOUS
  7
TEXTSTYLE_3
 71
2
 72
1
 10
108.5
 20
-41.3117333157
 30
0.0
 11
1.0
 21
0.0
 31
0.0
 44
0.9
  1
\Q15.0;ST-NP3XL
 40
3.5
 41
43.0
  0
ENDBLK
  5
2F4
100
AcDbEntity
  8
0
  6
BYBLOCK
 62
0
100
AcDbBlockEnd
  0
ENDSEC
  0
SECTION
  2
ENTITIES
  0
MTEXT
  5
2F5
100
AcDbEntity
  8
0
100
AcDbMText
 62
4
  6
CONTINUOUS
  7
STANDARD
 71
1
 72
1
 10
126.0467415329
 20
10.4742136272
 30
0.0
 11
1.0
 21
0.0
 31
0.0
 44
0.9
  1
\Q15.0;FL-9494 SCHAAN
 40
2.43
 41
26.4985714286
  0
INSERT
  5
2F6
100
AcDbEntity
  8
0
100
AcDbBlockReference
 62
2
  6
CONTINUOUS
  2
SYMBOL_3_BL0
 10
98.0245925022
 20
9.2066660654
  0
DIMENSION
  5
2F7
100
AcDbEntity
  8
ZEICHNUNGSBEMASSUNGEN
100
AcDbDimension
 62
2
  6
CONTINUOUS
  2
*D0
 10
87.6868099901
 20
221.7558888072
 11
61.1339364268
 21
224.4117554651
 70
160
 71
3
 42
20.3
  1
%%c<> [0.8]
  3
DIMSTYLE_1
100
AcDbAlignedDimension
 13
107.9868099901
 23
180.1819685115
 14
87.6868099901
 24
180.1819685115
 50
180.0
100
AcDbRotatedDimension
  0
DIMENSION
  5
2F8
100
AcDbEntity
  8
ZEICHNUNGSBEMASSUNGEN
100
AcDbDimension
 62
2
  6
CONTINUOUS
  2
*D1
 10
105.4711849901
 20
88.4558534182
 11
60.0239428125
 21
91.111720076
 70
160
 71
3
 42
15.26875
  1
%%c<> [0.602]
  3
DIMSTYLE_2
100
AcDbAlignedDimension
 13
90.2024349901
 23
134.1319685115
 14
105.4711849901
 24
134.1319685115
100
AcDbRotatedDimension
  0
DIMENSION
  5
2F9
100
AcDbEntity
  8
ZEICHNUNGSBEMASSUNGEN
100
AcDbDimension
 62
2
  6
CONTINUOUS
  2
*D2
 10
139.7488657859
 20
99.9464435787
 11
148.7737798052
 21
130.1402927915
 70
160
 71
2
 42
106.8755249328
  1
104.8-106.8 [4.13-4.2]
  3
DIMSTYLE_3
100
AcDbAlignedDimension
 13
103.8368099901
 23
206.8219685115
 14
97.8368099901
 24
99.9464435787
 50
270.0
100
AcDbRotatedDimension
  0
DIMENSION
  5
2FA
100
AcDbEntity
  8
ZEICHNUNGSBEMASSUNGEN
100
AcDbDimension
 62
2
  6
CONTINUOUS
  2
*D3
 10
123.5134979424
 20
130.4819685115
 11
130.017997871
 21
150.4367864907
 70
160
 71
2
 42
76.34
  1
74.3-76.3 [2.9-3]
  3
DIMSTYLE_4
100
AcDbAlignedDimension
 13
103.8368099901
 23
206.8219685115
 14
102.1118098759
 24
130.4819685115
 50
270.0
100
AcDbRotatedDimension
  0
ACAD_TABLE
  5
2FB
100
AcDbEntity
  8
0
 62
2
  6
CONTINUOUS
100
AcDbBlockReference
  2
*T1
 10
72.0
 20
51.0
 30
0.0
100
AcDbTable
342
       50E
343
222
 11
1.0
 21
0.0
 31
0.0
 90
22
 91
9
 92
8
 93
0
 94
0
 95
0
 96
0
141
5.0
141
5.0
141
5.0
141
5.0
141
3.0
141
5.0
141
9.0
141
3.0
141
6.0
142
20.5
142
19.0
142
1.5
142
23.0
142
18.0
142
19.0
142
15.0
142
17.0
171
1
172
0
173
0
174
0
175
2
176
2
 91
41
178
0
145
0.0
301
CELL_VALUE
 90
4
  1
\Q15.0; Allgemeintoleranzen\P ISO 2768-m
304
ACVALUE_END
170
4
140
1.8
 64
5
171
1
172
0
173
1
174
0
175
1
176
1
 91
1
178
0
145
0.0
170
1
171
1
172
0
173
0
174
0
175
1
176
2
 91
1
178
0
145
0.0
170
1
171
1
172
0
173
0
174
0
175
1
176
1
 91
41
178
0
145
0.0
301
CELL_VALUE
 90
4
  1
\Q15.0;Werkstoff
304
ACVALUE_END
170
5
140
2.0
 64
5
171
1
172
0
173
0
174
0
175
1
176
1
 91
41
178
0
145
0.0
301
CELL_VALUE
 90
4
  1
\Q15.0;Massstab:
304
ACVALUE_END
170
5
140
2.0
 64
5
171
1
172
0
173
0
174
0
175
1
176
1
 91
1
178
0
145
0.0
170
1
171
1
172
0
173
0
174
0
175
1
176
1
 91
41
178
0
145
0.0
301
CELL_VALUE
 90
4
  1
\Q15.0;Datum
304
ACVALUE_END
170
5
140
2.0
 64
5
171
1
172
0
173
0
174
0
175
1
176
1
 91
41
178
0
145
0.0
301
CELL_VALUE
 90
4
  1
\Q15.0;Name
304
ACVALUE_END
170
5
140
2.0
 64
5
171
1
172
0
173
1
174
0
175
1
176
1
 91
1
178
0
145
0.0
170
1
171
1
172
0
173
1
174
0
175
1
176
1
 91
1
178
0
145
0.0
170
1
171
1
172
0
173
1
174
0
175
1
176
1
 91
1
178
0
145
0.0
170
1
171
1
172
0
173
0
174
0
175
1
176
1
 91
1
178
0
145
0.0
170
1
171
1
172
0
173
0
174
0
175
1
176
1
 91
1
178
0
145
0.0
170
1
171
1
172
0
173
0
174
0
175
1
176
1
 91
41
178
0
145
0.0
301
CELL_VALUE
 90
4
  1
\Q15.0; Gezeichnet
304
ACVALUE_END
170
4
140
2.0
 64
5
171
1
172
0
173
0
174
0
175
1
176
1
 91
41
178
0
145
0.0
301
CELL_VALUE
 90
4
  1
\Q15.0;25.11.09
304
ACVALUE_END
170
5
140
2.0
 64
5
171
1
172
0
173
0
174
0
175
1
176
1
 91
41
178
0
145
0.0
301
CELL_VALUE
 90
4
  1
\Q15.0;jutz b
304
ACVALUE_END
170
5
140
2.0
 64
5
171
1
172
0
173
0
174
0
175
2
176
2
 91
41
178
0
145
0.0
301
CELL_VALUE
 90
4
  1
\Q15.0; Zeichnung urheberrechtlich\P geschuetzt (DIN 34) (C)
304
ACVALUE_END
170
4
140
1.8
 64
5
171
1
172
0
173
1
174
0
175
1
176
1
 91
1
178
0
145
0.0
170
1
171
1
172
0
173
0
174
0
175
1
176
2
 91
1
178
0
145
0.0
170
1
171
1
172
0
173
0
174
0
175
1
176
1
 91
41
178
0
145
0.0
301
CELL_VALUE
 90
4
  1
\Q15.0;-
304
ACVALUE_END
170
5
140
2.0
 64
5
171
1
172
0
173
0
174
0
175
1
176
1
 91
41
178
0
145
0.0
301
CELL_VALUE
 90
4
  1
\Q15.0;1:1
304
ACVALUE_END
170
2
140
3.5
 64
5
171
1
172
0
173
0
174
0
175
1
176
1
 91
41
178
0
145
0.0
301
CELL_VALUE
 90
4
  1
\Q15.0; Freigegeben
304
ACVALUE_END
170
4
140
2.0
 64
5
171
1
172
0
173
0
174
0
175
1
176
1
 91
1
178
0
145
0.0
170
1
171
1
172
0
173
0
174
0
175
1
176
1
 91
1
178
0
145
0.0
170
1
171
1
172
0
173
1
174
0
175
1
176
1
 91
1
178
0
145
0.0
170
1
171
1
172
0
173
1
174
0
175
1
176
1
 91
1
178
0
145
0.0
170
1
171
1
172
0
173
1
174
0
175
1
176
1
 91
1
178
0
145
0.0
170
1
171
1
172
0
173
0
174
0
175
1
176
1
 91
41
178
0
145
0.0
301
CELL_VALUE
 90
4
  1
\Q15.0;-
304
ACVALUE_END
170
5
140
2.0
 64
5
171
1
172
0
173
0
174
0
175
1
176
1
 91
41
178
0
145
0.0
301
CELL_VALUE
 90
4
  1
(\Q15.0;A4\Q0.0;)
304
ACVALUE_END
170
5
140
2.0
 64
5
171
1
172
0
173
0
174
0
175
1
176
1
 91
41
178
0
145
0.0
301
CELL_VALUE
 90
4
  1
\Q15.0; Geaendert
304
ACVALUE_END
170
4
140
2.0
 64
5
171
1
172
0
173
0
174
0
175
1
176
1
 91
41
178
0
145
0.0
301
CELL_VALUE
 90
4
  1
\Q15.0; 
304
ACVALUE_END
170
5
140
2.0
 64
5
171
1
172
0
173
0
174
0
175
1
176
1
 91
41
178
0
145
0.0
301
CELL_VALUE
 90
4
  1
\Q15.0; 
304
ACVALUE_END
170
5
140
2.0
 64
5
171
1
172
0
173
0
174
0
175
2
176
1
 91
41
178
0
145
0.0
301
CELL_VALUE
 90
4
  1
\Q15.0; Benennung
304
ACVALUE_END
170
7
140
2.0
 64
5
171
1
172
0
173
1
174
0
175
1
176
1
 91
1
178
0
145
0.0
170
1
171
1
172
0
173
0
174
0
175
1
176
1
 91
1
178
0
145
0.0
170
1
171
1
172
0
173
0
174
0
175
1
176
1
 91
1
178
0
145
0.0
170
1
171
1
172
0
173
0
174
0
175
1
176
1
 91
1
178
0
145
0.0
170
1
171
1
172
0
173
0
174
0
175
2
176
2
 91
41
178
0
145
0.0
301
CELL_VALUE
 90
4
  1
\Q15.0; Aend.-Nr.\P -
304
ACVALUE_END
170
4
140
2.0
 64
5
171
1
172
0
173
1
174
0
175
1
176
1
 91
1
178
0
145
0.0
170
1
171
1
172
0
173
0
174
0
175
1
176
2
 91
41
178
0
145
0.0
301
CELL_VALUE
 90
4
  1
\Q15.0;Aend.-Index\P\H3.0; 
304
ACVALUE_END
170
5
140
2.0
 64
5
171
1
172
0
173
0
174
0
175
5
176
1
 91
41
178
0
145
0.0
301
CELL_VALUE
 90
4
  1
\Q15.0;Plug
304
ACVALUE_END
170
5
140
3.5
 64
5
171
1
172
0
173
1
174
0
175
1
176
1
 91
1
178
0
145
0.0
170
1
171
1
172
0
173
1
174
0
175
1
176
1
 91
1
178
0
145
0.0
170
1
171
1
172
0
173
1
174
0
175
1
176
1
 91
1
178
0
145
0.0
170
1
171
1
172
0
173
1
174
0
175
1
176
1
 91
1
178
0
145
0.0
170
1
171
1
172
0
173
1
174
0
175
1
176
1
 91
1
178
0
145
0.0
170
1
171
1
172
0
173
1
174
0
175
1
176
1
 91
1
178
0
145
0.0
170
1
171
1
172
0
173
1
174
0
175
1
176
1
 91
1
178
0
145
0.0
170
1
171
1
172
0
173
0
174
0
175
1
176
1
 91
1
178
0
145
0.0
170
1
171
1
172
0
173
0
174
0
175
1
176
1
 91
1
178
0
145
0.0
170
1
171
1
172
0
173
0
174
0
175
1
176
1
 91
41
178
0
145
0.0
301
CELL_VALUE
 90
4
  1
\Q15.0;NP3XL
304
ACVALUE_END
170
5
140
5.0
 64
5
171
1
172
0
173
0
174
0
175
1
176
1
 91
1
178
0
145
0.0
170
1
171
1
172
0
173
0
174
0
175
1
176
1
 91
1
178
0
145
0.0
170
1
171
1
172
0
173
0
174
0
175
1
176
1
 91
41
178
0
145
0.0
301
CELL_VALUE
 90
4
  1
\Q15.0; Ersatz fuer:
304
ACVALUE_END
170
4
140
2.0
 64
5
171
1
172
0
173
0
174
0
175
1
176
1
 91
1
178
0
145
0.0
170
1
171
1
172
0
173
0
174
0
175
1
176
1
 91
41
178
0
145
0.0
301
CELL_VALUE
 90
4
  1
\Q15.0;Blatt 1\Pvon 1 Bl.
304
ACVALUE_END
170
5
140
2.0
 64
5
171
1
172
0
173
0
174
0
175
5
176
2
 91
1
178
0
145
0.0
170
1
171
1
172
0
173
1
174
0
175
1
176
1
 91
1
178
0
145
0.0
170
1
171
1
172
0
173
1
174
0
175
1
176
1
 91
1
178
0
145
0.0
170
1
171
1
172
0
173
1
174
0
175
1
176
1
 91
1
178
0
145
0.0
170
1
171
1
172
0
173
1
174
0
175
1
176
1
 91
1
178
0
145
0.0
170
1
171
1
172
0
173
0
174
0
175
1
176
1
 91
41
178
0
145
0.0
301
CELL_VALUE
 90
4
  1
\Q15.0; Zeichn. Nr.
304
ACVALUE_END
170
4
140
2.0
 64
5
171
1
172
0
173
0
174
0
175
1
176
1
 91
1
178
0
145
0.0
170
1
171
1
172
0
173
0
174
0
175
1
176
1
 91
1
178
0
145
0.0
170
1
171
1
172
0
173
1
174
0
175
1
176
1
 91
1
178
0
145
0.0
170
1
171
1
172
0
173
1
174
0
175
1
176
1
 91
1
178
0
145
0.0
170
1
171
1
172
0
173
1
174
0
175
1
176
1
 91
1
178
0
145
0.0
170
1
171
1
172
0
173
1
174
0
175
1
176
1
 91
1
178
0
145
0.0
170
1
171
1
172
0
173
1
174
0
175
1
176
1
 91
1
178
0
145
0.0
170
1
171
1
172
0
173
0
174
0
175
1
176
1
 91
1
178
0
145
0.0
170
1
171
1
172
0
173
0
174
0
175
1
176
1
 91
41
178
0
145
0.0
301
CELL_VALUE
 90
4
  1
\Q15.0;ST-NP3XL
304
ACVALUE_END
170
5
140
3.5
 64
5
171
1
172
0
173
0
174
0
175
1
176
1
 91
1
178
0
145
0.0
170
1
  0
LINE
  5
2FC
100
AcDbEntity
  8
0
100
AcDbLine
 62
7
  6
CONTINUOUS
 10
0.0
 20
0.0
 11
210.0
 21
0.0
  0
LINE
  5
2FD
100
AcDbEntity
  8
0
100
AcDbLine
 62
7
  6
CONTINUOUS
 10
5.0
 20
5.0
 11
205.0
 21
5.0
  0
LINE
  5
2FE
100
AcDbEntity
  8
0
100
AcDbLine
 62
7
  6
CONTINUOUS
 10
0.0
 20
0.0
 11
0.0
 21
297.0
  0
LINE
  5
2FF
100
AcDbEntity
  8
0
100
AcDbLine
 62
7
  6
CONTINUOUS
 10
5.0
 20
5.0
 11
5.0
 21
292.0
  0
LINE
  5
300
100
AcDbEntity
  8
0
100
AcDbLine
 62
7
  6
CONTINUOUS
 10
205.0
 20
5.0
 11
205.0
 21
292.0
  0
LINE
  5
301
100
AcDbEntity
  8
0
100
AcDbLine
 62
7
  6
CONTINUOUS
 10
210.0
 20
0.0
 11
210.0
 21
297.0
  0
LINE
  5
302
100
AcDbEntity
  8
0
100
AcDbLine
 62
7
  6
CONTINUOUS
 10
5.0
 20
292.0
 11
205.0
 21
292.0
  0
LINE
  5
303
100
AcDbEntity
  8
0
100
AcDbLine
 62
7
  6
CONTINUOUS
 10
0.0
 20
297.0
 11
210.0
 21
297.0
  0
LINE
  5
304
100
AcDbEntity
  8
0
100
AcDbLine
 62
9
  6
CONTINUOUS
 10
97.0936651646
 20
100.2773129724
 11
98.5799548155
 21
100.2773129724
  0
LINE
  5
305
100
AcDbEntity
  8
0
100
AcDbLine
 62
9
  6
CONTINUOUS
 10
95.1727782693
 20
102.4106739978
 11
100.5008417108
 21
102.4106739978
  0
LINE
  5
306
100
AcDbEntity
  8
0
100
AcDbLine
 62
9
  6
CONTINUOUS
 10
95.3295519256
 20
104.7037572165
 11
100.3440680546
 21
104.7037572165
  0
LINE
  5
307
100
AcDbEntity
  8
0
100
AcDbLine
 62
9
  6
CONTINUOUS
 10
95.1444186857
 20
107.1294844465
 11
100.5292012944
 21
107.1294844465
  0
LINE
  5
308
100
AcDbEntity
  8
0
100
AcDbLine
 62
9
  6
CONTINUOUS
 10
94.7618099901
 20
107.8119685115
 11
100.9118099901
 21
107.8119685115
  0
LINE
  5
309
100
AcDbEntity
  8
0
100
AcDbLine
 62
7
  6
CONTINUOUS
 10
94.7618099901
 20
107.9819685115
 11
100.9118099901
 21
107.9819685115
  0
LINE
  5
30A
100
AcDbEntity
  8
0
100
AcDbLine
 62
7
  6
CONTINUOUS
 10
94.6918099901
 20
108.9819685115
 11
100.9818099901
 21
108.9819685115
  0
LINE
  5
30B
100
AcDbEntity
  8
RUNDUNGEN
100
AcDbLine
 62
7
  6
CONTINUOUS
 10
88.7484035661
 20
194.2683569741
 11
89.767948749
 21
194.6394410732
  0
LINE
  5
30C
100
AcDbEntity
  8
0
100
AcDbLine
 62
7
  6
CONTINUOUS
 10
94.6918099901
 20
114.4819685115
 11
100.9818099901
 21
114.4819685115
  0
LINE
  5
30D
100
AcDbEntity
  8
0
100
AcDbLine
 62
7
  6
CONTINUOUS
 10
94.7868099901
 20
115.4819685115
 11
100.8868099901
 21
115.4819685115
  0
LINE
  5
30E
100
AcDbEntity
  8
RUNDUNGEN
100
AcDbLine
 62
9
  6
CONTINUOUS
 10
100.935032274
 20
115.5786370285
 11
94.7385877062
 21
115.5786370285
  0
LINE
  5
30F
100
AcDbEntity
  8
0
100
AcDbLine
 62
7
  6
CONTINUOUS
 10
100.9818099901
 20
116.9819685115
 11
94.6918099901
 21
116.9819685115
  0
LINE
  5
310
100
AcDbEntity
  8
0
100
AcDbLine
 62
7
  6
CONTINUOUS
 10
97.0936651646
 20
100.2773129724
 11
95.1727782693
 21
102.4106739978
  0
LINE
  5
311
100
AcDbEntity
  8
RUNDUNGEN
100
AcDbLine
 62
9
  6
CONTINUOUS
 10
91.0204856098
 20
182.6827906116
 11
91.403784833
 21
182.88008685
  0
LINE
  5
312
100
AcDbEntity
  8
RUNDUNGEN
100
AcDbLine
 62
7
  6
CONTINUOUS
 10
91.8345063977
 20
182.9332750211
 11
91.8390168204
 21
182.9362651183
  0
LINE
  5
313
100
AcDbEntity
  8
0
100
AcDbLine
 62
7
  6
CONTINUOUS
 10
89.1868099901
 20
178.6201761919
 11
89.0367136746
 21
178.5501851305
  0
LINE
  5
314
100
AcDbEntity
  8
RUNDUNGEN
100
AcDbLine
 62
9
  6
CONTINUOUS
 10
100.9818099901
 20
130.2819685115
 11
94.6918099901
 21
130.2819685115
  0
LINE
  5
315
100
AcDbEntity
  8
RUNDUNGEN
100
AcDbLine
 62
7
  6
CONTINUOUS
 10
102.1118099901
 20
130.4819685115
 11
93.5618099901
 21
130.4819685115
  0
LINE
  5
316
100
AcDbEntity
  8
RUNDUNGEN
100
AcDbLine
 62
9
  6
CONTINUOUS
 10
102.3118099901
 20
130.6819685115
 11
93.3618099901
 21
130.6819685115
  0
LINE
  5
317
100
AcDbEntity
  8
RUNDUNGEN
100
AcDbLine
 62
7
  6
CONTINUOUS
 10
104.3973573663
 20
131.9819685115
 11
91.2762626138
 21
131.9819685115
  0
LINE
  5
318
100
AcDbEntity
  8
RUNDUNGEN
100
AcDbLine
 62
9
  6
CONTINUOUS
 10
105.3954113467
 20
132.9195902184
 11
90.2782086334
 21
132.9195902184
  0
LINE
  5
319
100
AcDbEntity
  8
0
100
AcDbLine
 62
7
  6
CONTINUOUS
 10
90.2024349901
 20
134.1319685115
 11
105.4711849901
 21
134.1319685115
  0
LWPOLYLINE
  5
31A
100
AcDbEntity
  8
RUNDUNGEN
100
AcDbPolyline
 62
7
  6
CONTINUOUS
 90
27
 70
0
 10
94.2288344399
 20
187.5603699874
 10
94.1753068057
 20
187.4002309186
 10
94.0899417859
 20
187.1485994654
 10
94.0050344369
 20
186.9030338555
 10
93.9200684668
 20
186.6622797334
 10
93.8350667095
 20
186.4268825102
 10
93.7499120175
 20
186.1969051756
 10
93.6646036777
 20
185.9724810368
 10
93.5792066714
 20
185.7537746285
 10
93.4936370685
 20
185.5406873604
 10
93.4077712182
 20
185.3334478512
 10
93.3213072994
 20
185.1318600433
 10
93.233952939
 20
184.9357901428
 10
93.1453839253
 20
184.7450511269
 10
93.0553095542
 20
184.5595090854
 10
92.9635257595
 20
184.3792317264
 10
92.8697328526
 20
184.2042106234
 10
92.7736743196
 20
184.0350275469
 10
92.6749842114
 20
183.8721287203
 10
92.5735301803
 20
183.7163714602
 10
92.4692096328
 20
183.5686057342
 10
92.3620926452
 20
183.4298811877
 10
92.2523575448
 20
183.3013254808
 10
92.1404418522
 20
183.1841516055
 10
92.0269486929
 20
183.0794670084
 10
91.9129354661
 20
182.9882034997
 10
91.8346112785
 20
182.9333445664
  0
LINE
  5
31B
100
AcDbEntity
  8
0
100
AcDbLine
 62
7
  6
CONTINUOUS
 10
98.4896388072
 20
138.2968231831
 11
97.1886818079
 21
138.5528971775
  0
LINE
  5
31C
100
AcDbEntity
  8
0
100
AcDbLine
 62
7
  6
CONTINUOUS
 10
88.6172666298
 20
194.0939610968
 11
87.701300232
 21
180.5955089188
  0
LINE
  5
31D
100
AcDbEntity
  8
BEZUGSACHSEN
100
AcDbLine
 62
7
  6
CONTINUOUS
 10
89.767948749
 20
194.6394410731
 11
89.9896980888
 21
197.1740476244
  0
LINE
  5
31E
100
AcDbEntity
  8
RUNDUNGEN
100
AcDbLine
 62
9
  6
CONTINUOUS
 10
96.54356497
 20
193.5886865488
 11
92.8268519102
 21
180.6091091657
  0
LWPOLYLINE
  5
31F
100
AcDbEntity
  8
0
100
AcDbPolyline
 62
7
  6
CONTINUOUS
 90
3
 70
0
 10
94.2680552364
 20
187.6821149312
 10
94.2483588507
 20
187.619964388
 10
94.2287713793
 20
187.5601857542
  0
LINE
  5
320
100
AcDbEntity
  8
RUNDUNGEN
100
AcDbLine
 62
7
  6
CONTINUOUS
 10
94.2287729998
 20
187.5601851587
 11
94.2288344399
 21
187.5603699874
  0
LINE
  5
321
100
AcDbEntity
  8
RUNDUNGEN
100
AcDbLine
 62
9
  6
CONTINUOUS
 10
100.673704576
 20
190.03877958
 11
100.6987641399
 21
190.0938068737
  0
LINE
  5
322
100
AcDbEntity
  8
0
100
AcDbLine
 62
7
  6
CONTINUOUS
 10
98.4896388072
 20
142.1166531642
 11
97.1886818079
 21
142.343200155
  0
LINE
  5
323
100
AcDbEntity
  8
0
100
AcDbLine
 62
7
  6
CONTINUOUS
 10
97.9380012589
 20
140.7014852096
 11
97.1886818079
 21
140.8490199327
  0
LINE
  5
324
100
AcDbEntity
  8
0
100
AcDbLine
 62
7
  6
CONTINUOUS
 10
97.1886818079
 20
141.8693298201
 11
98.4896388072
 21
141.6132558257
  0
LINE
  5
325
100
AcDbEntity
  8
0
100
AcDbLine
 62
7
  6
CONTINUOUS
 10
97.7279523187
 20
139.4395079053
 11
98.4896388072
 21
139.2894787477
  0
LINE
  5
326
100
AcDbEntity
  8
BEZUGSACHSEN
100
AcDbLine
 62
7
  6
CONTINUOUS
 10
90.2782086334
 20
132.9195902184
 11
90.2024349901
 21
134.1319685115
  0
LINE
  5
327
100
AcDbEntity
  8
0
100
AcDbLine
 62
7
  6
CONTINUOUS
 10
88.8853961991
 20
177.1819685115
 11
88.9368099901
 21
176.3089558096
  0
LINE
  5
328
100
AcDbEntity
  8
RUNDUNGEN
100
AcDbLine
 62
9
  6
CONTINUOUS
 10
88.9504155691
 20
193.5886878548
 11
89.0449969813
 21
180.6091091657
  0
LINE
  5
329
100
AcDbEntity
  8
RUNDUNGEN
100
AcDbLine
 62
7
  6
CONTINUOUS
 10
87.6868099901
 20
180.1819685115
 11
87.6868099901
 21
177.3819685115
  0
LINE
  5
32A
100
AcDbEntity
  8
RUNDUNGEN
100
AcDbLine
 62
7
  6
CONTINUOUS
 10
87.6868099901
 20
175.3819685115
 11
87.6868099901
 21
172.5819685115
  0
LINE
  5
32B
100
AcDbEntity
  8
BEZUGSACHSEN
100
AcDbLine
 62
7
  6
CONTINUOUS
 10
87.6868099901
 20
177.3819685115
 11
87.6868099901
 21
180.1819685115
  0
LINE
  5
32C
100
AcDbEntity
  8
0
100
AcDbLine
 62
7
  6
CONTINUOUS
 10
88.9368099901
 20
176.3089558096
 11
88.9368099901
 21
175.5819685115
  0
LINE
  5
32D
100
AcDbEntity
  8
0
100
AcDbLine
 62
7
  6
CONTINUOUS
 10
89.1868099901
 20
178.9819685115
 11
89.1868099901
 21
178.6201761919
  0
LINE
  5
32E
100
AcDbEntity
  8
0
100
AcDbLine
 62
7
  6
CONTINUOUS
 10
89.1868099901
 20
173.8819685115
 11
89.1868099901
 21
173.7819685115
  0
LINE
  5
32F
100
AcDbEntity
  8
0
100
AcDbLine
 62
7
  6
CONTINUOUS
 10
89.1868099901
 20
172.3819685115
 11
89.1868099901
 21
171.9819685115
  0
LINE
  5
330
100
AcDbEntity
  8
0
100
AcDbLine
 62
7
  6
CONTINUOUS
 10
90.4368099901
 20
174.9819685115
 11
90.4368099901
 21
177.7819685115
  0
LINE
  5
331
100
AcDbEntity
  8
0
100
AcDbLine
 62
7
  6
CONTINUOUS
 10
98.1544518019
 20
144.5407997527
 11
98.4896388072
 21
144.482578738
  0
LINE
  5
332
100
AcDbEntity
  8
0
100
AcDbLine
 62
7
  6
CONTINUOUS
 10
97.983742033
 20
143.0436509963
 11
98.1544518019
 21
143.0139191999
  0
LINE
  5
333
100
AcDbEntity
  8
0
100
AcDbLine
 62
7
  6
CONTINUOUS
 10
97.6631663895
 20
144.2776801425
 11
97.983742033
 21
144.2218419153
  0
LINE
  5
334
100
AcDbEntity
  8
0
100
AcDbLine
 62
7
  6
CONTINUOUS
 10
97.1886818079
 20
144.6370632247
 11
97.5068099901
 21
144.581590694
  0
LINE
  5
335
100
AcDbEntity
  8
0
100
AcDbLine
 62
7
  6
CONTINUOUS
 10
97.5068099901
 20
143.1267674549
 11
97.6631663895
 21
143.0994892236
  0
LINE
  5
336
100
AcDbEntity
  8
0
100
AcDbLine
 62
7
  6
CONTINUOUS
 10
97.8828991092
 20
144.9511079321
 11
97.2019314064
 21
145.077673195
  0
LINE
  5
337
100
AcDbEntity
  8
0
100
AcDbLine
 62
7
  6
CONTINUOUS
 10
97.2019314064
 20
145.9041929678
 11
97.8282150682
 21
145.7877524464
  0
LINE
  5
338
100
AcDbEntity
  8
RUNDUNGEN
100
AcDbLine
 62
7
  6
CONTINUOUS
 10
94.6918099901
 20
116.9819685115
 11
94.7385877062
 21
115.5786370285
  0
LINE
  5
339
100
AcDbEntity
  8
0
100
AcDbLine
 62
7
  6
CONTINUOUS
 10
94.7385877062
 20
115.5786370285
 11
94.6918099901
 21
116.9819685115
  0
LINE
  5
33A
100
AcDbEntity
  8
0
100
AcDbLine
 62
7
  6
CONTINUOUS
 10
93.3618099901
 20
131.9819685115
 11
93.3618099901
 21
130.6819685115
  0
LINE
  5
33B
100
AcDbEntity
  8
RUNDUNGEN
100
AcDbLine
 62
7
  6
CONTINUOUS
 10
93.3618099901
 20
130.6819685115
 11
93.3618099901
 21
131.9819685115
  0
LINE
  5
33C
100
AcDbEntity
  8
0
100
AcDbLine
 62
7
  6
CONTINUOUS
 10
97.8281990119
 20
146.8424596423
 11
97.2019314064
 21
146.9588114068
  0
LINE
  5
33D
100
AcDbEntity
  8
0
100
AcDbLine
 62
7
  6
CONTINUOUS
 10
97.2019314064
 20
147.7832518846
 11
97.8829005274
 21
147.6566228175
  0
LINE
  5
33E
100
AcDbEntity
  8
0
100
AcDbLine
 62
7
  6
CONTINUOUS
 10
97.5068099901
 20
147.9805685115
 11
97.2019314064
 21
148.0387744979
  0
LINE
  5
33F
100
AcDbEntity
  8
0
100
AcDbLine
 62
7
  6
CONTINUOUS
 10
98.4896388072
 20
148.4835357207
 11
97.5068099901
 21
148.6712063542
  0
LINE
  5
340
100
AcDbEntity
  8
0
100
AcDbLine
 62
7
  6
CONTINUOUS
 10
97.5068099901
 20
149.5113455095
 11
98.4896388072
 21
149.323674876
  0
LINE
  5
341
100
AcDbEntity
  8
0
100
AcDbLine
 62
7
  6
CONTINUOUS
 10
97.2019314064
 20
150.2601893387
 11
97.5068099901
 21
150.2019833523
  0
LINE
  5
342
100
AcDbEntity
  8
0
100
AcDbLine
 62
7
  6
CONTINUOUS
 10
88.3374049225
 20
164.593145653
 11
88.8524982007
 21
162.6707913682
  0
LINE
  5
343
100
AcDbEntity
  8
0
100
AcDbLine
 62
7
  6
CONTINUOUS
 10
88.1936549225
 20
166.8931456531
 11
88.7087482007
 21
164.9707913682
  0
LINE
  5
344
100
AcDbEntity
  8
0
100
AcDbLine
 62
7
  6
CONTINUOUS
 10
88.0499049225
 20
169.1931456531
 11
88.5649982007
 21
167.2707913682
  0
LINE
  5
345
100
AcDbEntity
  8
0
100
AcDbLine
 62
7
  6
CONTINUOUS
 10
87.9379998541
 20
171.6043227979
 11
88.4828829584
 21
169.5707913682
  0
LINE
  5
346
100
AcDbEntity
  8
0
100
AcDbLine
 62
7
  6
CONTINUOUS
 10
89.0764667623
 20
174.5077560531
 11
89.1868099901
 21
173.8819685115
  0
LINE
  5
347
100
AcDbEntity
  8
0
100
AcDbLine
 62
7
  6
CONTINUOUS
 10
94.6918099901
 20
130.2819685115
 11
94.6918099901
 21
116.9819685115
  0
LINE
  5
348
100
AcDbEntity
  8
0
100
AcDbLine
 62
7
  6
CONTINUOUS
 10
94.6918099901
 20
108.9819685115
 11
94.6918099901
 21
114.4819685115
  0
LINE
  5
349
100
AcDbEntity
  8
0
100
AcDbLine
 62
7
  6
CONTINUOUS
 10
94.7618099901
 20
107.9819685115
 11
94.7618099901
 21
107.8119685115
  0
LINE
  5
34A
100
AcDbEntity
  8
0
100
AcDbLine
 62
7
  6
CONTINUOUS
 10
94.7868099901
 20
108.9819685115
 11
94.7868099901
 21
107.9819685115
  0
LINE
  5
34B
100
AcDbEntity
  8
0
100
AcDbLine
 62
7
  6
CONTINUOUS
 10
94.7868099901
 20
114.4819685115
 11
94.7868099901
 21
115.4819685115
  0
LINE
  5
34C
100
AcDbEntity
  8
0
100
AcDbLine
 62
7
  6
CONTINUOUS
 10
97.1886818079
 20
138.5528971775
 11
97.1886818079
 21
139.7991220964
  0
LINE
  5
34D
100
AcDbEntity
  8
0
100
AcDbLine
 62
7
  6
CONTINUOUS
 10
97.1886818079
 20
140.8490199327
 11
97.1886818079
 21
141.8693298201
  0
LINE
  5
34E
100
AcDbEntity
  8
0
100
AcDbLine
 62
7
  6
CONTINUOUS
 10
97.1886818079
 20
142.343200155
 11
97.1886818079
 21
144.6370632247
  0
LINE
  5
34F
100
AcDbEntity
  8
0
100
AcDbLine
 62
7
  6
CONTINUOUS
 10
97.1886818079
 20
153.7312913301
 11
97.1886818079
 21
154.7121987586
  0
LINE
  5
350
100
AcDbEntity
  8
0
100
AcDbLine
 62
7
  6
CONTINUOUS
 10
97.2019314064
 20
145.077673195
 11
97.2019314064
 21
145.9041929678
  0
LINE
  5
351
100
AcDbEntity
  8
0
100
AcDbLine
 62
7
  6
CONTINUOUS
 10
97.2019314064
 20
146.9588114068
 11
97.2019314064
 21
147.7832518846
  0
LINE
  5
352
100
AcDbEntity
  8
0
100
AcDbLine
 62
7
  6
CONTINUOUS
 10
97.2019314064
 20
148.0387744979
 11
97.2019314064
 21
150.2601893387
  0
LINE
  5
353
100
AcDbEntity
  8
0
100
AcDbLine
 62
7
  6
CONTINUOUS
 10
97.2019314064
 20
150.5394614059
 11
97.2019314064
 21
151.5659053958
  0
LINE
  5
354
100
AcDbEntity
  8
0
100
AcDbLine
 62
7
  6
CONTINUOUS
 10
97.2019314064
 20
155.2071668448
 11
97.2019314064
 21
156.1206011503
  0
LINE
  5
355
100
AcDbEntity
  8
0
100
AcDbLine
 62
7
  6
CONTINUOUS
 10
97.2019314064
 20
157.1916197253
 11
97.2019314064
 21
158.2668231831
  0
LINE
  5
356
100
AcDbEntity
  8
0
100
AcDbLine
 62
7
  6
CONTINUOUS
 10
97.4718239008
 20
151.6137291814
 11
97.4718239008
 21
151.4171318367
  0
LINE
  5
357
100
AcDbEntity
  8
0
100
AcDbLine
 62
7
  6
CONTINUOUS
 10
97.5068099901
 20
150.2019833523
 11
97.5068099901
 21
149.5113455095
  0
LINE
  5
358
100
AcDbEntity
  8
0
100
AcDbLine
 62
7
  6
CONTINUOUS
 10
97.5068099901
 20
148.6712063542
 11
97.5068099901
 21
147.9805685115
  0
LINE
  5
359
100
AcDbEntity
  8
0
100
AcDbLine
 62
7
  6
CONTINUOUS
 10
97.5068099901
 20
144.581590694
 11
97.5068099901
 21
143.1267674549
  0
LINE
  5
35A
100
AcDbEntity
  8
0
100
AcDbLine
 62
7
  6
CONTINUOUS
 10
97.6631663895
 20
143.0994892236
 11
97.6631663895
 21
144.2776801425
  0
LINE
  5
35B
100
AcDbEntity
  8
0
100
AcDbLine
 62
7
  6
CONTINUOUS
 10
97.8105410605
 20
151.3633820603
 11
97.8105410605
 21
151.5456322693
  0
LINE
  5
35C
100
AcDbEntity
  8
BEZUGSACHSEN
100
AcDbLine
 62
7
  6
CENTER
 10
97.8368099901
 20
96.9464435787
 11
97.8368099901
 21
209.8219685115
  0
LINE
  5
35D
100
AcDbEntity
  8
0
100
AcDbLine
 62
7
  6
CONTINUOUS
 10
97.983742033
 20
144.2218419153
 11
97.983742033
 21
143.0436509963
  0
LINE
  5
35E
100
AcDbEntity
  8
0
100
AcDbLine
 62
7
  6
CONTINUOUS
 10
98.1544518019
 20
143.0139191999
 11
98.1544518019
 21
144.5407997527
  0
LINE
  5
35F
100
AcDbEntity
  8
RUNDUNGEN
100
AcDbLine
 62
7
  6
CONTINUOUS
 10
97.8386429932
 20
194.2683563383
 11
97.840857566
 21
194.6394368404
  0
LINE
  5
360
100
AcDbEntity
  8
0
100
AcDbLine
 62
7
  6
CONTINUOUS
 10
97.83002866
 20
156.8834914772
 11
98.4896388072
 21
158.1049763572
  0
LINE
  5
361
100
AcDbEntity
  8
0
100
AcDbLine
 62
7
  6
CONTINUOUS
 10
98.4896388072
 20
156.9531508772
 11
97.9115947961
 21
155.9713077676
  0
LINE
  5
362
100
AcDbEntity
  8
0
100
AcDbLine
 62
7
  6
CONTINUOUS
 10
97.4718239008
 20
151.4171318367
 11
97.8105410605
 21
151.3633820603
  0
LINE
  5
363
100
AcDbEntity
  8
0
100
AcDbLine
 62
7
  6
CONTINUOUS
 10
98.4896388072
 20
150.3347548113
 11
97.2019314064
 21
150.5394614059
  0
LINE
  5
364
100
AcDbEntity
  8
0
100
AcDbLine
 62
7
  6
CONTINUOUS
 10
97.9856176987
 20
151.3355195076
 11
98.4896388072
 21
151.2552587202
  0
LINE
  5
365
100
AcDbEntity
  8
0
100
AcDbLine
 62
7
  6
CONTINUOUS
 10
98.4896388072
 20
153.4928919505
 11
97.1886818079
 21
153.7312913301
  0
LINE
  5
366
100
AcDbEntity
  8
0
100
AcDbLine
 62
7
  6
CONTINUOUS
 10
98.4896388072
 20
158.1049763572
 11
98.4896388072
 21
156.9531508772
  0
LINE
  5
367
100
AcDbEntity
  8
0
100
AcDbLine
 62
7
  6
CONTINUOUS
 10
98.4896388072
 20
155.8496690094
 11
98.4896388072
 21
154.9362347039
  0
LINE
  5
368
100
AcDbEntity
  8
0
100
AcDbLine
 62
7
  6
CONTINUOUS
 10
98.4896388072
 20
154.473799379
 11
98.4896388072
 21
153.4928919505
  0
LINE
  5
369
100
AcDbEntity
  8
0
100
AcDbLine
 62
7
  6
CONTINUOUS
 10
98.4896388072
 20
153.1914982456
 11
98.4896388072
 21
152.0818824546
  0
LINE
  5
36A
100
AcDbEntity
  8
0
100
AcDbLine
 62
7
  6
CONTINUOUS
 10
98.4896388072
 20
151.2552587202
 11
98.4896388072
 21
150.3347548113
  0
LINE
  5
36B
100
AcDbEntity
  8
0
100
AcDbLine
 62
7
  6
CONTINUOUS
 10
98.4896388072
 20
149.323674876
 11
98.4896388072
 21
148.4835357207
  0
LINE
  5
36C
100
AcDbEntity
  8
0
100
AcDbLine
 62
7
  6
CONTINUOUS
 10
98.4896388072
 20
144.482578738
 11
98.4896388072
 21
142.1166531642
  0
LINE
  5
36D
100
AcDbEntity
  8
0
100
AcDbLine
 62
7
  6
CONTINUOUS
 10
98.4896388072
 20
141.6132558257
 11
98.4896388072
 21
140.4310727555
  0
LINE
  5
36E
100
AcDbEntity
  8
0
100
AcDbLine
 62
7
  6
CONTINUOUS
 10
98.4896388072
 20
139.2894787477
 11
98.4896388072
 21
138.2968231831
  0
LINE
  5
36F
100
AcDbEntity
  8
0
100
AcDbLine
 62
7
  6
CONTINUOUS
 10
100.8868099901
 20
108.9819685115
 11
100.8868099901
 21
107.9819685115
  0
LINE
  5
370
100
AcDbEntity
  8
0
100
AcDbLine
 62
7
  6
CONTINUOUS
 10
100.8868099901
 20
114.4819685115
 11
100.8868099901
 21
115.4819685115
  0
LINE
  5
371
100
AcDbEntity
  8
0
100
AcDbLine
 62
7
  6
CONTINUOUS
 10
100.9118099901
 20
107.9819685115
 11
100.9118099901
 21
107.8119685115
  0
LINE
  5
372
100
AcDbEntity
  8
0
100
AcDbLine
 62
7
  6
CONTINUOUS
 10
100.9818099901
 20
130.2819685115
 11
100.9818099901
 21
116.9819685115
  0
LINE
  5
373
100
AcDbEntity
  8
0
100
AcDbLine
 62
7
  6
CONTINUOUS
 10
100.9818099901
 20
108.9819685115
 11
100.9818099901
 21
114.4819685115
  0
LINE
  5
374
100
AcDbEntity
  8
0
100
AcDbLine
 62
7
  6
CONTINUOUS
 10
97.9704388454
 20
152.2929309032
 11
98.4896388072
 21
153.1914982456
  0
LINE
  5
375
100
AcDbEntity
  8
0
100
AcDbLine
 62
7
  6
CONTINUOUS
 10
98.4896388072
 20
152.0818824546
 11
97.9856176987
 21
151.3355195076
  0
LINE
  5
376
100
AcDbEntity
  8
0
100
AcDbLine
 62
7
  6
CONTINUOUS
 10
97.1886818079
 20
154.7121987586
 11
98.4896388072
 21
154.473799379
  0
LINE
  5
377
100
AcDbEntity
  8
0
100
AcDbLine
 62
7
  6
CONTINUOUS
 10
98.4896388072
 20
154.9362347039
 11
97.2019314064
 21
155.2071668448
  0
LINE
  5
378
100
AcDbEntity
  8
0
100
AcDbLine
 62
7
  6
CONTINUOUS
 10
97.2019314064
 20
156.1206011503
 11
97.7867092115
 21
155.9975337985
  0
LINE
  5
379
100
AcDbEntity
  8
0
100
AcDbLine
 62
7
  6
CONTINUOUS
 10
97.9115947961
 20
155.9713077676
 11
98.4896388072
 21
155.8496690094
  0
LINE
  5
37A
100
AcDbEntity
  8
0
100
AcDbLine
 62
7
  6
CONTINUOUS
 10
97.7867092115
 20
155.9975337985
 11
97.2019314064
 21
157.1916197253
  0
LINE
  5
37B
100
AcDbEntity
  8
0
100
AcDbLine
 62
7
  6
CONTINUOUS
 10
97.2019314064
 20
158.2668231831
 11
97.83002866
 21
156.8834914772
  0
LINE
  5
37C
100
AcDbEntity
  8
0
100
AcDbLine
 62
7
  6
CONTINUOUS
 10
102.3118099901
 20
131.9819685115
 11
102.3118099901
 21
130.6819685115
  0
LINE
  5
37D
100
AcDbEntity
  8
RUNDUNGEN
100
AcDbLine
 62
7
  6
CONTINUOUS
 10
102.3118099901
 20
130.6819685115
 11
102.3118099901
 21
131.9819685115
  0
LINE
  5
37E
100
AcDbEntity
  8
0
100
AcDbLine
 62
7
  6
CONTINUOUS
 10
105.2368099901
 20
174.9819685115
 11
105.2368099901
 21
177.7819685115
  0
LINE
  5
37F
100
AcDbEntity
  8
RUNDUNGEN
100
AcDbLine
 62
7
  6
CONTINUOUS
 10
100.9818099901
 20
116.9819685115
 11
100.935032274
 21
115.5786370285
  0
LINE
  5
380
100
AcDbEntity
  8
0
100
AcDbLine
 62
7
  6
CONTINUOUS
 10
100.935032274
 20
115.5786370285
 11
100.9818099901
 21
116.9819685115
  0
LINE
  5
381
100
AcDbEntity
  8
0
100
AcDbLine
 62
7
  6
CONTINUOUS
 10
106.7882237811
 20
177.1819685115
 11
106.7368099901
 21
176.3089558096
  0
LINE
  5
382
100
AcDbEntity
  8
0
100
AcDbLine
 62
7
  6
CONTINUOUS
 10
106.5971532178
 20
174.5077560531
 11
106.4868099901
 21
173.8819685115
  0
LINE
  5
383
100
AcDbEntity
  8
0
100
AcDbLine
 62
7
  6
CONTINUOUS
 10
107.7356201261
 20
171.6043227979
 11
107.1907370217
 21
169.5707913682
  0
LINE
  5
384
100
AcDbEntity
  8
0
100
AcDbLine
 62
7
  6
CONTINUOUS
 10
107.6237150576
 20
169.1931456531
 11
107.1086217794
 21
167.2707913682
  0
LINE
  5
385
100
AcDbEntity
  8
0
100
AcDbLine
 62
7
  6
CONTINUOUS
 10
107.4799650576
 20
166.8931456531
 11
106.9648717794
 21
164.9707913682
  0
LINE
  5
386
100
AcDbEntity
  8
0
100
AcDbLine
 62
7
  6
CONTINUOUS
 10
107.3362150576
 20
164.593145653
 11
106.8211217794
 21
162.6707913682
  0
LINE
  5
387
100
AcDbEntity
  8
0
100
AcDbLine
 62
7
  6
CONTINUOUS
 10
106.4868099901
 20
178.9819685115
 11
106.4868099901
 21
178.6201761919
  0
LINE
  5
388
100
AcDbEntity
  8
0
100
AcDbLine
 62
7
  6
CONTINUOUS
 10
106.4868099901
 20
173.8819685115
 11
106.4868099901
 21
173.7819685115
  0
LINE
  5
389
100
AcDbEntity
  8
0
100
AcDbLine
 62
7
  6
CONTINUOUS
 10
106.4868099901
 20
172.3819685115
 11
106.4868099901
 21
171.9819685115
  0
LINE
  5
38A
100
AcDbEntity
  8
0
100
AcDbLine
 62
7
  6
CONTINUOUS
 10
106.7368099901
 20
176.3089558096
 11
106.7368099901
 21
175.5819685115
  0
LINE
  5
38B
100
AcDbEntity
  8
BEZUGSACHSEN
100
AcDbLine
 62
7
  6
CONTINUOUS
 10
107.9868099901
 20
172.5819685115
 11
107.9868099901
 21
175.3819685115
  0
LINE
  5
38C
100
AcDbEntity
  8
BEZUGSACHSEN
100
AcDbLine
 62
7
  6
CONTINUOUS
 10
107.9868099901
 20
177.3819685115
 11
107.9868099901
 21
180.1819685115
  0
LINE
  5
38D
100
AcDbEntity
  8
RUNDUNGEN
100
AcDbLine
 62
9
  6
CONTINUOUS
 10
106.7232044015
 20
193.5886865515
 11
106.6286229988
 21
180.6091091657
  0
LINE
  5
38E
100
AcDbEntity
  8
BEZUGSACHSEN
100
AcDbLine
 62
7
  6
CONTINUOUS
 10
105.3954113467
 20
132.9195902184
 11
105.4711849901
 21
134.1319685115
  0
LINE
  5
38F
100
AcDbEntity
  8
0
100
AcDbLine
 62
7
  6
CONTINUOUS
 10
98.4896388072
 20
140.4310727555
 11
97.7279523187
 21
139.4395079053
  0
LINE
  5
390
100
AcDbEntity
  8
0
100
AcDbLine
 62
7
  6
CONTINUOUS
 10
97.1886818079
 20
139.7991220964
 11
97.9380012589
 21
140.7014852096
  0
LINE
  5
391
100
AcDbEntity
  8
RUNDUNGEN
100
AcDbLine
 62
9
  6
CONTINUOUS
 10
107.202264858
 20
162.2994082763
 11
88.4713551222
 21
162.2994082763
  0
LINE
  5
392
100
AcDbEntity
  8
RUNDUNGEN
100
AcDbLine
 62
7
  6
CONTINUOUS
 10
107.0558413935
 20
162.4819685115
 11
88.6177785871
 21
162.4819685115
  0
LINE
  5
393
100
AcDbEntity
  8
RUNDUNGEN
100
AcDbLine
 62
9
  6
CONTINUOUS
 10
106.8211217794
 20
162.6707913682
 11
88.8524982007
 21
162.6707913682
  0
LINE
  5
394
100
AcDbEntity
  8
RUNDUNGEN
100
AcDbLine
 62
9
  6
CONTINUOUS
 10
88.3374049225
 20
164.5931456531
 11
107.3362150576
 21
164.5931456531
  0
LINE
  5
395
100
AcDbEntity
  8
RUNDUNGEN
100
AcDbLine
 62
7
  6
CONTINUOUS
 10
88.482293796
 20
164.7819685115
 11
107.1913261899
 21
164.7819685115
  0
LINE
  5
396
100
AcDbEntity
  8
BEZUGSACHSEN
100
AcDbLine
 62
7
  6
CONTINUOUS
 10
105.9056712311
 20
194.6394410731
 11
105.6839218914
 21
197.1740476244
  0
LINE
  5
397
100
AcDbEntity
  8
0
100
AcDbLine
 62
7
  6
CONTINUOUS
 10
107.9723197481
 20
180.5955089188
 11
107.0563533503
 21
194.0939610968
  0
LINE
  5
398
100
AcDbEntity
  8
RUNDUNGEN
100
AcDbLine
 62
9
  6
CONTINUOUS
 10
106.9648717794
 20
164.9707913682
 11
88.7087482007
 21
164.9707913682
  0
LINE
  5
399
100
AcDbEntity
  8
RUNDUNGEN
100
AcDbLine
 62
9
  6
CONTINUOUS
 10
88.1936549225
 20
166.8931456531
 11
107.4799650576
 21
166.8931456531
  0
LINE
  5
39A
100
AcDbEntity
  8
RUNDUNGEN
100
AcDbLine
 62
7
  6
CONTINUOUS
 10
88.338543796
 20
167.0819685115
 11
107.3350761899
 21
167.0819685115
  0
LINE
  5
39B
100
AcDbEntity
  8
RUNDUNGEN
100
AcDbLine
 62
9
  6
CONTINUOUS
 10
107.1086217794
 20
167.2707913682
 11
88.5649982007
 21
167.2707913682
  0
LINE
  5
39C
100
AcDbEntity
  8
RUNDUNGEN
100
AcDbLine
 62
9
  6
CONTINUOUS
 10
94.9999724996
 20
190.0389706918
 11
94.9749253909
 21
190.0940338206
  0
LINE
  5
39D
100
AcDbEntity
  8
RUNDUNGEN
100
AcDbLine
 62
7
  6
CONTINUOUS
 10
101.4983028755
 20
187.4002793118
 11
101.4418275527
 21
187.5692757938
  0
LINE
  5
39E
100
AcDbEntity
  8
0
100
AcDbLine
 62
7
  6
CONTINUOUS
 10
101.4448486202
 20
187.5601857012
 11
101.4252621049
 21
187.6199613722
  0
LINE
  5
39F
100
AcDbEntity
  8
0
100
AcDbLine
 62
7
  6
CONTINUOUS
 10
101.4252621049
 20
187.6199613722
 11
101.4055647329
 21
187.6821149164
  0
LINE
  5
3A0
100
AcDbEntity
  8
RUNDUNGEN
100
AcDbLine
 62
9
  6
CONTINUOUS
 10
99.1300561466
 20
193.5886825799
 11
102.8467680699
 21
180.6091091657
  0
LINE
  5
3A1
100
AcDbEntity
  8
RUNDUNGEN
100
AcDbLine
 62
9
  6
CONTINUOUS
 10
88.0499049225
 20
169.1931456531
 11
107.6237150576
 21
169.1931456531
  0
LINE
  5
3A2
100
AcDbEntity
  8
RUNDUNGEN
100
AcDbLine
 62
7
  6
CONTINUOUS
 10
88.194793796
 20
169.3819685115
 11
107.4788261898
 21
169.3819685115
  0
LINE
  5
3A3
100
AcDbEntity
  8
RUNDUNGEN
100
AcDbLine
 62
9
  6
CONTINUOUS
 10
107.1907370217
 20
169.5707913682
 11
88.4828829584
 21
169.5707913682
  0
LINE
  5
3A4
100
AcDbEntity
  8
RUNDUNGEN
100
AcDbLine
 62
9
  6
CONTINUOUS
 10
107.7356201261
 20
171.6043227979
 11
87.9379998541
 21
171.6043227979
  0
LINE
  5
3A5
100
AcDbEntity
  8
RUNDUNGEN
100
AcDbLine
 62
7
  6
CONTINUOUS
 10
107.4458423785
 20
171.9819685115
 11
88.2277776017
 21
171.9819685115
  0
LINE
  5
3A6
100
AcDbEntity
  8
RUNDUNGEN
100
AcDbLine
 62
7
  6
CONTINUOUS
 10
107.7868099901
 20
172.3819685115
 11
87.8868099901
 21
172.3819685115
  0
LINE
  5
3A7
100
AcDbEntity
  8
RUNDUNGEN
100
AcDbLine
 62
9
  6
CONTINUOUS
 10
107.9868099901
 20
172.5819685115
 11
87.6868099901
 21
172.5819685115
  0
LINE
  5
3A8
100
AcDbEntity
  8
RUNDUNGEN
100
AcDbLine
 62
9
  6
CONTINUOUS
 10
107.6871203911
 20
173.5819685115
 11
87.986499589
 21
173.5819685115
  0
LINE
  5
3A9
100
AcDbEntity
  8
RUNDUNGEN
100
AcDbLine
 62
7
  6
CONTINUOUS
 10
107.4930256049
 20
173.7819685115
 11
88.1805943752
 21
173.7819685115
  0
LINE
  5
3AA
100
AcDbEntity
  8
0
100
AcDbLine
 62
7
  6
CONTINUOUS
 10
106.4868099901
 20
173.8819685115
 11
89.1868099901
 21
173.8819685115
  0
LINE
  5
3AB
100
AcDbEntity
  8
RUNDUNGEN
100
AcDbLine
 62
7
  6
CONTINUOUS
 10
88.1805943752
 20
174.5819685115
 11
107.4930256049
 21
174.5819685115
  0
LINE
  5
3AC
100
AcDbEntity
  8
RUNDUNGEN
100
AcDbLine
 62
9
  6
CONTINUOUS
 10
87.986499589
 20
174.7819685115
 11
107.6871203911
 21
174.7819685115
  0
LINE
  5
3AD
100
AcDbEntity
  8
0
100
AcDbLine
 62
7
  6
CONTINUOUS
 10
90.4368099901
 20
174.9819685115
 11
105.2368099901
 21
174.9819685115
  0
LINE
  5
3AE
100
AcDbEntity
  8
RUNDUNGEN
100
AcDbLine
 62
9
  6
CONTINUOUS
 10
107.9868099901
 20
175.3819685115
 11
106.3036441609
 21
175.3819685115
  0
LINE
  5
3AF
100
AcDbEntity
  8
RUNDUNGEN
100
AcDbLine
 62
9
  6
CONTINUOUS
 10
89.3699758192
 20
175.3819685115
 11
87.6868099901
 21
175.3819685115
  0
LINE
  5
3B0
100
AcDbEntity
  8
0
100
AcDbLine
 62
7
  6
CONTINUOUS
 10
104.7227449927
 20
175.5745346093
 11
104.2363835494
 21
175.5745346093
  0
LINE
  5
3B1
100
AcDbEntity
  8
0
100
AcDbLine
 62
7
  6
CONTINUOUS
 10
103.6085583989
 20
175.5745346093
 11
103.0471469777
 21
175.5745346093
  0
LINE
  5
3B2
100
AcDbEntity
  8
0
100
AcDbLine
 62
7
  6
CONTINUOUS
 10
102.6993184093
 20
175.5745346093
 11
102.1030405767
 21
175.5745346093
  0
LINE
  5
3B3
100
AcDbEntity
  8
0
100
AcDbLine
 62
7
  6
CONTINUOUS
 10
101.8327468097
 20
175.5745346093
 11
101.0314256893
 21
175.5745346093
  0
LINE
  5
3B4
100
AcDbEntity
  8
0
100
AcDbLine
 62
7
  6
CONTINUOUS
 10
100.2789210841
 20
175.5745346093
 11
99.6259233408
 21
175.5745346093
  0
LINE
  5
3B5
100
AcDbEntity
  8
0
100
AcDbLine
 62
7
  6
CONTINUOUS
 10
98.6437508251
 20
175.5745346093
 11
97.9767999149
 21
175.5745346093
  0
LINE
  5
3B6
100
AcDbEntity
  8
0
100
AcDbLine
 62
7
  6
CONTINUOUS
 10
96.2862241453
 20
175.5745346093
 11
95.5807402853
 21
175.5745346093
  0
LINE
  5
3B7
100
AcDbEntity
  8
0
100
AcDbLine
 62
7
  6
CONTINUOUS
 10
94.3758388957
 20
175.5745346093
 11
92.630390627
 21
175.5745346093
  0
LINE
  5
3B8
100
AcDbEntity
  8
0
100
AcDbLine
 62
7
  6
CONTINUOUS
 10
92.2905849873
 20
175.5745346093
 11
91.7619154172
 21
175.5745346093
  0
LINE
  5
3B9
100
AcDbEntity
  8
0
100
AcDbLine
 62
7
  6
CONTINUOUS
 10
91.1258800347
 20
175.5745346093
 11
90.6397573041
 21
175.5745346093
  0
LINE
  5
3BA
100
AcDbEntity
  8
RUNDUNGEN
100
AcDbLine
 62
7
  6
CONTINUOUS
 10
87.8868731709
 20
175.5819685115
 11
89.5368099901
 21
175.5819685115
  0
LINE
  5
3BB
100
AcDbEntity
  8
RUNDUNGEN
100
AcDbLine
 62
7
  6
CONTINUOUS
 10
106.1368099903
 20
175.5819685115
 11
107.7868099901
 21
175.5819685115
  0
LINE
  5
3BC
100
AcDbEntity
  8
0
100
AcDbLine
 62
7
  6
CONTINUOUS
 10
94.4734606333
 20
175.9613804723
 11
93.3070156276
 21
175.9613804723
  0
LINE
  5
3BD
100
AcDbEntity
  8
0
100
AcDbLine
 62
7
  6
CONTINUOUS
 10
96.0959038957
 20
175.9615611569
 11
95.8358441478
 21
175.9615611569
  0
LINE
  5
3BE
100
AcDbEntity
  8
0
100
AcDbLine
 62
7
  6
CONTINUOUS
 10
94.2486832312
 20
176.1872363007
 11
93.3612527235
 21
176.1872363007
  0
LINE
  5
3BF
100
AcDbEntity
  8
0
100
AcDbLine
 62
7
  6
CONTINUOUS
 10
88.9368099901
 20
176.3089558096
 11
90.3332703946
 21
176.3089558096
  0
LINE
  5
3C0
100
AcDbEntity
  8
0
100
AcDbLine
 62
7
  6
CONTINUOUS
 10
105.3403284985
 20
176.3089558096
 11
106.7368099901
 21
176.3089558096
  0
LINE
  5
3C1
100
AcDbEntity
  8
0
100
AcDbLine
 62
7
  6
CONTINUOUS
 10
100.992950298
 20
176.5421009783
 11
100.5297397155
 21
176.5421009783
  0
LINE
  5
3C2
100
AcDbEntity
  8
0
100
AcDbLine
 62
7
  6
CONTINUOUS
 10
94.3458762175
 20
176.5742628483
 11
93.4545622605
 21
176.5742628483
  0
LINE
  5
3C3
100
AcDbEntity
  8
0
100
AcDbLine
 62
7
  6
CONTINUOUS
 10
99.5547252833
 20
176.8001186767
 11
98.9706262132
 21
176.8001186767
  0
LINE
  5
3C4
100
AcDbEntity
  8
0
100
AcDbLine
 62
7
  6
CONTINUOUS
 10
98.3050323922
 20
176.8001186767
 11
97.6279169056
 21
176.8001186767
  0
LINE
  5
3C5
100
AcDbEntity
  8
0
100
AcDbLine
 62
7
  6
CONTINUOUS
 10
94.6863098247
 20
176.8001186767
 11
93.509226602
 21
176.8001186767
  0
LINE
  5
3C6
100
AcDbEntity
  8
0
100
AcDbLine
 62
7
  6
CONTINUOUS
 10
101.2436756112
 20
176.9291275259
 11
100.6295843749
 21
176.9291275259
  0
LINE
  5
3C7
100
AcDbEntity
  8
RUNDUNGEN
100
AcDbLine
 62
7
  6
CONTINUOUS
 10
107.7867469148
 20
177.1819685115
 11
106.1368099901
 21
177.1819685115
  0
LINE
  5
3C8
100
AcDbEntity
  8
RUNDUNGEN
100
AcDbLine
 62
7
  6
CONTINUOUS
 10
89.5368099901
 20
177.1819685115
 11
87.8868730944
 21
177.1819685115
  0
LINE
  5
3C9
100
AcDbEntity
  8
0
100
AcDbLine
 62
7
  6
CONTINUOUS
 10
105.0338625194
 20
177.1871452243
 11
104.4552318858
 21
177.1871452243
  0
LINE
  5
3CA
100
AcDbEntity
  8
0
100
AcDbLine
 62
7
  6
CONTINUOUS
 10
103.9586579499
 20
177.1871452243
 11
103.4131358713
 21
177.1871452243
  0
LINE
  5
3CB
100
AcDbEntity
  8
0
100
AcDbLine
 62
7
  6
CONTINUOUS
 10
103.0740848551
 20
177.1871452243
 11
102.4911322952
 21
177.1871452243
  0
LINE
  5
3CC
100
AcDbEntity
  8
0
100
AcDbLine
 62
7
  6
CONTINUOUS
 10
101.5888507441
 20
177.1871452243
 11
100.0495059839
 21
177.1871452243
  0
LINE
  5
3CD
100
AcDbEntity
  8
0
100
AcDbLine
 62
7
  6
CONTINUOUS
 10
99.6568411284
 20
177.1871452243
 11
97.7316074909
 21
177.1871452243
  0
LINE
  5
3CE
100
AcDbEntity
  8
0
100
AcDbLine
 62
7
  6
CONTINUOUS
 10
97.3311356597
 20
177.1871452243
 11
96.6657411345
 21
177.1871452243
  0
LINE
  5
3CF
100
AcDbEntity
  8
0
100
AcDbLine
 62
7
  6
CONTINUOUS
 10
95.819105678
 20
177.1871452243
 11
95.1694719341
 21
177.1871452243
  0
LINE
  5
3D0
100
AcDbEntity
  8
0
100
AcDbLine
 62
7
  6
CONTINUOUS
 10
94.785053873
 20
177.1871452243
 11
93.0059169559
 21
177.1871452243
  0
LINE
  5
3D1
100
AcDbEntity
  8
0
100
AcDbLine
 62
7
  6
CONTINUOUS
 10
92.6573856585
 20
177.1871452243
 11
92.0946965611
 21
177.1871452243
  0
LINE
  5
3D2
100
AcDbEntity
  8
0
100
AcDbLine
 62
7
  6
CONTINUOUS
 10
91.438355553
 20
177.1871452243
 11
90.9508748242
 21
177.1871452243
  0
LINE
  5
3D3
100
AcDbEntity
  8
RUNDUNGEN
100
AcDbLine
 62
9
  6
CONTINUOUS
 10
87.6868099901
 20
177.3819685115
 11
89.3699758192
 21
177.3819685115
  0
LINE
  5
3D4
100
AcDbEntity
  8
RUNDUNGEN
100
AcDbLine
 62
9
  6
CONTINUOUS
 10
106.3036441609
 20
177.3819685115
 11
107.9868099901
 21
177.3819685115
  0
LINE
  5
3D5
100
AcDbEntity
  8
0
100
AcDbLine
 62
7
  6
CONTINUOUS
 10
90.4368099901
 20
177.7819685115
 11
105.2368099901
 21
177.7819685115
  0
LINE
  5
3D6
100
AcDbEntity
  8
RUNDUNGEN
100
AcDbLine
 62
9
  6
CONTINUOUS
 10
107.6871203911
 20
177.9819685115
 11
87.986499589
 21
177.9819685115
  0
LINE
  5
3D7
100
AcDbEntity
  8
RUNDUNGEN
100
AcDbLine
 62
7
  6
CONTINUOUS
 10
107.4930256049
 20
178.1819685115
 11
88.1805943752
 21
178.1819685115
  0
LINE
  5
3D8
100
AcDbEntity
  8
0
100
AcDbLine
 62
7
  6
CONTINUOUS
 10
89.0409954509
 20
178.4569685115
 11
106.6326245292
 21
178.4569685115
  0
LINE
  5
3D9
100
AcDbEntity
  8
0
100
AcDbLine
 62
7
  6
CONTINUOUS
 10
106.4868099901
 20
178.6201761919
 11
89.1868099901
 21
178.6201761919
  0
LINE
  5
3DA
100
AcDbEntity
  8
RUNDUNGEN
100
AcDbLine
 62
7
  6
CONTINUOUS
 10
88.1805943752
 20
178.9819685115
 11
107.4930256049
 21
178.9819685115
  0
LINE
  5
3DB
100
AcDbEntity
  8
RUNDUNGEN
100
AcDbLine
 62
9
  6
CONTINUOUS
 10
87.986499589
 20
179.1819685115
 11
107.6871203911
 21
179.1819685115
  0
LINE
  5
3DC
100
AcDbEntity
  8
RUNDUNGEN
100
AcDbLine
 62
9
  6
CONTINUOUS
 10
107.9868099901
 20
180.1819685115
 11
87.6868099901
 21
180.1819685115
  0
LINE
  5
3DD
100
AcDbEntity
  8
RUNDUNGEN
100
AcDbLine
 62
7
  6
CONTINUOUS
 10
107.7868099901
 20
180.3819685115
 11
87.8868099901
 21
180.3819685115
  0
LINE
  5
3DE
100
AcDbEntity
  8
0
100
AcDbLine
 62
7
  6
CONTINUOUS
 10
106.6369063055
 20
178.5501851305
 11
106.4868099901
 21
178.6201761919
  0
LINE
  5
3DF
100
AcDbEntity
  8
RUNDUNGEN
100
AcDbLine
 62
9
  6
CONTINUOUS
 10
104.6531343718
 20
182.6827906116
 11
104.2698351485
 21
182.88008685
  0
LINE
  5
3E0
100
AcDbEntity
  8
RUNDUNGEN
100
AcDbLine
 62
7
  6
CONTINUOUS
 10
103.8346008733
 20
182.9362611591
 11
103.8428014889
 21
182.930840371
  0
LWPOLYLINE
  5
3E1
100
AcDbEntity
  8
RUNDUNGEN
100
AcDbPolyline
 62
7
  6
CONTINUOUS
 90
26
 70
0
 10
103.8426040543
 20
182.930970906
 10
103.7606736595
 20
182.9882070297
 10
103.6466527661
 20
183.0794782336
 10
103.5331710381
 20
183.1841672788
 10
103.4212559434
 20
183.3013341291
 10
103.3115226501
 20
183.4298840058
 10
103.204398908
 20
183.5686162644
 10
103.100090021
 20
183.7163730718
 10
102.9986477737
 20
183.8721342941
 10
102.8999697215
 20
184.0349974217
 10
102.8039070984
 20
184.2041671932
 10
102.7100984088
 20
184.3791820919
 10
102.6183358276
 20
184.5594883851
 10
102.528272973
 20
184.745022955
 10
102.4396655105
 20
184.9357288857
 10
102.3522990074
 20
185.1318137813
 10
102.2658801379
 20
185.3334408623
 10
102.1800246881
 20
185.5406895594
 10
102.0944196165
 20
185.753765827
 10
102.0089978635
 20
185.9724763309
 10
101.9236890225
 20
186.1969157545
 10
101.8385515378
 20
186.4269016003
 10
101.7535474361
 20
186.6623027627
 10
101.6685681454
 20
186.9030720002
 10
101.5836646517
 20
187.1486535284
 10
101.4983028755
 20
187.4002793118
  0
LINE
  5
3E2
100
AcDbEntity
  8
0
100
AcDbLine
 62
7
  6
CONTINUOUS
 10
100.5008417108
 20
102.4106739978
 11
98.5799548155
 21
100.2773129724
  0
LINE
  5
3E3
100
AcDbEntity
  8
RUNDUNGEN
100
AcDbLine
 62
9
  6
CONTINUOUS
 10
89.4018331274
 20
190.0389716707
 11
89.8686361109
 21
190.0940338206
  0
LINE
  5
3E4
100
AcDbEntity
  8
RUNDUNGEN
100
AcDbLine
 62
9
  6
CONTINUOUS
 10
106.2717951512
 20
190.0389706919
 11
105.8049838699
 21
190.0940338206
  0
LINE
  5
3E5
100
AcDbEntity
  8
BEZUGSACHSEN
100
AcDbLine
 62
9
  6
CONTINUOUS
 10
89.9896980888
 20
197.1740476244
 11
105.6839218914
 21
197.1740476244
  0
LINE
  5
3E6
100
AcDbEntity
  8
RUNDUNGEN
100
AcDbLine
 62
7
  6
CONTINUOUS
 10
106.925216414
 20
194.2683569741
 11
105.9056712311
 21
194.6394410732
  0
LINE
  5
3E7
100
AcDbEntity
  8
BEZUGSACHSEN
100
AcDbLine
 62
9
  6
CONTINUOUS
 10
91.3471970093
 20
206.4233545512
 11
104.3264229709
 21
206.4233545512
  0
LINE
  5
3E8
100
AcDbEntity
  8
BEZUGSACHSEN
100
AcDbLine
 62
7
  6
CONTINUOUS
 10
91.8368099901
 20
206.8219685115
 11
103.8368099901
 21
206.8219685115
  0
LINE
  5
3E9
100
AcDbEntity
  8
0
100
AcDbLine
 62
7
  6
CONTINUOUS
 10
97.83002866
 20
263.6500297272
 11
97.8368099901
 21
263.6520283211
  0
LINE
  5
3EA
100
AcDbEntity
  8
0
100
AcDbLine
 62
7
  6
CONTINUOUS
 10
97.83002866
 20
263.644967032
 11
97.8368099901
 21
263.6469655139
  0
LINE
  5
3EB
100
AcDbEntity
  8
0
100
AcDbLine
 62
7
  6
CONTINUOUS
 10
97.1886818079
 20
263.1796156959
 11
97.1886818079
 21
263.3059480939
  0
LINE
  5
3EC
100
AcDbEntity
  8
0
100
AcDbLine
 62
7
  6
CONTINUOUS
 10
97.2019314064
 20
262.9236730796
 11
97.2019314064
 21
262.9405885376
  0
LINE
  5
3ED
100
AcDbEntity
  8
0
100
AcDbLine
 62
7
  6
CONTINUOUS
 10
97.2019314064
 20
263.3749240921
 11
97.2019314064
 21
263.5076271586
  0
LINE
  5
3EE
100
AcDbEntity
  8
0
100
AcDbLine
 62
7
  6
CONTINUOUS
 10
97.2019314064
 20
263.6754553979
 11
97.2019314064
 21
263.8572881964
  0
LINE
  5
3EF
100
AcDbEntity
  8
0
100
AcDbLine
 62
7
  6
CONTINUOUS
 10
97.4718239008
 20
262.9629826069
 11
97.4718239008
 21
262.9437512704
  0
LINE
  5
3F0
100
AcDbEntity
  8
0
100
AcDbLine
 62
7
  6
CONTINUOUS
 10
97.7867092115
 20
263.5136570352
 11
97.7867092115
 21
263.5086019937
  0
LINE
  5
3F1
100
AcDbEntity
  8
0
100
AcDbLine
 62
7
  6
CONTINUOUS
 10
97.8105410605
 20
262.949214908
 11
97.8105410605
 21
262.9649397255
  0
LINE
  5
3F2
100
AcDbEntity
  8
0
100
AcDbLine
 62
7
  6
CONTINUOUS
 10
97.83002866
 20
263.6500297272
 11
97.83002866
 21
263.644967032
  0
LINE
  5
3F3
100
AcDbEntity
  8
0
100
AcDbLine
 62
7
  6
CONTINUOUS
 10
97.9115947961
 20
263.5095739464
 11
97.9115947961
 21
263.5045190099
  0
LINE
  5
3F4
100
AcDbEntity
  8
0
100
AcDbLine
 62
9
  6
CONTINUOUS
 10
97.9704388454
 20
263.04025152
 11
97.9704388454
 21
263.0352225016
  0
LINE
  5
3F5
100
AcDbEntity
  8
0
100
AcDbLine
 62
7
  6
CONTINUOUS
 10
98.4896388072
 20
263.8277016749
 11
98.4896388072
 21
263.6355525249
  0
LINE
  5
3F6
100
AcDbEntity
  8
0
100
AcDbLine
 62
7
  6
CONTINUOUS
 10
98.4896388072
 20
263.4658487347
 11
98.4896388072
 21
263.3359624671
  0
LINE
  5
3F7
100
AcDbEntity
  8
0
100
AcDbLine
 62
7
  6
CONTINUOUS
 10
98.4896388072
 20
263.1143800404
 11
98.4896388072
 21
262.9914731633
  0
LINE
  5
3F8
100
AcDbEntity
  8
0
100
AcDbLine
 62
7
  6
CONTINUOUS
 10
98.4896388072
 20
263.2738497942
 11
98.4896388072
 21
263.1501785215
  0
ARC
  5
3F9
100
AcDbEntity
  8
0
100
AcDbCircle
 62
7
  6
CONTINUOUS
 10
-657.663445451
 20
375.3541765603
 40
783.1979875062
100
AcDbArc
 50
345.2215610592
 51
345.343535403
  0
ARC
  5
3FA
100
AcDbEntity
  8
0
100
AcDbCircle
 62
7
  6
CONTINUOUS
 10
-237.9895468757
 20
258.2743999946
 40
350.0031939495
100
AcDbArc
 50
346.3327264735
 51
346.6042493612
  0
ARC
  5
3FB
100
AcDbEntity
  8
0
100
AcDbCircle
 62
7
  6
CONTINUOUS
 10
-196.5586294327
 20
245.9711436019
 40
307.4264170566
100
AcDbArc
 50
346.7625688708
 51
347.0711245548
  0
ARC
  5
3FC
100
AcDbEntity
  8
0
100
AcDbCircle
 62
7
  6
CONTINUOUS
 10
-176.4820838776
 20
239.8627287943
 40
286.8267121698
100
AcDbArc
 50
347.0479224764
 51
347.3782459945
  0
ARC
  5
3FD
100
AcDbEntity
  8
0
100
AcDbCircle
 62
7
  6
CONTINUOUS
 10
-153.8930187966
 20
232.3317379671
 40
263.6824651444
100
AcDbArc
 50
347.5699048525
 51
347.722359918
  0
ARC
  5
3FE
100
AcDbEntity
  8
0
100
AcDbCircle
 62
7
  6
CONTINUOUS
 10
-144.3755023874
 20
230.2644424125
 40
253.9430147939
100
AcDbArc
 50
347.7917113656
 51
347.9355039137
  0
ARC
  5
3FF
100
AcDbEntity
  8
0
100
AcDbCircle
 62
7
  6
CONTINUOUS
 10
20.5409797723
 20
108.66922598
 40
104.6662897341
100
AcDbArc
 50
39.7340536451
 51
40.2236686608
  0
ARC
  5
400
100
AcDbEntity
  8
0
100
AcDbCircle
 62
7
  6
CONTINUOUS
 10
96.3618099901
 20
103.481282968
 40
1.6
100
AcDbArc
 50
130.1777695401
 51
222.0
  0
ARC
  5
401
100
AcDbEntity
  8
0
100
AcDbCircle
 62
7
  6
CONTINUOUS
 10
94.3618099901
 20
105.8498268245
 40
1.5
100
AcDbArc
 50
310.1777695401
 51
58.5510186106
  0
ARC
  5
402
100
AcDbEntity
  8
0
100
AcDbCircle
 62
7
  6
CONTINUOUS
 10
95.5618099901
 20
107.8119685115
 40
0.8
100
AcDbArc
 50
180.0
 51
238.5510186106
  0
ARC
  5
403
100
AcDbEntity
  8
RUNDUNGEN
100
AcDbCircle
 62
7
  6
CONTINUOUS
 10
94.8385321969
 20
115.5819685115
 40
0.1
100
AcDbArc
 50
181.9091524402
 51
270.0000000101
  0
ARC
  5
404
100
AcDbEntity
  8
0
100
AcDbCircle
 62
7
  6
CONTINUOUS
 10
0.617276156
 20
142.7632671781
 40
90.0
100
AcDbArc
 50
354.4966864472
 51
12.5368944193
  0
ARC
  5
405
100
AcDbEntity
  8
0
100
AcDbCircle
 62
7
  6
CONTINUOUS
 10
42.2897962568
 20
127.6570420893
 40
76.4293729527
100
AcDbArc
 50
38.825549307
 51
39.4881525984
  0
ARC
  5
406
100
AcDbEntity
  8
0
100
AcDbCircle
 62
7
  6
CONTINUOUS
 10
97.1078380448
 20
142.9600283273
 40
3.9487129715
100
AcDbArc
 50
79.3616038851
 51
79.4886597269
  0
ARC
  5
407
100
AcDbEntity
  8
RUNDUNGEN
100
AcDbCircle
 62
7
  6
CONTINUOUS
 10
91.2762612114
 20
132.9819685115
 40
1.0
100
AcDbArc
 50
183.5763347771
 51
270.0000048828
  0
ARC
  5
408
100
AcDbEntity
  8
RUNDUNGEN
100
AcDbCircle
 62
7
  6
CONTINUOUS
 10
94.4918099901
 20
130.2819685115
 40
0.2
100
AcDbArc
 50
0.0
 51
89.9999999979
  0
ARC
  5
409
100
AcDbEntity
  8
RUNDUNGEN
100
AcDbCircle
 62
7
  6
CONTINUOUS
 10
93.5618099901
 20
130.6819685115
 40
0.2
100
AcDbArc
 50
180.0
 51
270.0
  0
ARC
  5
40A
100
AcDbEntity
  8
0
100
AcDbCircle
 62
7
  6
CONTINUOUS
 10
99.3118099901
 20
103.481282968
 40
1.6
100
AcDbArc
 50
318.0
 51
49.8222304599
  0
ARC
  5
40B
100
AcDbEntity
  8
0
100
AcDbCircle
 62
7
  6
CONTINUOUS
 10
97.8368099901
 20
100.9464435787
 40
1.0
100
AcDbArc
 50
222.0
 51
318.0
  0
ARC
  5
40C
100
AcDbEntity
  8
0
100
AcDbCircle
 62
7
  6
CONTINUOUS
 10
101.3118099901
 20
105.8498268245
 40
1.5
100
AcDbArc
 50
121.4489813894
 51
229.8222304599
  0
ARC
  5
40D
100
AcDbEntity
  8
0
100
AcDbCircle
 62
7
  6
CONTINUOUS
 10
100.1118099901
 20
107.8119685115
 40
0.8
100
AcDbArc
 50
301.4489813894
 51
360.0
  0
ARC
  5
40E
100
AcDbEntity
  8
RUNDUNGEN
100
AcDbCircle
 62
7
  6
CONTINUOUS
 10
100.8350877833
 20
115.5819685115
 40
0.1
100
AcDbArc
 50
269.9999999899
 51
358.0908475598
  0
ARC
  5
40F
100
AcDbEntity
  8
0
100
AcDbCircle
 62
7
  6
CONTINUOUS
 10
195.0563438241
 20
142.7632671781
 40
90.0
100
AcDbArc
 50
167.4631055807
 51
185.5033135528
  0
ARC
  5
410
100
AcDbEntity
  8
0
100
AcDbCircle
 62
7
  6
CONTINUOUS
 10
98.2033382193
 20
147.8237818264
 40
2.070307019
100
AcDbArc
 50
259.8025743697
 51
260.7412616611
  0
ARC
  5
411
100
AcDbEntity
  8
0
100
AcDbCircle
 62
7
  6
CONTINUOUS
 10
98.1300549107
 20
147.4115422767
 40
1.6516054927
100
AcDbArc
 50
259.4697039186
 51
259.7728299772
  0
ARC
  5
412
100
AcDbEntity
  8
RUNDUNGEN
100
AcDbCircle
 62
7
  6
CONTINUOUS
 10
104.3973587687
 20
132.9819685115
 40
1.0
100
AcDbArc
 50
269.9999951172
 51
356.4236652229
  0
ARC
  5
413
100
AcDbEntity
  8
RUNDUNGEN
100
AcDbCircle
 62
7
  6
CONTINUOUS
 10
101.1818099901
 20
130.2819685115
 40
0.2
100
AcDbArc
 50
90.0000000057
 51
180.0
  0
ARC
  5
414
100
AcDbEntity
  8
RUNDUNGEN
100
AcDbCircle
 62
7
  6
CONTINUOUS
 10
102.1118099901
 20
130.6819685115
 40
0.2
100
AcDbArc
 50
270.0000000012
 51
360.0
  0
ARC
  5
415
100
AcDbEntity
  8
0
100
AcDbCircle
 62
7
  6
CONTINUOUS
 10
72.0609088576
 20
153.6568750845
 40
38.9312852432
100
AcDbArc
 50
34.2623579674
 51
35.4918989872
  0
ARC
  5
416
100
AcDbEntity
  8
0
100
AcDbCircle
 62
7
  6
CONTINUOUS
 10
75.1101016932
 20
156.4682823667
 40
35.2414176494
100
AcDbArc
 50
32.8303466017
 51
34.3158890614
  0
ARC
  5
417
100
AcDbEntity
  8
RUNDUNGEN
100
AcDbCircle
 62
7
  6
CONTINUOUS
 10
89.5368099901
 20
176.3819685115
 40
0.8
100
AcDbArc
 50
270.0
 51
90.0
  0
ARC
  5
418
100
AcDbEntity
  8
0
100
AcDbCircle
 62
7
  6
CONTINUOUS
 10
88.6868099901
 20
173.7819685115
 40
0.5
100
AcDbArc
 50
0.0000003948
 51
45.4250513932
  0
ARC
  5
419
100
AcDbEntity
  8
RUNDUNGEN
100
AcDbCircle
 62
7
  6
CONTINUOUS
 10
88.2277776019
 20
171.6819685115
 40
0.3
100
AcDbArc
 50
89.999999949
 51
195.0000000141
  0
ARC
  5
41A
100
AcDbEntity
  8
RUNDUNGEN
100
AcDbCircle
 62
7
  6
CONTINUOUS
 10
87.8868099901
 20
175.3819685115
 40
0.2
100
AcDbArc
 50
90.0
 51
180.0
  0
ARC
  5
41B
100
AcDbEntity
  8
RUNDUNGEN
100
AcDbCircle
 62
7
  6
CONTINUOUS
 10
87.8868099901
 20
177.3819685115
 40
0.2
100
AcDbArc
 50
180.0
 51
270.0
  0
ARC
  5
41C
100
AcDbEntity
  8
RUNDUNGEN
100
AcDbCircle
 62
7
  6
CONTINUOUS
 10
87.8868099901
 20
172.5819685115
 40
0.2
100
AcDbArc
 50
180.0
 51
270.0
  0
ARC
  5
41D
100
AcDbEntity
  8
RUNDUNGEN
100
AcDbCircle
 62
7
  6
CONTINUOUS
 10
88.6177785871
 20
162.3319685115
 40
0.15
100
AcDbArc
 50
89.9999998316
 51
192.5368944572
  0
ARC
  5
41E
100
AcDbEntity
  8
RUNDUNGEN
100
AcDbCircle
 62
7
  6
CONTINUOUS
 10
88.482293796
 20
164.6319685115
 40
0.15
100
AcDbArc
 50
89.999997487
 51
195.0000006749
  0
ARC
  5
41F
100
AcDbEntity
  8
RUNDUNGEN
100
AcDbCircle
 62
7
  6
CONTINUOUS
 10
88.338543796
 20
166.9319685115
 40
0.15
100
AcDbArc
 50
89.9999975271
 51
195.0000006638
  0
ARC
  5
420
100
AcDbEntity
  8
RUNDUNGEN
100
AcDbCircle
 62
7
  6
CONTINUOUS
 10
88.194793796
 20
169.2319685115
 40
0.15
100
AcDbArc
 50
89.9999975659
 51
195.0000006531
  0
ARC
  5
421
100
AcDbEntity
  8
RUNDUNGEN
100
AcDbCircle
 62
7
  6
CONTINUOUS
 10
88.7076093267
 20
162.6319685115
 40
0.15
100
AcDbArc
 50
270.0000001053
 51
14.9999999723
  0
ARC
  5
422
100
AcDbEntity
  8
RUNDUNGEN
100
AcDbCircle
 62
7
  6
CONTINUOUS
 10
88.5638593267
 20
164.9319685115
 40
0.15
100
AcDbArc
 50
270.0000001037
 51
14.9999999728
  0
ARC
  5
423
100
AcDbEntity
  8
RUNDUNGEN
100
AcDbCircle
 62
7
  6
CONTINUOUS
 10
88.4201093267
 20
167.2319685115
 40
0.15
100
AcDbArc
 50
270.000000102
 51
14.9999999732
  0
ARC
  5
424
100
AcDbEntity
  8
RUNDUNGEN
100
AcDbCircle
 62
7
  6
CONTINUOUS
 10
88.3379940845
 20
169.5319685115
 40
0.15
100
AcDbArc
 50
270.0000001003
 51
14.9999999737
  0
ARC
  5
425
100
AcDbEntity
  8
BEZUGSACHSEN
100
AcDbCircle
 62
7
  6
CONTINUOUS
 10
25.988346044
 20
190.2015882045
 40
80.0
100
AcDbArc
 50
5.0
 51
11.6991096893
  0
ARC
  5
426
100
AcDbEntity
  8
RUNDUNGEN
100
AcDbCircle
 62
9
  6
CONTINUOUS
 10
40.9648273707
 20
205.2773304228
 40
56.2201348517
100
AcDbArc
 50
341.8349456295
 51
342.0173842225
  0
ARC
  5
427
100
AcDbEntity
  8
RUNDUNGEN
100
AcDbCircle
 62
9
  6
CONTINUOUS
 10
42.6296562971
 20
204.7112957585
 40
54.3748971615
100
AcDbArc
 50
341.6138340946
 51
341.8575141923
  0
ARC
  5
428
100
AcDbEntity
  8
0
100
AcDbCircle
 62
7
  6
CONTINUOUS
 10
84.0144369453
 20
197.2432679822
 40
28.6369369499
100
AcDbArc
 50
313.7705490506
 51
315.5442248688
  0
ARC
  5
429
100
AcDbEntity
  8
0
100
AcDbCircle
 62
7
  6
CONTINUOUS
 10
97.8368093226
 20
192.678865599
 40
1.9605754742
100
AcDbArc
 50
89.882038896
 51
89.9999804952
  0
ARC
  5
42A
100
AcDbEntity
  8
0
100
AcDbCircle
 62
7
  6
CONTINUOUS
 10
91.3914879189
 20
184.056315353
 40
1.1810156055
100
AcDbArc
 50
294.9107891629
 51
297.7789930528
  0
ARC
  5
42B
100
AcDbEntity
  8
0
100
AcDbCircle
 62
7
  6
CONTINUOUS
 10
91.410631123
 20
184.0148109841
 40
1.1353093696
100
AcDbArc
 50
291.6794522534
 51
294.916830269
  0
ARC
  5
42C
100
AcDbEntity
  8
0
100
AcDbCircle
 62
7
  6
CONTINUOUS
 10
91.4166415734
 20
183.9999089706
 40
1.1192411096
100
AcDbArc
 50
291.4040001258
 51
291.675341742
  0
ARC
  5
42D
100
AcDbEntity
  8
BEZUGSACHSEN
100
AcDbCircle
 62
7
  6
CONTINUOUS
 10
91.8368099901
 20
206.3219685115
 40
0.5
100
AcDbArc
 50
90.0
 51
168.3008903107
  0
ARC
  5
42E
100
AcDbEntity
  8
RUNDUNGEN
100
AcDbCircle
 62
7
  6
CONTINUOUS
 10
87.8868099901
 20
180.1819685115
 40
0.2
100
AcDbArc
 50
90.0
 51
180.0
  0
ARC
  5
42F
100
AcDbEntity
  8
RUNDUNGEN
100
AcDbCircle
 62
7
  6
CONTINUOUS
 10
87.9008428734
 20
180.5819685115
 40
0.2
100
AcDbArc
 50
176.118019379
 51
269.9999999977
  0
ARC
  5
430
100
AcDbEntity
  8
RUNDUNGEN
100
AcDbCircle
 62
7
  6
CONTINUOUS
 10
88.8168120616
 20
194.0804206418
 40
0.1999977278
100
AcDbArc
 50
110.0014172277
 51
176.118736212
  0
ARC
  5
431
100
AcDbEntity
  8
RUNDUNGEN
100
AcDbCircle
 62
7
  6
CONTINUOUS
 10
106.1368099901
 20
176.3819685115
 40
0.8
100
AcDbArc
 50
90.0
 51
270.0
  0
ARC
  5
432
100
AcDbEntity
  8
0
100
AcDbCircle
 62
7
  6
CONTINUOUS
 10
106.9868099901
 20
178.9819685115
 40
0.5
100
AcDbArc
 50
180.0000003948
 51
225.423432466
  0
ARC
  5
433
100
AcDbEntity
  8
RUNDUNGEN
100
AcDbCircle
 62
7
  6
CONTINUOUS
 10
107.4458423782
 20
171.6819685115
 40
0.3
100
AcDbArc
 50
344.9999999859
 51
90.000000051
  0
ARC
  5
434
100
AcDbEntity
  8
RUNDUNGEN
100
AcDbCircle
 62
7
  6
CONTINUOUS
 10
107.7868099901
 20
177.3819685115
 40
0.2
100
AcDbArc
 50
270.0
 51
360.0
  0
ARC
  5
435
100
AcDbEntity
  8
RUNDUNGEN
100
AcDbCircle
 62
7
  6
CONTINUOUS
 10
107.7868099901
 20
175.3819685115
 40
0.2
100
AcDbArc
 50
0.0
 51
90.0
  0
ARC
  5
436
100
AcDbEntity
  8
RUNDUNGEN
100
AcDbCircle
 62
7
  6
CONTINUOUS
 10
107.7868099901
 20
172.5819685115
 40
0.2
100
AcDbArc
 50
270.0
 51
360.0
  0
ARC
  5
437
100
AcDbEntity
  8
RUNDUNGEN
100
AcDbCircle
 62
7
  6
CONTINUOUS
 10
107.0558413931
 20
162.3319685115
 40
0.15
100
AcDbArc
 50
347.4631055428
 51
90.0000001684
  0
ARC
  5
438
100
AcDbEntity
  8
RUNDUNGEN
100
AcDbCircle
 62
7
  6
CONTINUOUS
 10
107.1913261841
 20
164.6319685115
 40
0.15
100
AcDbArc
 50
344.9999993251
 51
90.000002513
  0
ARC
  5
439
100
AcDbEntity
  8
RUNDUNGEN
100
AcDbCircle
 62
7
  6
CONTINUOUS
 10
107.3350761841
 20
166.9319685115
 40
0.15
100
AcDbArc
 50
344.9999993362
 51
90.0000024729
  0
ARC
  5
43A
100
AcDbEntity
  8
RUNDUNGEN
100
AcDbCircle
 62
7
  6
CONTINUOUS
 10
107.4788261841
 20
169.2319685115
 40
0.15
100
AcDbArc
 50
344.9999993469
 51
90.0000024341
  0
ARC
  5
43B
100
AcDbEntity
  8
RUNDUNGEN
100
AcDbCircle
 62
7
  6
CONTINUOUS
 10
106.9660106534
 20
162.6319685115
 40
0.15
100
AcDbArc
 50
165.0000000277
 51
269.9999998947
  0
ARC
  5
43C
100
AcDbEntity
  8
RUNDUNGEN
100
AcDbCircle
 62
7
  6
CONTINUOUS
 10
107.1097606534
 20
164.9319685115
 40
0.15
100
AcDbArc
 50
165.0000000272
 51
269.9999998963
  0
ARC
  5
43D
100
AcDbEntity
  8
RUNDUNGEN
100
AcDbCircle
 62
7
  6
CONTINUOUS
 10
107.2535106534
 20
167.2319685115
 40
0.15
100
AcDbArc
 50
165.0000000268
 51
269.999999898
  0
ARC
  5
43E
100
AcDbEntity
  8
RUNDUNGEN
100
AcDbCircle
 62
7
  6
CONTINUOUS
 10
107.3356258957
 20
169.5319685115
 40
0.15
100
AcDbArc
 50
165.0000000263
 51
269.9999998997
  0
ARC
  5
43F
100
AcDbEntity
  8
BEZUGSACHSEN
100
AcDbCircle
 62
7
  6
CONTINUOUS
 10
169.6852739361
 20
190.2015882045
 40
80.0
100
AcDbArc
 50
168.3008903107
 51
175.0
  0
ARC
  5
440
100
AcDbEntity
  8
RUNDUNGEN
100
AcDbCircle
 62
9
  6
CONTINUOUS
 10
154.6745785617
 20
205.2667029755
 40
56.1843175495
100
AcDbArc
 50
197.9832503186
 51
198.1359448826
  0
ARC
  5
441
100
AcDbEntity
  8
RUNDUNGEN
100
AcDbCircle
 62
9
  6
CONTINUOUS
 10
152.9725653559
 20
204.6891541356
 40
54.3001581444
100
AcDbArc
 50
198.1437416753
 51
198.3778591259
  0
ARC
  5
442
100
AcDbEntity
  8
0
100
AcDbCircle
 62
7
  6
CONTINUOUS
 10
131.1400467898
 20
200.484091563
 40
46.0322929666
100
AcDbArc
 50
210.4044042108
 51
211.5667407059
  0
ARC
  5
443
100
AcDbEntity
  8
0
100
AcDbCircle
 62
7
  6
CONTINUOUS
 10
130.4517894441
 20
199.0039918174
 40
45.2310271527
100
AcDbArc
 50
210.0195733229
 51
211.1978726376
  0
ARC
  5
444
100
AcDbEntity
  8
0
100
AcDbCircle
 62
7
  6
CONTINUOUS
 10
104.2866872671
 20
184.0655219502
 40
1.1912844694
100
AcDbArc
 50
242.2390086753
 51
245.0554498602
  0
ARC
  5
445
100
AcDbEntity
  8
0
100
AcDbCircle
 62
7
  6
CONTINUOUS
 10
104.2654123049
 20
184.0204415142
 40
1.1414368114
100
AcDbArc
 50
245.0694089329
 51
248.3120694969
  0
ARC
  5
446
100
AcDbEntity
  8
0
100
AcDbCircle
 62
7
  6
CONTINUOUS
 10
104.2565429303
 20
183.9987983326
 40
1.1180480811
100
AcDbArc
 50
248.3245354294
 51
248.8178113586
  0
ARC
  5
447
100
AcDbEntity
  8
BEZUGSACHSEN
100
AcDbCircle
 62
7
  6
CONTINUOUS
 10
103.8368099901
 20
206.3219685115
 40
0.5
100
AcDbArc
 50
11.6991096893
 51
90.0
  0
ARC
  5
448
100
AcDbEntity
  8
RUNDUNGEN
100
AcDbCircle
 62
7
  6
CONTINUOUS
 10
107.7868099901
 20
180.1819685115
 40
0.2
100
AcDbArc
 50
0.0
 51
90.0
  0
ARC
  5
449
100
AcDbEntity
  8
RUNDUNGEN
100
AcDbCircle
 62
7
  6
CONTINUOUS
 10
107.7727771067
 20
180.5819685115
 40
0.2
100
AcDbArc
 50
270.0000000023
 51
3.881980621
  0
ARC
  5
44A
100
AcDbEntity
  8
RUNDUNGEN
100
AcDbCircle
 62
7
  6
CONTINUOUS
 10
106.8568079186
 20
194.0804206418
 40
0.1999977278
100
AcDbArc
 50
3.881263788
 51
69.9985827724
  0
ARC
  5
44B
100
AcDbEntity
  8
0
100
AcDbCircle
 62
7
  6
CONTINUOUS
 10
394.1898424494
 20
106.2008455549
 40
309.4362805433
100
AcDbArc
 50
166.7379425836
 51
167.0445259995
  0
ARC
  5
44C
100
AcDbEntity
  8
0
100
AcDbCircle
 62
7
  6
CONTINUOUS
 10
373.8385432769
 20
112.3823099912
 40
288.5524390284
100
AcDbArc
 50
167.0214659024
 51
167.3498495837
  0
ARC
  5
44D
100
AcDbEntity
  8
0
100
AcDbCircle
 62
7
  6
CONTINUOUS
 10
349.9674645571
 20
120.2081129208
 40
264.0927386282
100
AcDbArc
 50
167.5402406283
 51
167.7180540986
  0
ARC
  5
44E
100
AcDbEntity
  8
0
100
AcDbCircle
 62
7
  6
CONTINUOUS
 10
316.5441172159
 20
130.2582311575
 40
229.9281388008
100
AcDbArc
 50
168.4296611697
 51
168.6332178235
  0
ARC
  5
44F
100
AcDbEntity
  8
0
100
AcDbCircle
 62
7
  6
CONTINUOUS
 10
302.1270812331
 20
135.6090540342
 40
215.2304063562
100
AcDbArc
 50
168.8616083764
 51
169.2988135161
  0
ARC
  5
450
100
AcDbEntity
  8
RUNDUNGEN
100
AcDbCircle
 62
9
  6
CONTINUOUS
 10
97.836809998
 20
1103.3619994248
 40
922.7665335281
100
AcDbArc
 50
269.6889236156
 51
270.3110763834
  0
ARC
  5
451
100
AcDbEntity
  8
0
100
AcDbCircle
 62
7
  6
CONTINUOUS
 10
91.267164346
 20
244.8166090731
 40
19.9441450441
100
AcDbArc
 50
70.7881350506
 51
72.6883266536
  0
ARC
  5
452
100
AcDbEntity
  8
0
100
AcDbCircle
 62
7
  6
CONTINUOUS
 10
91.2756893038
 20
244.8348864569
 40
19.919299577
100
AcDbArc
 50
70.7891988857
 51
72.6917363182
  0
ARC
  5
453
100
AcDbEntity
  8
0
100
AcDbCircle
 62
7
  6
CONTINUOUS
 10
93.2523912198
 20
248.2632145389
 40
15.9102494003
100
AcDbArc
 50
73.4415387125
 51
75.6266859519
  0
ARC
  5
454
100
AcDbEntity
  8
0
100
AcDbCircle
 62
7
  6
CONTINUOUS
 10
101.9228696852
 20
249.7684530944
 40
14.472371779
100
AcDbArc
 50
103.7229069132
 51
106.3996251271
  0
ARC
  5
455
100
AcDbEntity
  8
0
100
AcDbCircle
 62
7
  6
CONTINUOUS
 10
101.9187430208
 20
249.7766174129
 40
14.4585176872
100
AcDbArc
 50
103.7194799666
 51
106.3987363115
  0
ARC
  5
456
100
AcDbEntity
  8
0
100
AcDbCircle
 62
7
  6
CONTINUOUS
 10
100.8848735692
 20
251.2560363518
 40
12.6091066394
100
AcDbArc
 50
100.9504908829
 51
103.6390251843
  0
ARC
  5
457
100
AcDbEntity
  8
0
100
AcDbCircle
 62
7
  6
CONTINUOUS
 10
99.7985371112
 20
252.0914732911
 40
11.1003462997
100
AcDbArc
 50
96.7717915757
 51
99.4791334447
  0
ARC
  5
458
100
AcDbEntity
  8
0
100
AcDbCircle
 62
7
  6
CONTINUOUS
 10
99.7961702261
 20
252.0993755203
 40
11.0872018234
100
AcDbArc
 50
96.8417536941
 51
99.4780743663
  0
ARC
  5
459
100
AcDbEntity
  8
0
100
AcDbCircle
 62
7
  6
CONTINUOUS
 10
99.1687647463
 20
253.2415771244
 40
9.7735195712
100
AcDbArc
 50
93.9844838597
 51
94.4807850936
  0
ARC
  5
45A
100
AcDbEntity
  8
0
100
AcDbCircle
 62
7
  6
CONTINUOUS
 10
99.164284532
 20
253.2950115634
 40
9.7198984385
100
AcDbArc
 50
94.4790640325
 51
96.928978133
  0
ARC
  5
45B
100
AcDbEntity
  8
0
100
AcDbCircle
 62
7
  6
CONTINUOUS
 10
97.5792845108
 20
255.2708085263
 40
8.2454579343
100
AcDbArc
 50
88.558501679
 51
92.6230555976
  0
ARC
  5
45C
100
AcDbEntity
  8
0
100
AcDbCircle
 62
7
  6
CONTINUOUS
 10
97.5791167366
 20
255.2715272099
 40
8.2447532221
100
AcDbArc
 50
83.6595188486
 51
87.688862736
  0
ARC
  5
45D
100
AcDbEntity
  8
0
100
AcDbCircle
 62
7
  6
CONTINUOUS
 10
97.5794588109
 20
255.2708574635
 40
8.2403511862
100
AcDbArc
 50
88.5588204635
 51
92.6258955019
  0
ARC
  5
45E
100
AcDbEntity
  8
0
100
AcDbCircle
 62
7
  6
CONTINUOUS
 10
97.5792907359
 20
255.2715757091
 40
8.239646921
100
AcDbArc
 50
83.6567907585
 51
87.6886406112
  0
ARC
  5
45F
100
AcDbEntity
  8
0
100
AcDbCircle
 62
7
  6
CONTINUOUS
 10
97.6013656153
 20
255.2727929726
 40
8.1119711763
100
AcDbArc
 50
88.3367959003
 51
92.8223907743
  0
ARC
  5
460
100
AcDbEntity
  8
0
100
AcDbCircle
 62
7
  6
CONTINUOUS
 10
97.6011258125
 20
255.2731422526
 40
8.1116290074
100
AcDbArc
 50
83.7114483543
 51
88.3350311818
  0
ARC
  5
461
100
AcDbEntity
  8
0
100
AcDbCircle
 62
7
  6
CONTINUOUS
 10
97.6414947645
 20
255.2835361268
 40
8.0352013553
100
AcDbArc
 50
83.9409400228
 51
93.2322642853
  0
ARC
  5
462
100
AcDbEntity
  8
0
100
AcDbCircle
 62
7
  6
CONTINUOUS
 10
97.6416289369
 20
255.2835686512
 40
8.0301233067
100
AcDbArc
 50
83.9380567823
 51
93.2352732393
  0
ARC
  5
463
100
AcDbEntity
  8
0
100
AcDbCircle
 62
7
  6
CONTINUOUS
 10
97.6607318162
 20
255.2851486524
 40
7.9085891056
100
AcDbArc
 50
83.9837234577
 51
93.4237574206
  0
CIRCLE
  5
464
100
AcDbEntity
  8
RUNDUNGEN
100
AcDbCircle
 62
7
  6
CONTINUOUS
 10
97.8368099901
 20
255.3159263989
 40
10.15
  0
CIRCLE
  5
465
100
AcDbEntity
  8
RUNDUNGEN
100
AcDbCircle
 62
9
  6
CONTINUOUS
 10
97.8368099901
 20
255.3159263989
 40
9.9499998547
  0
CIRCLE
  5
466
100
AcDbEntity
  8
RUNDUNGEN
100
AcDbCircle
 62
7
  6
CONTINUOUS
 10
97.8368099901
 20
255.3159263989
 40
9.9090323881
  0
CIRCLE
  5
467
100
AcDbEntity
  8
RUNDUNGEN
100
AcDbCircle
 62
9
  6
CONTINUOUS
 10
97.8368099901
 20
255.3159263989
 40
9.8988101369
  0
CIRCLE
  5
468
100
AcDbEntity
  8
RUNDUNGEN
100
AcDbCircle
 62
7
  6
CONTINUOUS
 10
97.8368099901
 20
255.3159263989
 40
9.7920161941
  0
CIRCLE
  5
469
100
AcDbEntity
  8
RUNDUNGEN
100
AcDbCircle
 62
9
  6
CONTINUOUS
 10
97.8368099901
 20
255.3159263989
 40
9.7869050682
  0
CIRCLE
  5
46A
100
AcDbEntity
  8
RUNDUNGEN
100
AcDbCircle
 62
7
  6
CONTINUOUS
 10
97.8368099901
 20
255.3159263989
 40
9.6482661941
  0
CIRCLE
  5
46B
100
AcDbEntity
  8
RUNDUNGEN
100
AcDbCircle
 62
9
  6
CONTINUOUS
 10
97.8368099901
 20
255.3159263989
 40
9.6431550682
  0
CIRCLE
  5
46C
100
AcDbEntity
  8
RUNDUNGEN
100
AcDbCircle
 62
7
  6
CONTINUOUS
 10
97.8368099901
 20
255.3159263989
 40
9.5045161941
  0
CIRCLE
  5
46D
100
AcDbEntity
  8
RUNDUNGEN
100
AcDbCircle
 62
9
  6
CONTINUOUS
 10
97.8368099901
 20
255.3159263989
 40
9.4994050681
  0
CIRCLE
  5
46E
100
AcDbEntity
  8
RUNDUNGEN
100
AcDbCircle
 62
7
  6
CONTINUOUS
 10
97.8368099901
 20
255.3159263989
 40
9.369031403
  0
CIRCLE
  5
46F
100
AcDbEntity
  8
RUNDUNGEN
100
AcDbCircle
 62
9
  6
CONTINUOUS
 10
97.8368099901
 20
255.3159263989
 40
9.3654548681
  0
CIRCLE
  5
470
100
AcDbEntity
  8
0
100
AcDbCircle
 62
7
  6
CONTINUOUS
 10
97.8368099901
 20
255.3159263989
 40
7.634375
  0
CIRCLE
  5
471
100
AcDbEntity
  8
RUNDUNGEN
100
AcDbCircle
 62
9
  6
CONTINUOUS
 10
97.8368099901
 20
255.3159263989
 40
7.5586013567
  0
CIRCLE
  5
472
100
AcDbEntity
  8
RUNDUNGEN
100
AcDbCircle
 62
9
  6
CONTINUOUS
 10
97.8368099901
 20
255.3159263989
 40
6.5605486993
  0
CIRCLE
  5
473
100
AcDbEntity
  8
0
100
AcDbCircle
 62
7
  6
CONTINUOUS
 10
97.8368099901
 20
255.3159263989
 40
4.55
  0
CIRCLE
  5
474
100
AcDbEntity
  8
RUNDUNGEN
100
AcDbCircle
 62
7
  6
CONTINUOUS
 10
97.8368099901
 20
255.3159263989
 40
4.475
  0
CIRCLE
  5
475
100
AcDbEntity
  8
RUNDUNGEN
100
AcDbCircle
 62
9
  6
CONTINUOUS
 10
97.8368099901
 20
255.3159263989
 40
4.2749998858
  0
CIRCLE
  5
476
100
AcDbEntity
  8
RUNDUNGEN
100
AcDbCircle
 62
9
  6
CONTINUOUS
 10
97.8368099901
 20
255.3159263989
 40
3.3449997575
  0
CIRCLE
  5
477
100
AcDbEntity
  8
0
100
AcDbCircle
 62
7
  6
CONTINUOUS
 10
97.8368099901
 20
255.3159263989
 40
3.145
  0
CIRCLE
  5
478
100
AcDbEntity
  8
0
100
AcDbCircle
 62
7
  6
CONTINUOUS
 10
97.8368099901
 20
255.3159263989
 40
3.075
  0
CIRCLE
  5
479
100
AcDbEntity
  8
0
100
AcDbCircle
 62
9
  6
CONTINUOUS
 10
97.8368099901
 20
255.3159263989
 40
2.6640317208
  0
CIRCLE
  5
47A
100
AcDbEntity
  8
0
100
AcDbCircle
 62
9
  6
CONTINUOUS
 10
97.8368099901
 20
255.3159263989
 40
0.7431448255
  0
ARC
  5
47B
100
AcDbEntity
  8
0
100
AcDbCircle
 62
7
  6
CONTINUOUS
 10
97.7615891784
 20
262.959474828
 40
0.0512681014
100
AcDbArc
 50
41.3479505295
 51
46.821297946
  0
LINE
  5
47C
100
AcDbEntity
  8
0
100
AcDbLine
 62
7
  6
CONTINUOUS
 10
94.785053873
 20
177.1871452243
 11
94.6863098247
 21
176.8001186767
  0
LINE
  5
47D
100
AcDbEntity
  8
0
100
AcDbLine
 62
7
  6
CONTINUOUS
 10
94.4734606333
 20
175.9613804723
 11
94.3758388957
 21
175.5745346093
  0
LINE
  5
47E
100
AcDbEntity
  8
0
100
AcDbLine
 62
7
  6
CONTINUOUS
 10
93.3612527235
 20
176.1872363007
 11
93.3070156276
 21
175.9613804723
  0
LINE
  5
47F
100
AcDbEntity
  8
0
100
AcDbLine
 62
7
  6
CONTINUOUS
 10
94.3458762175
 20
176.5742628483
 11
94.2486832312
 21
176.1872363007
  0
LINE
  5
480
100
AcDbEntity
  8
0
100
AcDbLine
 62
7
  6
CONTINUOUS
 10
93.509226602
 20
176.8001186767
 11
93.4545622605
 21
176.5742628483
  0
SPLINE
  5
481
100
AcDbEntity
  8
0
100
AcDbSpline
 62
7
  6
CONTINUOUS
 70
0
 71
3
 72
10
 73
6
 74
0
 42
0.0000001
 43
0.0000001
 44
0.0000000001
 40
0.0
 40
0.0
 40
0.0
 40
0.0
 40
0.3333045281
 40
0.6666384938
 40
1.0
 40
1.0
 40
1.0
 40
1.0
 10
96.4035915096
 20
176.200608412
 30
0.0
 10
96.4326693544
 20
176.3102267216
 30
0.0
 10
96.4908612536
 20
176.5294640999
 30
0.0
 10
96.5782475431
 20
176.8583088984
 30
0.0
 10
96.6365666439
 20
177.0775325347
 30
0.0
 10
96.6657411345
 20
177.1871452243
 30
0.0
  0
SPLINE
  5
482
100
AcDbEntity
  8
0
100
AcDbSpline
 62
7
  6
CONTINUOUS
 70
0
 71
3
 72
11
 73
7
 74
0
 42
0.0000001
 43
0.0000001
 44
0.0000000001
 40
0.0
 40
0.0
 40
0.0
 40
0.0
 40
0.2589220918
 40
0.5012566642
 40
0.7446759845
 40
1.0
 40
1.0
 40
1.0
 40
1.0
 10
96.0959038957
 20
175.9615611569
 30
0.0
 10
96.1318775278
 20
175.9626274192
 30
0.0
 10
96.2022374495
 20
175.9733748631
 30
0.0
 10
96.2938781254
 20
176.025361926
 30
0.0
 10
96.3656975857
 20
176.1015774827
 30
0.0
 10
96.3937627971
 20
176.1665072769
 30
0.0
 10
96.4035915096
 20
176.200608412
 30
0.0
  0
SPLINE
  5
483
100
AcDbEntity
  8
0
100
AcDbSpline
 62
7
  6
CONTINUOUS
 70
0
 71
3
 72
14
 73
10
 74
0
 42
0.0000001
 43
0.0000001
 44
0.0000000001
 40
0.0
 40
0.0
 40
0.0
 40
0.0
 40
0.1304250233
 40
0.2528623488
 40
0.4890926645
 40
0.7268566964
 40
0.850163403
 40
0.9809554598
 40
1.0
 40
1.0
 40
1.0
 40
1.0
 10
95.5831504886
 20
176.2863587497
 30
0.0
 10
95.5784196283
 20
176.2662615565
 30
0.0
 10
95.5724839807
 20
176.2263095056
 30
0.0
 10
95.5791648397
 20
176.1485824388
 30
0.0
 10
95.6185879015
 20
176.0593456575
 30
0.0
 10
95.6923872501
 20
175.9948971228
 30
0.0
 10
95.7657390431
 20
175.9667504468
 30
0.0
 10
95.8091384559
 20
175.9617406225
 30
0.0
 10
95.8328361759
 20
175.9614468205
 30
0.0
 10
95.8358441478
 20
175.9614468205
 30
0.0
  0
SPLINE
  5
484
100
AcDbEntity
  8
0
100
AcDbSpline
 62
7
  6
CONTINUOUS
 70
0
 71
3
 72
10
 73
6
 74
0
 42
0.0000001
 43
0.0000001
 44
0.0000000001
 40
0.0
 40
0.0
 40
0.0
 40
0.0
 40
0.3333755384
 40
0.6667093825
 40
1.0
 40
1.0
 40
1.0
 40
1.0
 10
95.819105678
 20
177.1871452243
 30
0.0
 10
95.7928234884
 20
177.0870613225
 30
0.0
 10
95.7403019232
 20
176.8868956533
 30
0.0
 10
95.6616478699
 20
176.5866340766
 30
0.0
 10
95.6093004213
 20
176.3864500457
 30
0.0
 10
95.5831504886
 20
176.2863587497
 30
0.0
  0
SPLINE
  5
485
100
AcDbEntity
  8
0
100
AcDbSpline
 62
7
  6
CONTINUOUS
 70
0
 71
3
 72
10
 73
6
 74
0
 42
0.0000001
 43
0.0000001
 44
0.0000000001
 40
0.0
 40
0.0
 40
0.0
 40
0.0
 40
0.3332844234
 40
0.6666181468
 40
1.0
 40
1.0
 40
1.0
 40
1.0
 10
94.9630984962
 20
176.3865285911
 30
0.0
 10
94.9859602313
 20
176.4754897517
 30
0.0
 10
95.0317316911
 20
176.6534137718
 30
0.0
 10
95.1005244509
 20
176.920285599
 30
0.0
 10
95.1464745467
 20
177.0981913005
 30
0.0
 10
95.1694719341
 20
177.1871452243
 30
0.0
  0
SPLINE
  5
486
100
AcDbEntity
  8
0
100
AcDbSpline
 62
7
  6
CONTINUOUS
 70
0
 71
3
 72
14
 73
10
 74
0
 42
0.0000001
 43
0.0000001
 44
0.0000000001
 40
0.0
 40
0.0
 40
0.0
 40
0.0
 40
0.0128070822
 40
0.137352987
 40
0.2586887799
 40
0.5013537781
 40
0.7474038438
 40
0.8720399405
 40
1.0
 40
1.0
 40
1.0
 40
1.0
 10
95.5807402853
 20
175.5745346093
 30
0.0
 10
95.575732744
 20
175.5744817516
 30
0.0
 10
95.5219833937
 20
175.5744784685
 30
0.0
 10
95.4202526694
 20
175.5860553963
 30
0.0
 10
95.2396423819
 20
175.6536196007
 30
0.0
 10
95.0512337245
 20
175.8148974862
 30
0.0
 10
94.9529265193
 20
176.0432237587
 30
0.0
 10
94.9367051088
 20
176.2390777198
 30
0.0
 10
94.9511243365
 20
176.3378810308
 30
0.0
 10
94.9630984962
 20
176.3865285911
 30
0.0
  0
SPLINE
  5
487
100
AcDbEntity
  8
0
100
AcDbSpline
 62
7
  6
CONTINUOUS
 70
0
 71
3
 72
11
 73
7
 74
0
 42
0.0000001
 43
0.0000001
 44
0.0000000001
 40
0.0
 40
0.0
 40
0.0
 40
0.0
 40
0.2528641374
 40
0.501148136
 40
0.7490338729
 40
1.0
 40
1.0
 40
1.0
 40
1.0
 10
97.0597209884
 20
176.1721527471
 30
0.0
 10
97.0360890066
 20
176.0872123262
 30
0.0
 10
96.9639852568
 20
175.9240522257
 30
0.0
 10
96.7814946456
 20
175.7309755047
 30
0.0
 10
96.5491592663
 20
175.6034345386
 30
0.0
 10
96.3737242898
 20
175.5754368982
 30
0.0
 10
96.2862241453
 20
175.5745346093
 30
0.0
  0
LINE
  5
488
100
AcDbEntity
  8
0
100
AcDbLine
 62
7
  6
CONTINUOUS
 10
97.3311356597
 20
177.1871452243
 11
97.0597209884
 21
176.1721527471
  0
LINE
  5
489
100
AcDbEntity
  8
0
100
AcDbLine
 62
7
  6
CONTINUOUS
 10
97.6279169056
 20
176.8001186767
 11
97.7316074909
 21
177.1871452243
  0
LINE
  5
48A
100
AcDbEntity
  8
0
100
AcDbLine
 62
7
  6
CONTINUOUS
 10
97.9767999149
 20
175.5745346093
 11
98.3050323922
 21
176.8001186767
  0
SPLINE
  5
48B
100
AcDbEntity
  8
0
100
AcDbSpline
 62
7
  6
CONTINUOUS
 70
0
 71
3
 72
10
 73
6
 74
0
 42
0.0000001
 43
0.0000001
 44
0.0000000001
 40
0.0
 40
0.0
 40
0.0
 40
0.0
 40
0.3333064311
 40
0.6666407487
 40
1.0
 40
1.0
 40
1.0
 40
1.0
 10
98.9706262132
 20
176.8001186767
 30
0.0
 10
98.9343653078
 20
176.6639388259
 30
0.0
 10
98.8617994099
 20
176.3915786603
 30
0.0
 10
98.7528350254
 20
175.9830522032
 30
0.0
 10
98.6801228654
 20
175.7107079354
 30
0.0
 10
98.6437508251
 20
175.5745346093
 30
0.0
  0
LINE
  5
48C
100
AcDbEntity
  8
0
100
AcDbLine
 62
7
  6
CONTINUOUS
 10
99.6568411284
 20
177.1871452243
 11
99.5547252833
 21
176.8001186767
  0
LINE
  5
48D
100
AcDbEntity
  8
0
100
AcDbLine
 62
7
  6
CONTINUOUS
 10
100.456761579
 20
176.2599059953
 11
100.2789210841
 21
175.5745346093
  0
SPLINE
  5
48E
100
AcDbEntity
  8
0
100
AcDbSpline
 62
7
  6
CONTINUOUS
 70
0
 71
3
 72
21
 73
17
 74
0
 42
0.0000001
 43
0.0000001
 44
0.0000000001
 40
0.0
 40
0.0
 40
0.0
 40
0.0
 40
0.045352698
 40
0.0888827183
 40
0.1324476025
 40
0.1763143207
 40
0.2214765145
 40
0.2694150471
 40
0.3216555814
 40
0.3787093828
 40
0.5049818668
 40
0.6469992608
 40
0.7254327575
 40
0.8122027096
 40
0.9043801043
 40
1.0
 40
1.0
 40
1.0
 40
1.0
 10
101.5888507441
 20
177.1871452243
 30
0.0
 10
101.6101124372
 20
177.1893443587
 30
0.0
 10
101.6524417562
 20
177.189731497
 30
0.0
 10
101.7136065241
 20
177.1742423385
 30
0.0
 10
101.768548287
 20
177.1450561226
 30
0.0
 10
101.8169689531
 20
177.1048112267
 30
0.0
 10
101.8562118381
 20
177.0527674222
 30
0.0
 10
101.8832660818
 20
176.9890917393
 30
0.0
 10
101.8954984586
 20
176.9153922269
 30
0.0
 10
101.8923659096
 20
176.8039501216
 30
0.0
 10
101.8427827566
 20
176.653687865
 30
0.0
 10
101.7284530575
 20
176.5312558234
 30
0.0
 10
101.609632208
 20
176.4483794367
 30
0.0
 10
101.5032948303
 20
176.3897205627
 30
0.0
 10
101.3899544804
 20
176.3273411977
 30
0.0
 10
101.3136304324
 20
176.2824890242
 30
0.0
 10
101.2746304948
 20
176.2599059953
 30
0.0
  0
SPLINE
  5
48F
100
AcDbEntity
  8
0
100
AcDbSpline
 62
7
  6
CONTINUOUS
 70
0
 71
3
 72
9
 73
5
 74
0
 42
0.0000001
 43
0.0000001
 44
0.0000000001
 40
0.0
 40
0.0
 40
0.0
 40
0.0
 40
0.245593527
 40
1.0
 40
1.0
 40
1.0
 40
1.0
 10
105.0338625194
 20
177.1871452243
 30
0.0
 10
104.9688248176
 20
177.1157647571
 30
0.0
 10
104.7020230983
 20
176.8269291946
 30
0.0
 10
104.4277291254
 20
176.5450475261
 30
0.0
 10
104.2174682358
 20
176.3358119286
 30
0.0
  0
LINE
  5
490
100
AcDbEntity
  8
0
100
AcDbLine
 62
7
  6
CONTINUOUS
 10
100.6295843749
 20
176.9291275259
 11
100.5297397155
 21
176.5421009783
  0
SPLINE
  5
491
100
AcDbEntity
  8
0
100
AcDbSpline
 62
7
  6
CONTINUOUS
 70
0
 71
3
 72
18
 73
14
 74
0
 42
0.0000001
 43
0.0000001
 44
0.0000000001
 40
0.0
 40
0.0
 40
0.0
 40
0.0
 40
0.1602185988
 40
0.303079754
 40
0.3688524454
 40
0.4341602423
 40
0.569507201
 40
0.700811617
 40
0.817195741
 40
0.8692025378
 40
0.916988457
 40
0.9597439875
 40
1.0
 40
1.0
 40
1.0
 40
1.0
 10
100.992950298
 20
176.5421009783
 30
0.0
 10
101.024204278
 20
176.5452495788
 30
0.0
 10
101.0828629893
 20
176.5541651423
 30
0.0
 10
101.1536525531
 20
176.5728309182
 30
0.0
 10
101.1998952743
 20
176.6010391175
 30
0.0
 10
101.2372639273
 20
176.6382188641
 30
0.0
 10
101.2682839756
 20
176.6963579769
 30
0.0
 10
101.2951135998
 20
176.766825012
 30
0.0
 10
101.2988778863
 20
176.8268638621
 30
0.0
 10
101.2895506154
 20
176.8683824942
 30
0.0
 10
101.2791414539
 20
176.8944992064
 30
0.0
 10
101.2640462766
 20
176.9156564896
 30
0.0
 10
101.2506557653
 20
176.9254438627
 30
0.0
 10
101.2436756112
 20
176.9291275259
 30
0.0
  0
SPLINE
  5
492
100
AcDbEntity
  8
0
100
AcDbSpline
 62
7
  6
CONTINUOUS
 70
0
 71
3
 72
23
 73
19
 74
0
 42
0.0000001
 43
0.0000001
 44
0.0000000001
 40
0.0
 40
0.0
 40
0.0
 40
0.0
 40
0.0256027713
 40
0.0413390536
 40
0.0598964941
 40
0.1065218937
 40
0.1662225221
 40
0.2378851809
 40
0.3193968789
 40
0.5000042999
 40
0.6806094156
 40
0.7621204814
 40
0.8337827397
 40
0.89348152
 40
0.9401049432
 40
0.9586614291
 40
0.9743973048
 40
1.0
 40
1.0
 40
1.0
 40
1.0
 10
106.5368459095
 20
178.1819685115
 30
0.0
 10
106.5441886804
 20
178.1819685115
 30
0.0
 10
106.5560563722
 20
178.1869095311
 30
0.0
 10
106.5683598767
 20
178.198904824
 30
0.0
 10
106.5820088637
 20
178.2178270023
 30
0.0
 10
106.5967434271
 20
178.2507585665
 30
0.0
 10
106.6110403694
 20
178.2998269849
 30
0.0
 10
106.6225912727
 20
178.359853961
 30
0.0
 10
106.6342914639
 20
178.4549112278
 30
0.0
 10
106.6395640639
 20
178.5819715604
 30
0.0
 10
106.6342910633
 20
178.7090317242
 30
0.0
 10
106.6225903735
 20
178.804087942
 30
0.0
 10
106.6110396347
 20
178.8641141413
 30
0.0
 10
106.5967421704
 20
178.9131811117
 30
0.0
 10
106.5820082419
 20
178.9461114726
 30
0.0
 10
106.5683594846
 20
178.9650326341
 30
0.0
 10
106.556056212
 20
178.9770275552
 30
0.0
 10
106.5441886585
 20
178.9819685115
 30
0.0
 10
106.5368459095
 20
178.9819685115
 30
0.0
  0
SPLINE
  5
493
100
AcDbEntity
  8
0
100
AcDbSpline
 62
7
  6
CONTINUOUS
 70
0
 71
3
 72
23
 73
19
 74
0
 42
0.0000001
 43
0.0000001
 44
0.0000000001
 40
0.0
 40
0.0
 40
0.0
 40
0.0
 40
0.0256026952
 40
0.0413385709
 40
0.0598950568
 40
0.10651848
 40
0.1662172603
 40
0.2378795186
 40
0.3193905844
 40
0.4999957001
 40
0.6806031211
 40
0.7621148191
 40
0.8337774779
 40
0.8934781063
 40
0.9401035059
 40
0.9586609464
 40
0.9743972287
 40
1.0
 40
1.0
 40
1.0
 40
1.0
 10
89.1367740706
 20
178.9819685115
 30
0.0
 10
89.1294313216
 20
178.9819685115
 30
0.0
 10
89.1175637681
 20
178.9770275552
 30
0.0
 10
89.1052604956
 20
178.9650326341
 30
0.0
 10
89.0916117382
 20
178.9461114726
 30
0.0
 10
89.0768778097
 20
178.9131811117
 30
0.0
 10
89.0625803454
 20
178.8641141413
 30
0.0
 10
89.0510296066
 20
178.804087942
 30
0.0
 10
89.0393289168
 20
178.7090317242
 30
0.0
 10
89.0340559163
 20
178.5819715604
 30
0.0
 10
89.0393285162
 20
178.4549112278
 30
0.0
 10
89.0510287074
 20
178.359853961
 30
0.0
 10
89.0625796107
 20
178.2998269849
 30
0.0
 10
89.0768765531
 20
178.2507585665
 30
0.0
 10
89.0916111165
 20
178.2178270023
 30
0.0
 10
89.1052601034
 20
178.198904824
 30
0.0
 10
89.1175636079
 20
178.1869095311
 30
0.0
 10
89.1294312998
 20
178.1819685115
 30
0.0
 10
89.1367740706
 20
178.1819685115
 30
0.0
  0
SPLINE
  5
494
100
AcDbEntity
  8
0
100
AcDbSpline
 62
7
  6
CONTINUOUS
 70
0
 71
3
 72
23
 73
19
 74
0
 42
0.0000001
 43
0.0000001
 44
0.0000000001
 40
0.0
 40
0.0
 40
0.0
 40
0.0
 40
0.0256027713
 40
0.0413390536
 40
0.0598964941
 40
0.1065218937
 40
0.1662225221
 40
0.2378851809
 40
0.3193968789
 40
0.5000042999
 40
0.6806094156
 40
0.7621204814
 40
0.8337827397
 40
0.89348152
 40
0.9401049432
 40
0.9586614291
 40
0.9743973048
 40
1.0
 40
1.0
 40
1.0
 40
1.0
 10
106.5368459095
 20
173.7819685115
 30
0.0
 10
106.5441886804
 20
173.7819685115
 30
0.0
 10
106.5560563722
 20
173.7869095311
 30
0.0
 10
106.5683598767
 20
173.798904824
 30
0.0
 10
106.5820088637
 20
173.8178270023
 30
0.0
 10
106.5967434271
 20
173.8507585665
 30
0.0
 10
106.6110403694
 20
173.8998269849
 30
0.0
 10
106.6225912727
 20
173.959853961
 30
0.0
 10
106.6342914639
 20
174.0549112278
 30
0.0
 10
106.6395640639
 20
174.1819715604
 30
0.0
 10
106.6342910633
 20
174.3090317242
 30
0.0
 10
106.6225903735
 20
174.404087942
 30
0.0
 10
106.6110396347
 20
174.4641141413
 30
0.0
 10
106.5967421704
 20
174.5131811117
 30
0.0
 10
106.5820082419
 20
174.5461114726
 30
0.0
 10
106.5683594846
 20
174.5650326341
 30
0.0
 10
106.556056212
 20
174.5770275552
 30
0.0
 10
106.5441886585
 20
174.5819685115
 30
0.0
 10
106.5368459095
 20
174.5819685115
 30
0.0
  0
SPLINE
  5
495
100
AcDbEntity
  8
0
100
AcDbSpline
 62
7
  6
CONTINUOUS
 70
0
 71
3
 72
23
 73
19
 74
0
 42
0.0000001
 43
0.0000001
 44
0.0000000001
 40
0.0
 40
0.0
 40
0.0
 40
0.0
 40
0.0256026952
 40
0.0413385709
 40
0.0598950568
 40
0.10651848
 40
0.1662172603
 40
0.2378795186
 40
0.3193905844
 40
0.4999957001
 40
0.6806031211
 40
0.7621148191
 40
0.8337774779
 40
0.8934781063
 40
0.9401035059
 40
0.9586609464
 40
0.9743972287
 40
1.0
 40
1.0
 40
1.0
 40
1.0
 10
89.1367740706
 20
174.5819685115
 30
0.0
 10
89.1294313216
 20
174.5819685115
 30
0.0
 10
89.1175637681
 20
174.5770275552
 30
0.0
 10
89.1052604956
 20
174.5650326341
 30
0.0
 10
89.0916117382
 20
174.5461114726
 30
0.0
 10
89.0768778097
 20
174.5131811117
 30
0.0
 10
89.0625803454
 20
174.4641141413
 30
0.0
 10
89.0510296066
 20
174.404087942
 30
0.0
 10
89.0393289168
 20
174.3090317242
 30
0.0
 10
89.0340559163
 20
174.1819715604
 30
0.0
 10
89.0393285162
 20
174.0549112278
 30
0.0
 10
89.0510287074
 20
173.959853961
 30
0.0
 10
89.0625796107
 20
173.8998269849
 30
0.0
 10
89.0768765531
 20
173.8507585665
 30
0.0
 10
89.0916111165
 20
173.8178270023
 30
0.0
 10
89.1052601034
 20
173.798904824
 30
0.0
 10
89.1175636079
 20
173.7869095311
 30
0.0
 10
89.1294312998
 20
173.7819685115
 30
0.0
 10
89.1367740706
 20
173.7819685115
 30
0.0
  0
SPLINE
  5
496
100
AcDbEntity
  8
RUNDUNGEN
100
AcDbSpline
 62
9
  6
CONTINUOUS
 70
0
 71
3
 72
27
 73
23
 74
0
 42
0.0000001
 43
0.0000001
 44
0.0000000001
 40
0.0
 40
0.0
 40
0.0
 40
0.0
 40
0.0114157666
 40
0.0240493408
 40
0.0389955848
 40
0.0569096815
 40
0.1026970279
 40
0.1621181131
 40
0.234098153
 40
0.3164805357
 40
0.4062996765
 40
0.5000011787
 40
0.5937026965
 40
0.6835217508
 40
0.7659041787
 40
0.8378839678
 40
0.8973044468
 40
0.9430930618
 40
0.9610069495
 40
0.9759519297
 40
0.9885849957
 40
1.0
 40
1.0
 40
1.0
 40
1.0
 10
107.6871203911
 20
174.7819685115
 30
0.0
 10
107.6919784037
 20
174.7819705018
 30
0.0
 10
107.7022962802
 20
174.7798969656
 30
0.0
 10
107.7165855183
 20
174.7709708109
 30
0.0
 10
107.7299282238
 20
174.7567375852
 30
0.0
 10
107.7480824369
 20
174.7284747657
 30
0.0
 10
107.7674355048
 20
174.6793836286
 30
0.0
 10
107.7859120562
 20
174.6062170031
 30
0.0
 10
107.8006568519
 20
174.5163452022
 30
0.0
 10
107.8113916888
 20
174.4129519611
 30
0.0
 10
107.8178977489
 20
174.2999478494
 30
0.0
 10
107.8200764285
 20
174.1819682466
 30
0.0
 10
107.8178977386
 20
174.0639886829
 30
0.0
 10
107.811391603
 20
173.9509845778
 30
0.0
 10
107.8006567212
 20
173.8475914935
 30
0.0
 10
107.7859122599
 20
173.7577199248
 30
0.0
 10
107.7674343528
 20
173.6845535235
 30
0.0
 10
107.7480827572
 20
173.6354617009
 30
0.0
 10
107.7299288887
 20
173.6071986034
 30
0.0
 10
107.7165840413
 20
173.592968059
 30
0.0
 10
107.7022936405
 20
173.5840464559
 30
0.0
 10
107.6919780794
 20
173.5819701424
 30
0.0
 10
107.6871203911
 20
173.5819685115
 30
0.0
  0
SPLINE
  5
497
100
AcDbEntity
  8
RUNDUNGEN
100
AcDbSpline
 62
9
  6
CONTINUOUS
 70
0
 71
3
 72
23
 73
19
 74
0
 42
0.0000001
 43
0.0000001
 44
0.0000000001
 40
0.0
 40
0.0
 40
0.0
 40
0.0
 40
0.0317406656
 40
0.0690042063
 40
0.1161741216
 40
0.1748518496
 40
0.2446914217
 40
0.3240171814
 40
0.4102081702
 40
0.4999992085
 40
0.5897902098
 40
0.6759811702
 40
0.7553068556
 40
0.8251463814
 40
0.8838238414
 40
0.9309934408
 40
0.9682584689
 40
1.0
 40
1.0
 40
1.0
 40
1.0
 10
88.1805943752
 20
173.7819685115
 30
0.0
 10
88.1711546423
 20
173.7819696835
 30
0.0
 10
88.1503997552
 20
173.7878220861
 30
0.0
 10
88.1245078584
 20
173.8118912577
 30
0.0
 10
88.1025553789
 20
173.8487134282
 30
0.0
 10
88.0841407046
 20
173.8978102649
 30
0.0
 10
88.0694920927
 20
173.9579639343
 30
0.0
 10
88.0588526136
 20
174.0272136648
 30
0.0
 10
88.0524071334
 20
174.1029163222
 30
0.0
 10
88.0502497726
 20
174.1819686814
 30
0.0
 10
88.0524067513
 20
174.2610210429
 30
0.0
 10
88.0588516344
 20
174.3367236955
 30
0.0
 10
88.0694907996
 20
174.405973482
 30
0.0
 10
88.0841394792
 20
174.4661268966
 30
0.0
 10
88.1025522323
 20
174.5152243773
 30
0.0
 10
88.124507126
 20
174.5520456764
 30
0.0
 10
88.1503981167
 20
174.5761153248
 30
0.0
 10
88.1711543849
 20
174.5819700058
 30
0.0
 10
88.1805943752
 20
174.5819685115
 30
0.0
  0
SPLINE
  5
498
100
AcDbEntity
  8
RUNDUNGEN
100
AcDbSpline
 62
9
  6
CONTINUOUS
 70
0
 71
3
 72
11
 73
7
 74
0
 42
0.0000001
 43
0.0000001
 44
0.0000000001
 40
0.0
 40
0.0
 40
0.0
 40
0.0
 40
0.2704672907
 40
0.5294291224
 40
0.7711868335
 40
1.0
 40
1.0
 40
1.0
 40
1.0
 10
106.3036441609
 20
177.3819685115
 30
0.0
 10
106.3036441609
 20
177.3561074683
 30
0.0
 10
106.2954149704
 20
177.3050685127
 30
0.0
 10
106.2594758899
 20
177.2389416007
 30
0.0
 10
106.2042637117
 20
177.1931676558
 30
0.0
 10
106.158688226
 20
177.1819685115
 30
0.0
 10
106.1368099901
 20
177.1819685115
 30
0.0
  0
SPLINE
  5
499
100
AcDbEntity
  8
RUNDUNGEN
100
AcDbSpline
 62
9
  6
CONTINUOUS
 70
0
 71
3
 72
23
 73
19
 74
0
 42
0.0000001
 43
0.0000001
 44
0.0000000001
 40
0.0
 40
0.0
 40
0.0
 40
0.0
 40
0.0317415288
 40
0.06900656
 40
0.1161761579
 40
0.1748536177
 40
0.2446931431
 40
0.3240188282
 40
0.4102097881
 40
0.5000007892
 40
0.5897918272
 40
0.6759828158
 40
0.7553085756
 40
0.825148148
 40
0.8838258766
 40
0.9309957914
 40
0.9682593294
 40
1.0
 40
1.0
 40
1.0
 40
1.0
 10
107.4930256049
 20
174.5819685115
 30
0.0
 10
107.5024655946
 20
174.5819700061
 30
0.0
 10
107.5232218621
 20
174.5761153233
 30
0.0
 10
107.5491128559
 20
174.5520456788
 30
0.0
 10
107.5710677465
 20
174.5152243766
 30
0.0
 10
107.5894805009
 20
174.4661268976
 30
0.0
 10
107.6041291804
 20
174.405973483
 30
0.0
 10
107.6147683456
 20
174.3367236969
 30
0.0
 10
107.6212132287
 20
174.2610210447
 30
0.0
 10
107.6233702074
 20
174.1819686835
 30
0.0
 10
107.6212128472
 20
174.1029163245
 30
0.0
 10
107.6147673664
 20
174.0272136672
 30
0.0
 10
107.6041278878
 20
173.9579639367
 30
0.0
 10
107.5894792774
 20
173.8978102663
 30
0.0
 10
107.5710645992
 20
173.8487134312
 30
0.0
 10
107.5491121256
 20
173.8118912587
 30
0.0
 10
107.5232202264
 20
173.7878220862
 30
0.0
 10
107.5024653394
 20
173.7819696875
 30
0.0
 10
107.4930256049
 20
173.7819685115
 30
0.0
  0
SPLINE
  5
49A
100
AcDbEntity
  8
RUNDUNGEN
100
AcDbSpline
 62
9
  6
CONTINUOUS
 70
0
 71
3
 72
11
 73
7
 74
0
 42
0.0000001
 43
0.0000001
 44
0.0000000001
 40
0.0
 40
0.0
 40
0.0
 40
0.0
 40
0.2704672647
 40
0.5294291228
 40
0.771186881
 40
1.0
 40
1.0
 40
1.0
 40
1.0
 10
106.3036441609
 20
175.3819685115
 30
0.0
 10
106.3036441437
 20
175.407829549
 30
0.0
 10
106.2954149326
 20
175.4588684917
 30
0.0
 10
106.259475853
 20
175.5249953946
 30
0.0
 10
106.2042636973
 20
175.5707693526
 30
0.0
 10
106.1586882189
 20
175.5819685115
 30
0.0
 10
106.1368099903
 20
175.5819685115
 30
0.0
  0
SPLINE
  5
49B
100
AcDbEntity
  8
RUNDUNGEN
100
AcDbSpline
 62
9
  6
CONTINUOUS
 70
0
 71
3
 72
11
 73
7
 74
0
 42
0.0000001
 43
0.0000001
 44
0.0000000001
 40
0.0
 40
0.0
 40
0.0
 40
0.0
 40
0.2534507415
 40
0.504894005
 40
0.753470586
 40
1.0
 40
1.0
 40
1.0
 40
1.0
 10
87.986499589
 20
174.7819685115
 30
0.0
 10
87.986499589
 20
174.7559852841
 30
0.0
 10
87.9964978961
 20
174.7036813352
 30
0.0
 10
88.0394691262
 20
174.6372246045
 30
0.0
 10
88.1039859934
 20
174.5924883997
 30
0.0
 10
88.1553207075
 20
174.5819685115
 30
0.0
 10
88.1805943752
 20
174.5819685115
 30
0.0
  0
SPLINE
  5
49C
100
AcDbEntity
  8
RUNDUNGEN
100
AcDbSpline
 62
9
  6
CONTINUOUS
 70
0
 71
3
 72
11
 73
7
 74
0
 42
0.0000001
 43
0.0000001
 44
0.0000000001
 40
0.0
 40
0.0
 40
0.0
 40
0.0
 40
0.2534508422
 40
0.504894146
 40
0.7534706584
 40
1.0
 40
1.0
 40
1.0
 40
1.0
 10
87.986499589
 20
173.5819685115
 30
0.0
 10
87.9864995863
 20
173.6079517498
 30
0.0
 10
87.9964978995
 20
173.6602557153
 30
0.0
 10
88.0394691452
 20
173.7267124477
 30
0.0
 10
88.103986014
 20
173.7714486337
 30
0.0
 10
88.1553207146
 20
173.7819685115
 30
0.0
 10
88.1805943754
 20
173.7819685115
 30
0.0
  0
SPLINE
  5
49D
100
AcDbEntity
  8
RUNDUNGEN
100
AcDbSpline
 62
9
  6
CONTINUOUS
 70
0
 71
3
 72
11
 73
7
 74
0
 42
0.0000001
 43
0.0000001
 44
0.0000000001
 40
0.0
 40
0.0
 40
0.0
 40
0.0
 40
0.2534507441
 40
0.5048940096
 40
0.7534705896
 40
1.0
 40
1.0
 40
1.0
 40
1.0
 10
107.6871203911
 20
173.5819685115
 30
0.0
 10
107.6871203911
 20
173.6079517392
 30
0.0
 10
107.6771220837
 20
173.6602556885
 30
0.0
 10
107.6341508531
 20
173.7267124195
 30
0.0
 10
107.5696339859
 20
173.7714486236
 30
0.0
 10
107.5182992723
 20
173.7819685115
 30
0.0
 10
107.4930256049
 20
173.7819685115
 30
0.0
  0
SPLINE
  5
49E
100
AcDbEntity
  8
RUNDUNGEN
100
AcDbSpline
 62
9
  6
CONTINUOUS
 70
0
 71
3
 72
11
 73
7
 74
0
 42
0.0000001
 43
0.0000001
 44
0.0000000001
 40
0.0
 40
0.0
 40
0.0
 40
0.0
 40
0.253450828
 40
0.5048941202
 40
0.7534706367
 40
1.0
 40
1.0
 40
1.0
 40
1.0
 10
107.6871203911
 20
174.7819685115
 30
0.0
 10
107.6871203971
 20
174.7559852742
 30
0.0
 10
107.6771220895
 20
174.7036813088
 30
0.0
 10
107.6341508457
 20
174.6372245752
 30
0.0
 10
107.5696339731
 20
174.5924883886
 30
0.0
 10
107.5182992688
 20
174.5819685115
 30
0.0
 10
107.4930256052
 20
174.5819685115
 30
0.0
  0
SPLINE
  5
49F
100
AcDbEntity
  8
RUNDUNGEN
100
AcDbSpline
 62
9
  6
CONTINUOUS
 70
0
 71
3
 72
11
 73
7
 74
0
 42
0.0000001
 43
0.0000001
 44
0.0000000001
 40
0.0
 40
0.0
 40
0.0
 40
0.0
 40
0.2704672907
 40
0.5294291225
 40
0.7711868335
 40
1.0
 40
1.0
 40
1.0
 40
1.0
 10
89.3699758192
 20
175.3819685115
 30
0.0
 10
89.3699758192
 20
175.4078295548
 30
0.0
 10
89.3782050097
 20
175.4588685104
 30
0.0
 10
89.4141440903
 20
175.5249954223
 30
0.0
 10
89.4693562684
 20
175.5707693673
 30
0.0
 10
89.5149317541
 20
175.5819685115
 30
0.0
 10
89.5368099901
 20
175.5819685115
 30
0.0
  0
SPLINE
  5
4A0
100
AcDbEntity
  8
RUNDUNGEN
100
AcDbSpline
 62
9
  6
CONTINUOUS
 70
0
 71
3
 72
23
 73
19
 74
0
 42
0.0000001
 43
0.0000001
 44
0.0000000001
 40
0.0
 40
0.0
 40
0.0
 40
0.0
 40
0.0317406656
 40
0.0690042063
 40
0.1161741216
 40
0.1748518496
 40
0.2446914217
 40
0.3240171814
 40
0.4102081702
 40
0.4999992085
 40
0.5897902098
 40
0.6759811702
 40
0.7553068556
 40
0.8251463814
 40
0.8838238414
 40
0.9309934408
 40
0.9682584689
 40
1.0
 40
1.0
 40
1.0
 40
1.0
 10
88.1805943752
 20
178.1819685115
 30
0.0
 10
88.1711546423
 20
178.1819696835
 30
0.0
 10
88.1503997552
 20
178.1878220861
 30
0.0
 10
88.1245078584
 20
178.2118912577
 30
0.0
 10
88.1025553789
 20
178.2487134282
 30
0.0
 10
88.0841407046
 20
178.2978102649
 30
0.0
 10
88.0694920927
 20
178.3579639343
 30
0.0
 10
88.0588526136
 20
178.4272136648
 30
0.0
 10
88.0524071334
 20
178.5029163222
 30
0.0
 10
88.0502497726
 20
178.5819686814
 30
0.0
 10
88.0524067513
 20
178.6610210429
 30
0.0
 10
88.0588516344
 20
178.7367236955
 30
0.0
 10
88.0694907996
 20
178.805973482
 30
0.0
 10
88.0841394792
 20
178.8661268966
 30
0.0
 10
88.1025522323
 20
178.9152243773
 30
0.0
 10
88.124507126
 20
178.9520456764
 30
0.0
 10
88.1503981167
 20
178.9761153248
 30
0.0
 10
88.1711543849
 20
178.9819700058
 30
0.0
 10
88.1805943752
 20
178.9819685115
 30
0.0
  0
SPLINE
  5
4A1
100
AcDbEntity
  8
RUNDUNGEN
100
AcDbSpline
 62
9
  6
CONTINUOUS
 70
0
 71
3
 72
11
 73
7
 74
0
 42
0.0000001
 43
0.0000001
 44
0.0000000001
 40
0.0
 40
0.0
 40
0.0
 40
0.0
 40
0.2704672647
 40
0.5294291228
 40
0.771186881
 40
1.0
 40
1.0
 40
1.0
 40
1.0
 10
89.3699758192
 20
177.3819685115
 30
0.0
 10
89.3699758365
 20
177.356107474
 30
0.0
 10
89.3782050476
 20
177.3050685313
 30
0.0
 10
89.4141441271
 20
177.2389416285
 30
0.0
 10
89.4693562828
 20
177.1931676704
 30
0.0
 10
89.5149317612
 20
177.1819685115
 30
0.0
 10
89.5368099898
 20
177.1819685115
 30
0.0
  0
SPLINE
  5
4A2
100
AcDbEntity
  8
RUNDUNGEN
100
AcDbSpline
 62
9
  6
CONTINUOUS
 70
0
 71
3
 72
23
 73
19
 74
0
 42
0.0000001
 43
0.0000001
 44
0.0000000001
 40
0.0
 40
0.0
 40
0.0
 40
0.0
 40
0.0317415288
 40
0.06900656
 40
0.1161761579
 40
0.1748536177
 40
0.2446931431
 40
0.3240188282
 40
0.4102097881
 40
0.5000007892
 40
0.5897918272
 40
0.6759828158
 40
0.7553085756
 40
0.825148148
 40
0.8838258766
 40
0.9309957914
 40
0.9682593294
 40
1.0
 40
1.0
 40
1.0
 40
1.0
 10
107.4930256049
 20
178.9819685115
 30
0.0
 10
107.5024655946
 20
178.9819700061
 30
0.0
 10
107.5232218621
 20
178.9761153233
 30
0.0
 10
107.5491128559
 20
178.9520456788
 30
0.0
 10
107.5710677465
 20
178.9152243766
 30
0.0
 10
107.5894805009
 20
178.8661268976
 30
0.0
 10
107.6041291804
 20
178.805973483
 30
0.0
 10
107.6147683456
 20
178.7367236969
 30
0.0
 10
107.6212132287
 20
178.6610210447
 30
0.0
 10
107.6233702074
 20
178.5819686835
 30
0.0
 10
107.6212128472
 20
178.5029163245
 30
0.0
 10
107.6147673664
 20
178.4272136672
 30
0.0
 10
107.6041278878
 20
178.3579639367
 30
0.0
 10
107.5894792774
 20
178.2978102663
 30
0.0
 10
107.5710645992
 20
178.2487134312
 30
0.0
 10
107.5491121256
 20
178.2118912587
 30
0.0
 10
107.5232202264
 20
178.1878220862
 30
0.0
 10
107.5024653394
 20
178.1819696875
 30
0.0
 10
107.4930256049
 20
178.1819685115
 30
0.0
  0
SPLINE
  5
4A3
100
AcDbEntity
  8
RUNDUNGEN
100
AcDbSpline
 62
9
  6
CONTINUOUS
 70
0
 71
3
 72
11
 73
7
 74
0
 42
0.0000001
 43
0.0000001
 44
0.0000000001
 40
0.0
 40
0.0
 40
0.0
 40
0.0
 40
0.2534507415
 40
0.504894005
 40
0.753470586
 40
1.0
 40
1.0
 40
1.0
 40
1.0
 10
87.986499589
 20
179.1819685115
 30
0.0
 10
87.986499589
 20
179.1559852841
 30
0.0
 10
87.9964978961
 20
179.1036813352
 30
0.0
 10
88.0394691262
 20
179.0372246045
 30
0.0
 10
88.1039859934
 20
178.9924883997
 30
0.0
 10
88.1553207075
 20
178.9819685115
 30
0.0
 10
88.1805943752
 20
178.9819685115
 30
0.0
  0
SPLINE
  5
4A4
100
AcDbEntity
  8
RUNDUNGEN
100
AcDbSpline
 62
9
  6
CONTINUOUS
 70
0
 71
3
 72
11
 73
7
 74
0
 42
0.0000001
 43
0.0000001
 44
0.0000000001
 40
0.0
 40
0.0
 40
0.0
 40
0.0
 40
0.2534508422
 40
0.504894146
 40
0.7534706584
 40
1.0
 40
1.0
 40
1.0
 40
1.0
 10
87.986499589
 20
177.9819685115
 30
0.0
 10
87.9864995863
 20
178.0079517498
 30
0.0
 10
87.9964978995
 20
178.0602557153
 30
0.0
 10
88.0394691452
 20
178.1267124477
 30
0.0
 10
88.103986014
 20
178.1714486337
 30
0.0
 10
88.1553207146
 20
178.1819685115
 30
0.0
 10
88.1805943754
 20
178.1819685115
 30
0.0
  0
SPLINE
  5
4A5
100
AcDbEntity
  8
RUNDUNGEN
100
AcDbSpline
 62
9
  6
CONTINUOUS
 70
0
 71
3
 72
11
 73
7
 74
0
 42
0.0000001
 43
0.0000001
 44
0.0000000001
 40
0.0
 40
0.0
 40
0.0
 40
0.0
 40
0.2534507441
 40
0.5048940096
 40
0.7534705896
 40
1.0
 40
1.0
 40
1.0
 40
1.0
 10
107.6871203911
 20
177.9819685115
 30
0.0
 10
107.6871203911
 20
178.0079517392
 30
0.0
 10
107.6771220837
 20
178.0602556885
 30
0.0
 10
107.6341508531
 20
178.1267124195
 30
0.0
 10
107.5696339859
 20
178.1714486236
 30
0.0
 10
107.5182992723
 20
178.1819685115
 30
0.0
 10
107.4930256049
 20
178.1819685115
 30
0.0
  0
SPLINE
  5
4A6
100
AcDbEntity
  8
RUNDUNGEN
100
AcDbSpline
 62
9
  6
CONTINUOUS
 70
0
 71
3
 72
11
 73
7
 74
0
 42
0.0000001
 43
0.0000001
 44
0.0000000001
 40
0.0
 40
0.0
 40
0.0
 40
0.0
 40
0.253450828
 40
0.5048941202
 40
0.7534706367
 40
1.0
 40
1.0
 40
1.0
 40
1.0
 10
107.6871203911
 20
179.1819685115
 30
0.0
 10
107.6871203971
 20
179.1559852742
 30
0.0
 10
107.6771220895
 20
179.1036813088
 30
0.0
 10
107.6341508457
 20
179.0372245752
 30
0.0
 10
107.5696339731
 20
178.9924883886
 30
0.0
 10
107.5182992688
 20
178.9819685115
 30
0.0
 10
107.4930256052
 20
178.9819685115
 30
0.0
  0
SPLINE
  5
4A7
100
AcDbEntity
  8
RUNDUNGEN
100
AcDbSpline
 62
9
  6
CONTINUOUS
 70
0
 71
3
 72
27
 73
23
 74
0
 42
0.0000001
 43
0.0000001
 44
0.0000000001
 40
0.0
 40
0.0
 40
0.0
 40
0.0
 40
0.0114150056
 40
0.0240480746
 40
0.0389930577
 40
0.0569069413
 40
0.1026955443
 40
0.1621160294
 40
0.2340958187
 40
0.3164782448
 40
0.4062973001
 40
0.4999988178
 40
0.5937003202
 40
0.6835194605
 40
0.7659018445
 40
0.8378818841
 40
0.8973029648
 40
0.9430903197
 40
0.9610044198
 40
0.9759506621
 40
0.9885842335
 40
1.0
 40
1.0
 40
1.0
 40
1.0
 10
87.986499589
 20
177.9819685115
 30
0.0
 10
87.9816419002
 20
177.9819701367
 30
0.0
 10
87.9713263347
 20
177.9840464506
 30
0.0
 10
87.9570359394
 20
177.9929680686
 30
0.0
 10
87.9436910977
 20
178.0071986178
 30
0.0
 10
87.9255372236
 20
178.0354617045
 30
0.0
 10
87.906185621
 20
178.0845535212
 30
0.0
 10
87.8877077238
 20
178.1577199227
 30
0.0
 10
87.8729632588
 20
178.2475914925
 30
0.0
 10
87.8622283769
 20
178.3509845768
 30
0.0
 10
87.8557222418
 20
178.4639886818
 30
0.0
 10
87.8535435516
 20
178.5819682461
 30
0.0
 10
87.8557222311
 20
178.699947849
 30
0.0
 10
87.8622282916
 20
178.8129519614
 30
0.0
 10
87.8729631286
 20
178.9163452028
 30
0.0
 10
87.887707922
 20
179.0062170028
 30
0.0
 10
87.9061844796
 20
179.0793836285
 30
0.0
 10
87.9255375447
 20
179.1284747693
 30
0.0
 10
87.9436917537
 20
179.1567375967
 30
0.0
 10
87.9570344601
 20
179.1709708219
 30
0.0
 10
87.9713237012
 20
179.1798969689
 30
0.0
 10
87.9816415765
 20
179.1819705011
 30
0.0
 10
87.986499589
 20
179.1819685115
 30
0.0
  0
SPLINE
  5
4A8
100
AcDbEntity
  8
RUNDUNGEN
100
AcDbSpline
 62
9
  6
CONTINUOUS
 70
0
 71
3
 72
27
 73
23
 74
0
 42
0.0000001
 43
0.0000001
 44
0.0000000001
 40
0.0
 40
0.0
 40
0.0
 40
0.0
 40
0.0114157666
 40
0.0240493408
 40
0.0389955848
 40
0.0569096815
 40
0.1026970279
 40
0.1621181131
 40
0.234098153
 40
0.3164805357
 40
0.4062996765
 40
0.5000011787
 40
0.5937026965
 40
0.6835217508
 40
0.7659041787
 40
0.8378839678
 40
0.8973044468
 40
0.9430930618
 40
0.9610069495
 40
0.9759519297
 40
0.9885849957
 40
1.0
 40
1.0
 40
1.0
 40
1.0
 10
107.6871203911
 20
179.1819685115
 30
0.0
 10
107.6919784037
 20
179.1819705018
 30
0.0
 10
107.7022962802
 20
179.1798969656
 30
0.0
 10
107.7165855183
 20
179.1709708109
 30
0.0
 10
107.7299282238
 20
179.1567375852
 30
0.0
 10
107.7480824369
 20
179.1284747657
 30
0.0
 10
107.7674355048
 20
179.0793836286
 30
0.0
 10
107.7859120562
 20
179.0062170031
 30
0.0
 10
107.8006568519
 20
178.9163452022
 30
0.0
 10
107.8113916888
 20
178.8129519611
 30
0.0
 10
107.8178977489
 20
178.6999478494
 30
0.0
 10
107.8200764285
 20
178.5819682466
 30
0.0
 10
107.8178977386
 20
178.4639886829
 30
0.0
 10
107.811391603
 20
178.3509845778
 30
0.0
 10
107.8006567212
 20
178.2475914935
 30
0.0
 10
107.7859122599
 20
178.1577199248
 30
0.0
 10
107.7674343528
 20
178.0845535235
 30
0.0
 10
107.7480827572
 20
178.0354617009
 30
0.0
 10
107.7299288887
 20
178.0071986034
 30
0.0
 10
107.7165840413
 20
177.992968059
 30
0.0
 10
107.7022936405
 20
177.9840464559
 30
0.0
 10
107.6919780794
 20
177.9819701424
 30
0.0
 10
107.6871203911
 20
177.9819685115
 30
0.0
  0
SPLINE
  5
4A9
100
AcDbEntity
  8
RUNDUNGEN
100
AcDbSpline
 62
9
  6
CONTINUOUS
 70
0
 71
3
 72
19
 73
15
 74
0
 42
0.0000001
 43
0.0000001
 44
0.0000000001
 40
0.0
 40
0.0
 40
0.0
 40
0.0
 40
0.0969583136
 40
0.2071496912
 40
0.2700909666
 40
0.3398624145
 40
0.4171365632
 40
0.499999976
 40
0.5828635542
 40
0.6601372849
 40
0.7299082944
 40
0.7928497424
 40
0.9030414225
 40
1.0
 40
1.0
 40
1.0
 40
1.0
 10
106.3036441609
 20
175.3819685115
 30
0.0
 10
106.2014096203
 20
175.3819565166
 30
0.0
 10
105.9817777168
 20
175.4144040559
 30
0.0
 10
105.722091611
 20
175.5450772822
 30
0.0
 10
105.5310921764
 20
175.7178745722
 30
0.0
 10
105.4000924098
 20
175.8986727584
 30
0.0
 10
105.3064562981
 20
176.1249698348
 30
0.0
 10
105.2716927274
 20
176.3819666895
 30
0.0
 10
105.3064431935
 20
176.6389665158
 30
0.0
 10
105.4000881294
 20
176.865260465
 30
0.0
 10
105.531093579
 20
177.0460525272
 30
0.0
 10
105.722091631
 20
177.2188517851
 30
0.0
 10
105.9817780711
 20
177.3495212684
 30
0.0
 10
106.2014093427
 20
177.3819850276
 30
0.0
 10
106.3036441609
 20
177.3819685115
 30
0.0
  0
SPLINE
  5
4AA
100
AcDbEntity
  8
RUNDUNGEN
100
AcDbSpline
 62
9
  6
CONTINUOUS
 70
0
 71
3
 72
19
 73
15
 74
0
 42
0.0000001
 43
0.0000001
 44
0.0000000001
 40
0.0
 40
0.0
 40
0.0
 40
0.0
 40
0.0969583136
 40
0.2071496912
 40
0.2700909666
 40
0.3398624145
 40
0.4171365632
 40
0.499999976
 40
0.5828635542
 40
0.6601372849
 40
0.7299082944
 40
0.7928497424
 40
0.9030414225
 40
1.0
 40
1.0
 40
1.0
 40
1.0
 10
89.3699758192
 20
177.3819685115
 30
0.0
 10
89.4722103599
 20
177.3819805064
 30
0.0
 10
89.6918422633
 20
177.3495329671
 30
0.0
 10
89.9515283692
 20
177.2188597409
 30
0.0
 10
90.1425278037
 20
177.0460624508
 30
0.0
 10
90.2735275703
 20
176.8652642646
 30
0.0
 10
90.367163682
 20
176.6389671883
 30
0.0
 10
90.4019272527
 20
176.3819703335
 30
0.0
 10
90.3671767867
 20
176.1249705072
 30
0.0
 10
90.2735318508
 20
175.8986765581
 30
0.0
 10
90.1425264011
 20
175.7178844958
 30
0.0
 10
89.9515283491
 20
175.5450852379
 30
0.0
 10
89.6918419091
 20
175.4144157547
 30
0.0
 10
89.4722106374
 20
175.3819519954
 30
0.0
 10
89.3699758192
 20
175.3819685115
 30
0.0
  0
SPLINE
  5
4AB
100
AcDbEntity
  8
RUNDUNGEN
100
AcDbSpline
 62
9
  6
CONTINUOUS
 70
0
 71
3
 72
27
 73
23
 74
0
 42
0.0000001
 43
0.0000001
 44
0.0000000001
 40
0.0
 40
0.0
 40
0.0
 40
0.0
 40
0.0114150056
 40
0.0240480746
 40
0.0389930577
 40
0.0569069413
 40
0.1026955443
 40
0.1621160294
 40
0.2340958187
 40
0.3164782448
 40
0.4062973001
 40
0.4999988178
 40
0.5937003202
 40
0.6835194605
 40
0.7659018445
 40
0.8378818841
 40
0.8973029648
 40
0.9430903197
 40
0.9610044198
 40
0.9759506621
 40
0.9885842335
 40
1.0
 40
1.0
 40
1.0
 40
1.0
 10
87.986499589
 20
173.5819685115
 30
0.0
 10
87.9816419002
 20
173.5819701367
 30
0.0
 10
87.9713263347
 20
173.5840464506
 30
0.0
 10
87.9570359394
 20
173.5929680686
 30
0.0
 10
87.9436910977
 20
173.6071986178
 30
0.0
 10
87.9255372236
 20
173.6354617045
 30
0.0
 10
87.906185621
 20
173.6845535212
 30
0.0
 10
87.8877077238
 20
173.7577199227
 30
0.0
 10
87.8729632588
 20
173.8475914925
 30
0.0
 10
87.8622283769
 20
173.9509845768
 30
0.0
 10
87.8557222418
 20
174.0639886818
 30
0.0
 10
87.8535435516
 20
174.1819682461
 30
0.0
 10
87.8557222311
 20
174.299947849
 30
0.0
 10
87.8622282916
 20
174.4129519614
 30
0.0
 10
87.8729631286
 20
174.5163452028
 30
0.0
 10
87.887707922
 20
174.6062170028
 30
0.0
 10
87.9061844796
 20
174.6793836285
 30
0.0
 10
87.9255375447
 20
174.7284747693
 30
0.0
 10
87.9436917537
 20
174.7567375967
 30
0.0
 10
87.9570344601
 20
174.7709708219
 30
0.0
 10
87.9713237012
 20
174.7798969689
 30
0.0
 10
87.9816415765
 20
174.7819705011
 30
0.0
 10
87.986499589
 20
174.7819685115
 30
0.0
  0
SPLINE
  5
4AC
100
AcDbEntity
  8
0
100
AcDbSpline
 62
7
  6
CONTINUOUS
 70
0
 71
3
 72
9
 73
5
 74
0
 42
0.0000001
 43
0.0000001
 44
0.0000000001
 40
0.0
 40
0.0
 40
0.0
 40
0.0
 40
0.5000994608
 40
1.0
 40
1.0
 40
1.0
 40
1.0
 10
100.6987661323
 20
190.0937997334
 30
0.0
 10
100.806040935
 20
189.7066692354
 30
0.0
 10
101.0250895843
 20
188.9338131424
 30
0.0
 10
101.2555067542
 20
188.164238996
 30
0.0
 10
101.3747272986
 20
187.7807862448
 30
0.0
  0
LINE
  5
4AD
100
AcDbEntity
  8
0
100
AcDbLine
 62
7
  6
CONTINUOUS
 10
101.3747272986
 20
187.7807862448
 11
101.4019727967
 21
187.693403221
  0
LINE
  5
4AE
100
AcDbEntity
  8
0
100
AcDbLine
 62
7
  6
CONTINUOUS
 10
101.4019727967
 20
187.693403221
 11
101.4055092402
 21
187.6820973319
  0
SPLINE
  5
4AF
100
AcDbEntity
  8
0
100
AcDbSpline
 62
7
  6
CONTINUOUS
 70
0
 71
3
 72
21
 73
17
 74
0
 42
0.0000001
 43
0.0000001
 44
0.0000000001
 40
0.0
 40
0.0
 40
0.0
 40
0.0
 40
0.0624499195
 40
0.0936952965
 40
0.1249307521
 40
0.1873043418
 40
0.2497086476
 40
0.3121650703
 40
0.3746619588
 40
0.437181525
 40
0.4997110969
 40
0.5622452134
 40
0.6247815196
 40
0.7498525419
 40
0.8749264141
 40
1.0
 40
1.0
 40
1.0
 40
1.0
 10
97.8408457715
 20
194.639436918
 30
0.0
 10
97.9605463712
 20
194.6383435252
 30
0.0
 10
98.1408318125
 20
194.6218271279
 30
0.0
 10
98.3731332409
 20
194.5619206565
 30
0.0
 10
98.5971108254
 20
194.4763248964
 30
0.0
 10
98.8571036876
 20
194.3234892663
 30
0.0
 10
99.1246616486
 20
194.0812161714
 30
0.0
 10
99.3477730666
 20
193.7981737961
 30
0.0
 10
99.5338968856
 20
193.4900584136
 30
0.0
 10
99.6933061266
 20
193.167539371
 30
0.0
 10
99.8342476877
 20
192.836606581
 30
0.0
 10
99.9616628461
 20
192.5002723329
 30
0.0
 10
100.1196837762
 20
192.0475437007
 30
0.0
 10
100.3008525447
 20
191.4761216668
 30
0.0
 10
100.5043939986
 20
190.7862801551
 30
0.0
 10
100.6345832079
 20
190.32479291
 30
0.0
 10
100.6987661323
 20
190.0937997334
 30
0.0
  0
SPLINE
  5
4B0
100
AcDbEntity
  8
0
100
AcDbSpline
 62
7
  6
CONTINUOUS
 70
0
 71
3
 72
17
 73
13
 74
0
 42
0.0000001
 43
0.0000001
 44
0.0000000001
 40
0.0
 40
0.0
 40
0.0
 40
0.0
 40
0.3038839679
 40
0.4545261384
 40
0.6030645295
 40
0.7464701642
 40
0.8138769517
 40
0.8756064486
 40
0.9283092597
 40
0.9681649697
 40
0.9922630743
 40
1.0
 40
1.0
 40
1.0
 40
1.0
 10
105.8049838699
 20
190.0940338206
 30
0.0
 10
105.8081715344
 20
190.5547712684
 30
0.0
 10
105.8105857661
 20
191.2439211858
 30
0.0
 10
105.8130739491
 20
192.1582839625
 30
0.0
 10
105.8167453192
 20
192.829321575
 30
0.0
 10
105.824933116
 20
193.374134741
 30
0.0
 10
105.8382672218
 20
193.7871617719
 30
0.0
 10
105.8518826485
 20
194.0625455742
 30
0.0
 10
105.868263519
 20
194.295925336
 30
0.0
 10
105.8848218578
 20
194.4720350202
 30
0.0
 10
105.8972753184
 20
194.5800317953
 30
0.0
 10
105.9039646158
 20
194.6278345574
 30
0.0
 10
105.9056712311
 20
194.6394410732
 30
0.0
  0
SPLINE
  5
4B1
100
AcDbEntity
  8
0
100
AcDbSpline
 62
7
  6
CONTINUOUS
 70
0
 71
3
 72
25
 73
21
 74
0
 42
0.0000001
 43
0.0000001
 44
0.0000000001
 40
0.0
 40
0.0
 40
0.0
 40
0.0
 40
0.0242293561
 40
0.0478800257
 40
0.0717568731
 40
0.0967528465
 40
0.1233087889
 40
0.1513439671
 40
0.1805579029
 40
0.2106691978
 40
0.2727388682
 40
0.336398224
 40
0.4010908931
 40
0.4664597897
 40
0.5322985058
 40
0.5985068347
 40
0.6649871656
 40
0.7316815346
 40
0.8655819701
 40
1.0
 40
1.0
 40
1.0
 40
1.0
 10
104.2698351485
 20
182.88008685
 30
0.0
 10
104.3327583078
 20
182.88008685
 30
0.0
 10
104.4574693048
 20
182.8894042339
 30
0.0
 10
104.6382846409
 20
182.9410423214
 30
0.0
 10
104.8020597799
 20
183.0383309543
 30
0.0
 10
104.9422875941
 20
183.1773740641
 30
0.0
 10
105.0591951146
 20
183.3488933592
 30
0.0
 10
105.1566630697
 20
183.5439785054
 30
0.0
 10
105.2388399977
 20
183.7556902104
 30
0.0
 10
105.3329321048
 20
184.0567578936
 30
0.0
 10
105.424872145
 20
184.4513542586
 30
0.0
 10
105.5100842708
 20
184.9386056912
 30
0.0
 10
105.5768985079
 20
185.4373436539
 30
0.0
 10
105.6307162711
 20
185.9432775556
 30
0.0
 10
105.6745400497
 20
186.454117404
 30
0.0
 10
105.7097623103
 20
186.9685040447
 30
0.0
 10
105.7382542235
 20
187.4855259716
 30
0.0
 10
105.7685515246
 20
188.1784650774
 30
0.0
 10
105.7935231107
 20
189.0481781286
 30
0.0
 10
105.8026925986
 20
189.7449603716
 30
0.0
 10
105.8049838699
 20
190.0940338206
 30
0.0
  0
SPLINE
  5
4B2
100
AcDbEntity
  8
0
100
AcDbSpline
 62
7
  6
CONTINUOUS
 70
0
 71
3
 72
20
 73
16
 74
0
 42
0.0000001
 43
0.0000001
 44
0.0000000001
 40
0.0
 40
0.0
 40
0.0
 40
0.0
 40
0.1250824127
 40
0.2501650729
 40
0.3752448097
 40
0.4377854012
 40
0.5003236161
 40
0.5628573266
 40
0.6253815438
 40
0.6878868695
 40
0.7503526665
 40
0.8127655451
 40
0.8751467338
 40
0.9375472732
 40
1.0
 40
1.0
 40
1.0
 40
1.0
 10
94.9749253909
 20
190.0940338206
 30
0.0
 10
95.039198529
 20
190.3251594044
 30
0.0
 10
95.1693723667
 20
190.786966062
 30
0.0
 10
95.3731179816
 20
191.4772221483
 30
0.0
 10
95.5544098705
 20
192.0490026331
 30
0.0
 10
95.7125841742
 20
192.5019981876
 30
0.0
 10
95.8401269052
 20
192.8385265287
 30
0.0
 10
95.9812612886
 20
193.1696246106
 30
0.0
 10
96.1409177089
 20
193.4922862083
 30
0.0
 10
96.3274288034
 20
193.8004607632
 30
0.0
 10
96.5509970872
 20
194.0834638639
 30
0.0
 10
96.819206739
 20
194.325468659
 30
0.0
 10
97.1315293583
 20
194.5083097007
 30
0.0
 10
97.4767412503
 20
194.6172557062
 30
0.0
 10
97.7170317052
 20
194.6394410732
 30
0.0
 10
97.8368099901
 20
194.6394410732
 30
0.0
  0
SPLINE
  5
4B3
100
AcDbEntity
  8
0
100
AcDbSpline
 62
7
  6
CONTINUOUS
 70
0
 71
3
 72
9
 73
5
 74
0
 42
0.0000001
 43
0.0000001
 44
0.0000000001
 40
0.0
 40
0.0
 40
0.0
 40
0.0
 40
0.4863182668
 40
1.0
 40
1.0
 40
1.0
 40
1.0
 10
91.403784833
 20
182.88008685
 30
0.0
 10
91.4735419909
 20
182.88008685
 30
0.0
 10
91.6172785462
 20
182.8921054562
 30
0.0
 10
91.7564990727
 20
182.9309719147
 30
0.0
 10
91.8250994223
 20
182.9578615402
 30
0.0
  0
SPLINE
  5
4B4
100
AcDbEntity
  8
0
100
AcDbSpline
 62
7
  6
CONTINUOUS
 70
0
 71
3
 72
25
 73
21
 74
0
 42
0.0000001
 43
0.0000001
 44
0.0000000001
 40
0.0
 40
0.0
 40
0.0
 40
0.0
 40
0.1344178233
 40
0.2683181462
 40
0.335012428
 40
0.4014926715
 40
0.4677008275
 40
0.5335393664
 40
0.5989080414
 40
0.6636004678
 40
0.7272598424
 40
0.7893296674
 40
0.8194412405
 40
0.8486552889
 40
0.8766905785
 40
0.9032469844
 40
0.9282431758
 40
0.9521200546
 40
0.975770677
 40
1.0
 40
1.0
 40
1.0
 40
1.0
 10
89.8686361109
 20
190.0940338206
 30
0.0
 10
89.8709273786
 20
189.7449609207
 30
0.0
 10
89.8800968608
 20
189.0481795326
 30
0.0
 10
89.9050683245
 20
188.178467563
 30
0.0
 10
89.9353656533
 20
187.4855292331
 30
0.0
 10
89.9638567707
 20
186.9685081834
 30
0.0
 10
89.9990796296
 20
186.4541227351
 30
0.0
 10
90.0429033031
 20
185.9432844029
 30
0.0
 10
90.0967200815
 20
185.4373520599
 30
0.0
 10
90.1635365605
 20
184.9386156218
 30
0.0
 10
90.2487468441
 20
184.4513640164
 30
0.0
 10
90.3406886872
 20
184.0567669973
 30
0.0
 10
90.4347770626
 20
183.7556967211
 30
0.0
 10
90.5169545253
 20
183.5439836412
 30
0.0
 10
90.6144249761
 20
183.3488980349
 30
0.0
 10
90.7313295831
 20
183.1773741553
 30
0.0
 10
90.8715602707
 20
183.038330973
 30
0.0
 10
91.0353357087
 20
182.9410421544
 30
0.0
 10
91.2161509937
 20
182.8894042132
 30
0.0
 10
91.3408617619
 20
182.88008685
 30
0.0
 10
91.403784833
 20
182.88008685
 30
0.0
  0
SPLINE
  5
4B5
100
AcDbEntity
  8
0
100
AcDbSpline
 62
7
  6
CONTINUOUS
 70
0
 71
3
 72
17
 73
13
 74
0
 42
0.0000001
 43
0.0000001
 44
0.0000000001
 40
0.0
 40
0.0
 40
0.0
 40
0.0
 40
0.0077380386
 40
0.0318341431
 40
0.0716949384
 40
0.12439901
 40
0.186130728
 40
0.2535379098
 40
0.3969417447
 40
0.5454787468
 40
0.6961193164
 40
1.0
 40
1.0
 40
1.0
 40
1.0
 10
89.767948749
 20
194.6394410732
 30
0.0
 10
89.7696549866
 20
194.6278328058
 30
0.0
 10
89.7763430717
 20
194.5800312285
 30
0.0
 10
89.7888046381
 20
194.4720290172
 30
0.0
 10
89.805354043
 20
194.2959117532
 30
0.0
 10
89.82173848
 20
194.0625193689
 30
0.0
 10
89.8353542699
 20
193.787129624
 30
0.0
 10
89.8486857962
 20
193.3741013024
 30
0.0
 10
89.8568761433
 20
192.8292924234
 30
0.0
 10
89.8605457673
 20
192.1582620529
 30
0.0
 10
89.8630344366
 20
191.2439087989
 30
0.0
 10
89.8654484808
 20
190.5547662877
 30
0.0
 10
89.8686361109
 20
190.0940338206
 30
0.0
  0
LINE
  5
4B6
100
AcDbEntity
  8
0
100
AcDbLine
 62
7
  6
CONTINUOUS
 10
94.2681108152
 20
187.6820973007
 11
94.2834258749
 21
187.7311194823
  0
LINE
  5
4B7
100
AcDbEntity
  8
0
100
AcDbLine
 62
7
  6
CONTINUOUS
 10
94.2834258749
 20
187.7311194823
 11
94.2988928363
 21
187.7807868108
  0
SPLINE
  5
4B8
100
AcDbEntity
  8
0
100
AcDbSpline
 62
7
  6
CONTINUOUS
 70
0
 71
3
 72
9
 73
5
 74
0
 42
0.0000001
 43
0.0000001
 44
0.0000000001
 40
0.0
 40
0.0
 40
0.0
 40
0.0
 40
0.4999004
 40
1.0
 40
1.0
 40
1.0
 40
1.0
 10
94.2988928363
 20
187.7807868108
 30
0.0
 10
94.4181251063
 20
188.1642784025
 30
0.0
 10
94.6485625229
 20
188.9339313987
 30
0.0
 10
94.8676406346
 20
189.7068637327
 30
0.0
 10
94.9749253909
 20
190.0940338206
 30
0.0
  0
SPLINE
  5
4B9
100
AcDbEntity
  8
0
100
AcDbSpline
 62
7
  6
CONTINUOUS
 70
0
 71
3
 72
9
 73
5
 74
0
 42
0.0000001
 43
0.0000001
 44
0.0000000001
 40
0.0
 40
0.0
 40
0.0
 40
0.0
 40
0.5135225349
 40
1.0
 40
1.0
 40
1.0
 40
1.0
 10
103.8525533355
 20
182.9562898584
 30
0.0
 10
103.9205483304
 20
182.9299409253
 30
0.0
 10
104.0584638616
 20
182.8918720959
 30
0.0
 10
104.2007538542
 20
182.88008685
 30
0.0
 10
104.2698351485
 20
182.88008685
 30
0.0
  0
SPLINE
  5
4BA
100
AcDbEntity
  8
RUNDUNGEN
100
AcDbSpline
 62
9
  6
CONTINUOUS
 70
0
 71
3
 72
11
 73
7
 74
0
 42
0.0000001
 43
0.0000001
 44
0.0000000001
 40
0.0
 40
0.0
 40
0.0
 40
0.0
 40
0.2702285799
 40
0.5262197812
 40
0.7688541439
 40
1.0
 40
1.0
 40
1.0
 40
1.0
 10
103.8428028651
 20
182.9308429143
 30
0.0
 10
103.9074866395
 20
182.8883450081
 30
0.0
 10
104.0391809839
 20
182.8137983799
 30
0.0
 10
104.2458336828
 20
182.7352586427
 30
0.0
 10
104.4510529119
 20
182.6917815914
 30
0.0
 10
104.5869325682
 20
182.6827924457
 30
0.0
 10
104.6531344778
 20
182.6827910237
 30
0.0
  0
SPLINE
  5
4BB
100
AcDbEntity
  8
RUNDUNGEN
100
AcDbSpline
 62
9
  6
CONTINUOUS
 70
0
 71
3
 72
9
 73
5
 74
0
 42
0.0000001
 43
0.0000001
 44
0.0000000001
 40
0.0
 40
0.0
 40
0.0
 40
0.0
 40
0.4999286907
 40
1.0
 40
1.0
 40
1.0
 40
1.0
 10
94.301310797
 20
187.7799767734
 30
0.0
 10
94.4240189986
 20
188.1544329166
 30
0.0
 10
94.6616042485
 20
188.9060353497
 30
0.0
 10
94.8884805276
 20
189.6609061778
 30
0.0
 10
94.9999719621
 20
190.0389709493
 30
0.0
  0
SPLINE
  5
4BC
100
AcDbEntity
  8
RUNDUNGEN
100
AcDbSpline
 62
9
  6
CONTINUOUS
 70
0
 71
3
 72
24
 73
20
 74
0
 42
0.0000001
 43
0.0000001
 44
0.0000000001
 40
0.0
 40
0.0
 40
0.0
 40
0.0
 40
0.0246100845
 40
0.0484134747
 40
0.0719698569
 40
0.0960799538
 40
0.1214043239
 40
0.1482069093
 40
0.1763924993
 40
0.2057262743
 40
0.2668968374
 40
0.3302842351
 40
0.3950661545
 40
0.4607826129
 40
0.5271196925
 40
0.5939292062
 40
0.7285124376
 40
0.8639664387
 40
1.0
 40
1.0
 40
1.0
 40
1.0
 10
104.6531345492
 20
182.6827913009
 30
0.0
 10
104.7187662344
 20
182.6827933978
 30
0.0
 10
104.8481681696
 20
182.6911749352
 30
0.0
 10
105.0358465102
 20
182.7368577403
 30
0.0
 10
105.208386732
 20
182.8217803836
 30
0.0
 10
105.3598834742
 20
182.9465278397
 30
0.0
 10
105.4883546165
 20
183.105516158
 30
0.0
 10
105.5956071012
 20
183.2916417409
 30
0.0
 10
105.6850922032
 20
183.4983203045
 30
0.0
 10
105.7865452464
 20
183.7984178652
 30
0.0
 10
105.8825022484
 20
184.1981370936
 30
0.0
 10
105.9682271819
 20
184.6958932628
 30
0.0
 10
106.0341557653
 20
185.2088665096
 30
0.0
 10
106.0857812429
 20
185.7312955102
 30
0.0
 10
106.1278400213
 20
186.2599922588
 30
0.0
 10
106.1730907464
 20
186.972576401
 30
0.0
 10
106.2148433883
 20
187.8699862833
 30
0.0
 10
106.2494213982
 20
188.9523895001
 30
0.0
 10
106.2652158921
 20
189.6762478046
 30
0.0
 10
106.2717868317
 20
190.0389709494
 30
0.0
  0
SPLINE
  5
4BD
100
AcDbEntity
  8
RUNDUNGEN
100
AcDbSpline
 62
9
  6
CONTINUOUS
 70
0
 71
3
 72
23
 73
19
 74
0
 42
0.0000001
 43
0.0000001
 44
0.0000000001
 40
0.0
 40
0.0
 40
0.0
 40
0.0
 40
0.0247430105
 40
0.0486720969
 40
0.0722587882
 40
0.0962060602
 40
0.1211574626
 40
0.1474745739
 40
0.1751784164
 40
0.2041042237
 40
0.2647403264
 40
0.3279161265
 40
0.3926719713
 40
0.4584904865
 40
0.5920454926
 40
0.7271917619
 40
0.8632838559
 40
1.0
 40
1.0
 40
1.0
 40
1.0
 10
104.7440042003
 20
182.5298502903
 30
0.0
 10
104.8114622879
 20
182.5298529688
 30
0.0
 10
104.944418941
 20
182.5379805735
 30
0.0
 10
105.1375970119
 20
182.5816612387
 30
0.0
 10
105.3166923671
 20
182.6620397108
 30
0.0
 10
105.4766041552
 20
182.7806546406
 30
0.0
 10
105.6146265753
 20
182.9338481414
 30
0.0
 10
105.7312763439
 20
183.115679384
 30
0.0
 10
105.8290713516
 20
183.3200549456
 30
0.0
 10
105.9399432387
 20
183.6202690184
 30
0.0
 10
106.0436897479
 20
184.0244682844
 30
0.0
 10
106.1338504445
 20
184.5307875881
 30
0.0
 10
106.2021276467
 20
185.0547414866
 30
0.0
 10
106.2717124153
 20
185.7715524095
 30
0.0
 10
106.3310804403
 20
186.6818266742
 30
0.0
 10
106.375979767
 20
187.7845672063
 30
0.0
 10
106.4045571748
 20
188.8964572326
 30
0.0
 10
106.4158630321
 20
189.6401519371
 30
0.0
 10
106.420133606
 20
190.0128634259
 30
0.0
  0
SPLINE
  5
4BE
100
AcDbEntity
  8
RUNDUNGEN
100
AcDbSpline
 62
9
  6
CONTINUOUS
 70
0
 71
3
 72
10
 73
6
 74
0
 42
0.0000001
 43
0.0000001
 44
0.0000000001
 40
0.0
 40
0.0
 40
0.0
 40
0.0
 40
0.459415442
 40
0.7224477174
 40
1.0
 40
1.0
 40
1.0
 40
1.0
 10
104.6531345492
 20
182.6827913009
 30
0.0
 10
104.6781113104
 20
182.6699347902
 30
0.0
 10
104.7101118241
 20
182.6353010647
 30
0.0
 10
104.7346609652
 20
182.5792560094
 30
0.0
 10
104.7418880554
 20
182.5466890625
 30
0.0
 10
104.7440042003
 20
182.5298502903
 30
0.0
  0
SPLINE
  5
4BF
100
AcDbEntity
  8
RUNDUNGEN
100
AcDbSpline
 62
9
  6
CONTINUOUS
 70
0
 71
3
 72
16
 73
12
 74
0
 42
0.0000001
 43
0.0000001
 44
0.0000000001
 40
0.0
 40
0.0
 40
0.0
 40
0.0
 40
0.2597415932
 40
0.3888920963
 40
0.5172239739
 40
0.6441827855
 40
0.7687790317
 40
0.8295868183
 40
0.8888671134
 40
0.9459709875
 40
1.0
 40
1.0
 40
1.0
 40
1.0
 10
106.2717951598
 20
190.0389707205
 30
0.0
 10
106.2777291343
 20
190.3562969913
 30
0.0
 10
106.2885730015
 20
190.8313875325
 30
0.0
 10
106.3119684533
 20
191.4629667578
 30
0.0
 10
106.335559599
 20
191.932155097
 30
0.0
 10
106.3689832336
 20
192.3951732883
 30
0.0
 10
106.4087140837
 20
192.7749320036
 30
0.0
 10
106.4528894092
 20
193.0706853984
 30
0.0
 10
106.4930074058
 20
193.28352744
 30
0.0
 10
106.5422233996
 20
193.485962565
 30
0.0
 10
106.5834991963
 20
193.6155424088
 30
0.0
 10
106.6067581035
 20
193.6773283476
 30
0.0
  0
SPLINE
  5
4C0
100
AcDbEntity
  8
RUNDUNGEN
100
AcDbSpline
 62
9
  6
CONTINUOUS
 70
0
 71
3
 72
16
 73
12
 74
0
 42
0.0000001
 43
0.0000001
 44
0.0000000001
 40
0.0
 40
0.0
 40
0.0
 40
0.0
 40
0.2595992789
 40
0.388698042
 40
0.5170045226
 40
0.6439787651
 40
0.7686646003
 40
0.8295429065
 40
0.8889037959
 40
0.9460529793
 40
1.0
 40
1.0
 40
1.0
 40
1.0
 10
106.4201335861
 20
190.012863432
 30
0.0
 10
106.4238197101
 20
190.3244514703
 30
0.0
 10
106.4311822232
 20
190.7909867314
 30
0.0
 10
106.4494392941
 20
191.4113123164
 30
0.0
 10
106.4688333878
 20
191.8723198345
 30
0.0
 10
106.4976385606
 20
192.327530662
 30
0.0
 10
106.5329657939
 20
192.7011662889
 30
0.0
 10
106.5735828947
 20
192.9923940393
 30
0.0
 10
106.6112193238
 20
193.2020550178
 30
0.0
 10
106.6585455551
 20
193.4012287951
 30
0.0
 10
106.6995445442
 20
193.528408395
 30
0.0
 10
106.7232044099
 20
193.588686553
 30
0.0
  0
SPLINE
  5
4C1
100
AcDbEntity
  8
RUNDUNGEN
100
AcDbSpline
 62
9
  6
CONTINUOUS
 70
0
 71
3
 72
10
 73
6
 74
0
 42
0.0000001
 43
0.0000001
 44
0.0000000001
 40
0.0
 40
0.0
 40
0.0
 40
0.0
 40
0.5577953703
 40
0.7985241851
 40
1.0
 40
1.0
 40
1.0
 40
1.0
 10
106.2717951598
 20
190.0389707205
 30
0.0
 10
106.2998992155
 20
190.0379915189
 30
0.0
 10
106.3401756855
 20
190.0343357295
 30
0.0
 10
106.3895072778
 20
190.0237558904
 30
0.0
 10
106.4107876209
 20
190.0168414611
 30
0.0
 10
106.4201335861
 20
190.012863432
 30
0.0
  0
SPLINE
  5
4C2
100
AcDbEntity
  8
RUNDUNGEN
100
AcDbSpline
 62
9
  6
CONTINUOUS
 70
0
 71
3
 72
26
 73
22
 74
0
 42
0.0000001
 43
0.0000001
 44
0.0000000001
 40
0.0
 40
0.0
 40
0.0
 40
0.0
 40
0.2135963324
 40
0.4097632782
 40
0.5839958732
 40
0.6614978351
 40
0.7319141359
 40
0.7947459444
 40
0.8494869779
 40
0.8958122029
 40
0.933602071
 40
0.9492809841
 40
0.9628283927
 40
0.9742534274
 40
0.983562344
 40
0.9907694932
 40
0.9958976934
 40
0.9976889062
 40
0.9989681427
 40
0.999737729
 40
1.0
 40
1.0
 40
1.0
 40
1.0
 10
106.6067577288
 20
193.6773274903
 30
0.0
 10
106.623690686
 20
193.7222956497
 30
0.0
 10
106.6580677005
 20
193.8078647724
 30
0.0
 10
106.7122363902
 20
193.9275918714
 30
0.0
 10
106.7577143888
 20
194.0175496899
 30
0.0
 10
106.7928496694
 20
194.0809427038
 30
0.0
 10
106.8169872047
 20
194.12175626
 30
0.0
 10
106.8395404599
 20
194.1575369379
 30
0.0
 10
106.8600661575
 20
194.1881719529
 30
0.0
 10
106.87822096
 20
194.2135975447
 30
0.0
 10
106.8919200859
 20
194.2313922256
 30
0.0
 10
106.901533974
 20
194.2430063281
 30
0.0
 10
106.9075148038
 20
194.2499258688
 30
0.0
 10
106.9126800116
 20
194.2556515457
 30
0.0
 10
106.9169793194
 20
194.2602419907
 30
0.0
 10
106.9203798682
 20
194.2637156248
 30
0.0
 10
106.9226358384
 20
194.2659780059
 30
0.0
 10
106.9239784861
 20
194.2672110467
 30
0.0
 10
106.9245987759
 20
194.2678641243
 30
0.0
 10
106.925005993
 20
194.2680982288
 30
0.0
 10
106.9251587943
 20
194.2683704413
 30
0.0
 10
106.9252158562
 20
194.2683554418
 30
0.0
  0
SPLINE
  5
4C3
100
AcDbEntity
  8
RUNDUNGEN
100
AcDbSpline
 62
9
  6
CONTINUOUS
 70
0
 71
3
 72
26
 73
22
 74
0
 42
0.0000001
 43
0.0000001
 44
0.0000000001
 40
0.0
 40
0.0
 40
0.0
 40
0.0
 40
0.2175067988
 40
0.4153678198
 40
0.5896598443
 40
0.6667401062
 40
0.7364402261
 40
0.7983864279
 40
0.8522240564
 40
0.8977299645
 40
0.9348075192
 40
0.9501827787
 40
0.9634688657
 40
0.9746788886
 40
0.983822761
 40
0.9909130472
 40
0.9959641702
 40
0.9977292006
 40
0.9989892244
 40
0.9997456669
 40
1.0
 40
1.0
 40
1.0
 40
1.0
 10
106.7232041991
 20
193.5886865167
 30
0.0
 10
106.7408174685
 20
193.629253146
 30
0.0
 10
106.7766483549
 20
193.7057997303
 30
0.0
 10
106.8340015528
 20
193.8111605505
 30
0.0
 10
106.8823128113
 20
193.888753122
 30
0.0
 10
106.9194847819
 20
193.942434239
 30
0.0
 10
106.9449275371
 20
193.9764149981
 30
0.0
 10
106.9686091857
 20
194.005776414
 30
0.0
 10
106.9900353762
 20
194.0306119293
 30
0.0
 10
107.0088504085
 20
194.0510009925
 30
0.0
 10
107.0229281187
 20
194.0651013274
 30
0.0
 10
107.0327032351
 20
194.0742190173
 30
0.0
 10
107.0387461682
 20
194.0796250685
 30
0.0
 10
107.0439333561
 20
194.0840814701
 30
0.0
 10
107.048226186
 20
194.0876543556
 30
0.0
 10
107.0515966879
 20
194.0903505425
 30
0.0
 10
107.0538312143
 20
194.092122723
 30
0.0
 10
107.0551379573
 20
194.0930644408
 30
0.0
 10
107.055763047
 20
194.0935992024
 30
0.0
 10
107.0561260062
 20
194.0937312955
 30
0.0
 10
107.0563073333
 20
194.0939913914
 30
0.0
 10
107.0563470759
 20
194.093958304
 30
0.0
  0
SPLINE
  5
4C4
100
AcDbEntity
  8
RUNDUNGEN
100
AcDbSpline
 62
9
  6
CONTINUOUS
 70
0
 71
3
 72
9
 73
5
 74
0
 42
0.0000001
 43
0.0000001
 44
0.0000000001
 40
0.0
 40
0.0
 40
0.0
 40
0.0
 40
0.5240458082
 40
1.0
 40
1.0
 40
1.0
 40
1.0
 10
106.6067577288
 20
193.6773274903
 30
0.0
 10
106.6306676197
 20
193.6675729478
 30
0.0
 10
106.674203426
 20
193.6433410201
 30
0.0
 10
106.7099504455
 20
193.6080358667
 30
0.0
 10
106.7232041991
 20
193.5886865167
 30
0.0
  0
SPLINE
  5
4C5
100
AcDbEntity
  8
RUNDUNGEN
100
AcDbSpline
 62
9
  6
CONTINUOUS
 70
0
 71
3
 72
26
 73
22
 74
0
 42
0.0000001
 43
0.0000001
 44
0.0000000001
 40
0.0
 40
0.0
 40
0.0
 40
0.0
 40
0.0002544116
 40
0.0010110351
 40
0.0022713138
 40
0.0040366404
 40
0.0090883409
 40
0.0161789363
 40
0.025322537
 40
0.0365316572
 40
0.0498165757
 40
0.0651908371
 40
0.1022687475
 40
0.1477774378
 40
0.2016155018
 40
0.263559229
 40
0.3332572797
 40
0.4103386779
 40
0.5846343546
 40
0.7824939916
 40
1.0
 40
1.0
 40
1.0
 40
1.0
 10
88.6172730352
 20
194.0939582951
 30
0.0
 10
88.6173127664
 20
194.0939914209
 30
0.0
 10
88.6174941802
 20
194.0937311627
 30
0.0
 10
88.6178570549
 20
194.0935989507
 30
0.0
 10
88.618482158
 20
194.0930638658
 30
0.0
 10
88.619788782
 20
194.0921216684
 30
0.0
 10
88.6220231862
 20
194.090348916
 30
0.0
 10
88.6253935733
 20
194.0876524212
 30
0.0
 10
88.6296864478
 20
194.0840798832
 30
0.0
 10
88.6348739374
 20
194.0796245903
 30
0.0
 10
88.6409172113
 20
194.074219879
 30
0.0
 10
88.6506930718
 20
194.0651035579
 30
0.0
 10
88.664770678
 20
194.05100249
 30
0.0
 10
88.6835837867
 20
194.0306107508
 30
0.0
 10
88.7050094316
 20
194.0057747147
 30
0.0
 10
88.7286926358
 20
193.9764157547
 30
0.0
 10
88.7541369256
 20
193.9424370724
 30
0.0
 10
88.7913075605
 20
193.8887544649
 30
0.0
 10
88.8396161697
 20
193.8111597471
 30
0.0
 10
88.8969716311
 20
193.7058001769
 30
0.0
 10
88.9328025757
 20
193.6292542393
 30
0.0
 10
88.950415717
 20
193.5886878293
 30
0.0
  0
LINE
  5
4C6
100
AcDbEntity
  8
RUNDUNGEN
100
AcDbLine
 62
9
  6
CONTINUOUS
 10
107.9723182215
 20
180.5955088292
 11
106.6286229787
 21
180.6091091625
  0
SPLINE
  5
4C7
100
AcDbEntity
  8
RUNDUNGEN
100
AcDbSpline
 62
9
  6
CONTINUOUS
 70
0
 71
3
 72
26
 73
22
 74
0
 42
0.0000001
 43
0.0000001
 44
0.0000000001
 40
0.0
 40
0.0
 40
0.0
 40
0.0
 40
0.0002623466
 40
0.0010321387
 40
0.0023116672
 40
0.0041032156
 40
0.0092320437
 40
0.016439459
 40
0.0257479264
 40
0.0371718871
 40
0.050718077
 40
0.0663961535
 40
0.1041873912
 40
0.1505159098
 40
0.2052564733
 40
0.2680847041
 40
0.3384988452
 40
0.4160025217
 40
0.5902388695
 40
0.7864042623
 40
1.0
 40
1.0
 40
1.0
 40
1.0
 10
88.7484041614
 20
194.2683553387
 30
0.0
 10
88.7484613166
 20
194.268370047
 30
0.0
 10
88.7486137783
 20
194.2680982307
 30
0.0
 10
88.7490212582
 20
194.2678633952
 30
0.0
 10
88.7496413682
 20
194.2672103172
 30
0.0
 10
88.7509840803
 20
194.2659766555
 30
0.0
 10
88.753239971
 20
194.2637140211
 30
0.0
 10
88.7566406366
 20
194.2602402727
 30
0.0
 10
88.7609401876
 20
194.2556505007
 30
0.0
 10
88.7661058361
 20
194.2499260529
 30
0.0
 10
88.7720870867
 20
194.2430078261
 30
0.0
 10
88.7817018313
 20
194.2313946481
 30
0.0
 10
88.7954005692
 20
194.2135985638
 30
0.0
 10
88.8135532245
 20
194.1881703559
 30
0.0
 10
88.8340785896
 20
194.1575354317
 30
0.0
 10
88.8566332921
 20
194.1217573989
 30
0.0
 10
88.8807717958
 20
194.0809455082
 30
0.0
 10
88.9159048777
 20
194.0175505153
 30
0.0
 10
88.9613815281
 20
193.9275912944
 30
0.0
 10
89.0155533576
 20
193.8078654236
 30
0.0
 10
89.0499293703
 20
193.722296521
 30
0.0
 10
89.0668621806
 20
193.6773285227
 30
0.0
  0
SPLINE
  5
4C8
100
AcDbEntity
  8
RUNDUNGEN
100
AcDbSpline
 62
9
  6
CONTINUOUS
 70
0
 71
3
 72
16
 73
12
 74
0
 42
0.0000001
 43
0.0000001
 44
0.0000000001
 40
0.0
 40
0.0
 40
0.0
 40
0.0
 40
0.0540284831
 40
0.111130687
 40
0.1704111659
 40
0.2312190154
 40
0.3558154122
 40
0.482774529
 40
0.6111068206
 40
0.7402575336
 40
1.0
 40
1.0
 40
1.0
 40
1.0
 10
89.0668618214
 20
193.6773293447
 30
0.0
 10
89.0901202717
 20
193.6155439203
 30
0.0
 10
89.1313933459
 20
193.4859660766
 30
0.0
 10
89.1806122715
 20
193.2835342329
 30
0.0
 10
89.2207287585
 20
193.0706935978
 30
0.0
 10
89.2649053547
 20
192.7749399268
 30
0.0
 10
89.3046369258
 20
192.3951805796
 30
0.0
 10
89.3380602172
 20
191.9321612612
 30
0.0
 10
89.3616500009
 20
191.4629716953
 30
0.0
 10
89.3850491465
 20
190.831390733
 30
0.0
 10
89.3958904384
 20
190.356298757
 30
0.0
 10
89.4018248112
 20
190.0389714046
 30
0.0
  0
SPLINE
  5
4C9
100
AcDbEntity
  8
RUNDUNGEN
100
AcDbSpline
 62
9
  6
CONTINUOUS
 70
0
 71
3
 72
16
 73
12
 74
0
 42
0.0000001
 43
0.0000001
 44
0.0000000001
 40
0.0
 40
0.0
 40
0.0
 40
0.0
 40
0.0539462936
 40
0.1110938335
 40
0.1704548205
 40
0.2313332916
 40
0.3560192045
 40
0.4829937619
 40
0.6113005796
 40
0.7403996621
 40
1.0
 40
1.0
 40
1.0
 40
1.0
 10
88.9504155617
 20
193.588687856
 30
0.0
 10
88.9740743084
 20
193.5284119736
 30
0.0
 10
89.0150699245
 20
193.4012379361
 30
0.0
 10
89.0623982188
 20
193.202072882
 30
0.0
 10
89.1000329799
 20
192.9924187409
 30
0.0
 10
89.1406497476
 20
192.7011981663
 30
0.0
 10
89.1759790543
 20
192.3275716724
 30
0.0
 10
89.2047830099
 20
191.8723715482
 30
0.0
 10
89.2241779907
 20
191.4113747184
 30
0.0
 10
89.2424377947
 20
190.7910630032
 30
0.0
 10
89.249798625
 20
190.3245379742
 30
0.0
 10
89.2534852926
 20
190.0129566325
 30
0.0
  0
SPLINE
  5
4CA
100
AcDbEntity
  8
RUNDUNGEN
100
AcDbSpline
 62
9
  6
CONTINUOUS
 70
0
 71
3
 72
9
 73
5
 74
0
 42
0.0000001
 43
0.0000001
 44
0.0000000001
 40
0.0
 40
0.0
 40
0.0
 40
0.0
 40
0.524046507
 40
1.0
 40
1.0
 40
1.0
 40
1.0
 10
89.0668618214
 20
193.6773293447
 30
0.0
 10
89.042951905
 20
193.6675747023
 30
0.0
 10
88.9994161355
 20
193.6433425989
 30
0.0
 10
88.9636692123
 20
193.6080372643
 30
0.0
 10
88.9504155617
 20
193.588687856
 30
0.0
  0
SPLINE
  5
4CB
100
AcDbEntity
  8
RUNDUNGEN
100
AcDbSpline
 62
9
  6
CONTINUOUS
 70
0
 71
3
 72
25
 73
21
 74
0
 42
0.0000001
 43
0.0000001
 44
0.0000000001
 40
0.0
 40
0.0
 40
0.0
 40
0.0
 40
0.136035327
 40
0.2714912809
 40
0.3389160396
 40
0.4060769844
 40
0.4728872763
 40
0.5392233632
 40
0.6049404191
 40
0.6697189092
 40
0.7331078354
 40
0.7942795826
 40
0.8236128646
 40
0.8517975904
 40
0.878600154
 40
0.9039238414
 40
0.9280324598
 40
0.9515889082
 40
0.9753904112
 40
1.0
 40
1.0
 40
1.0
 40
1.0
 10
89.4018331313
 20
190.0389716578
 30
0.0
 10
89.4084052229
 20
189.6762432219
 30
0.0
 10
89.4242237645
 20
188.9523769245
 30
0.0
 10
89.4529981756
 20
188.0489652027
 30
0.0
 10
89.4840195498
 20
187.3294610498
 30
0.0
 10
89.5119076219
 20
186.7930811299
 30
0.0
 10
89.5457719812
 20
186.259945713
 30
0.0
 10
89.5878624202
 20
185.7312503759
 30
0.0
 10
89.639435595
 20
185.2088248681
 30
0.0
 10
89.7054393342
 20
184.6958641064
 30
0.0
 10
89.7911206103
 20
184.1981024273
 30
0.0
 10
89.8870815829
 20
183.7983763185
 30
0.0
 10
89.9885409838
 20
183.4982805198
 30
0.0
 10
90.0780376216
 20
183.2916109115
 30
0.0
 10
90.1852802009
 20
183.1054848133
 30
0.0
 10
90.3137518147
 20
182.9465012976
 30
0.0
 10
90.4652565503
 20
182.8217750038
 30
0.0
 10
90.637781729
 20
182.7368400224
 30
0.0
 10
90.8254609401
 20
182.6911826101
 30
0.0
 10
90.9548550315
 20
182.6827924344
 30
0.0
 10
91.0204855037
 20
182.6827910239
 30
0.0
  0
SPLINE
  5
4CC
100
AcDbEntity
  8
RUNDUNGEN
100
AcDbSpline
 62
9
  6
CONTINUOUS
 70
0
 71
3
 72
24
 73
20
 74
0
 42
0.0000001
 43
0.0000001
 44
0.0000000001
 40
0.0
 40
0.0
 40
0.0
 40
0.0
 40
0.1367178637
 40
0.2728119096
 40
0.3405305354
 40
0.4079605929
 40
0.5415143392
 40
0.607335166
 40
0.6720877233
 40
0.7352649706
 40
0.7959015304
 40
0.8248278855
 40
0.852530598
 40
0.87884693
 40
0.9037976362
 40
0.9277436948
 40
0.951330131
 40
0.9752574427
 40
1.0
 40
1.0
 40
1.0
 40
1.0
 10
89.2534853084
 20
190.01295664
 30
0.0
 10
89.2577568262
 20
189.6402356648
 30
0.0
 10
89.2690997189
 20
188.8965228095
 30
0.0
 10
89.2928206709
 20
187.9683811534
 30
0.0
 10
89.3203979883
 20
187.2293717692
 30
0.0
 10
89.3544609673
 20
186.4975785058
 30
0.0
 10
89.4019948319
 20
185.7715606308
 30
0.0
 10
89.4714268142
 20
185.0547327018
 30
0.0
 10
89.5398110988
 20
184.530783979
 30
0.0
 10
89.6299237272
 20
184.0244542549
 30
0.0
 10
89.7336852253
 20
183.6202460897
 30
0.0
 10
89.8445502268
 20
183.3200246947
 30
0.0
 10
89.9423692097
 20
183.1156616103
 30
0.0
 10
90.0590066736
 20
182.9338293225
 30
0.0
 10
90.1970265146
 20
182.7806365415
 30
0.0
 10
90.3569473088
 20
182.6620429358
 30
0.0
 10
90.5360266552
 20
182.5816434517
 30
0.0
 10
90.7292074329
 20
182.5379893315
 30
0.0
 10
90.862157976
 20
182.5298514093
 30
0.0
 10
90.9296156982
 20
182.5298503112
 30
0.0
  0
SPLINE
  5
4CD
100
AcDbEntity
  8
RUNDUNGEN
100
AcDbSpline
 62
9
  6
CONTINUOUS
 70
0
 71
3
 72
10
 73
6
 74
0
 42
0.0000001
 43
0.0000001
 44
0.0000000001
 40
0.0
 40
0.0
 40
0.0
 40
0.0
 40
0.5578336568
 40
0.7985561318
 40
1.0
 40
1.0
 40
1.0
 40
1.0
 10
89.4018331313
 20
190.0389716578
 30
0.0
 10
89.3737283638
 20
190.038003391
 30
0.0
 10
89.333451363
 20
190.0343673924
 30
0.0
 10
89.2841156023
 20
190.0238213652
 30
0.0
 10
89.2628328433
 20
190.0169253854
 30
0.0
 10
89.2534853084
 20
190.01295664
 30
0.0
  0
SPLINE
  5
4CE
100
AcDbEntity
  8
RUNDUNGEN
100
AcDbSpline
 62
9
  6
CONTINUOUS
 70
0
 71
3
 72
11
 73
7
 74
0
 42
0.0000001
 43
0.0000001
 44
0.0000000001
 40
0.0
 40
0.0
 40
0.0
 40
0.0
 40
0.2310546522
 40
0.4736582464
 40
0.7296824174
 40
1.0
 40
1.0
 40
1.0
 40
1.0
 10
91.0204854324
 20
182.6827913009
 30
0.0
 10
91.0870007203
 20
182.6827934259
 30
0.0
 10
91.2235455948
 20
182.6918595131
 30
0.0
 10
91.4297492697
 20
182.7357953882
 30
0.0
 10
91.6373570441
 20
182.8151071887
 30
0.0
 10
91.7695795547
 20
182.8903780181
 30
0.0
 10
91.8345050313
 20
182.9332773324
 30
0.0
  0
SPLINE
  5
4CF
100
AcDbEntity
  8
RUNDUNGEN
100
AcDbSpline
 62
9
  6
CONTINUOUS
 70
0
 71
3
 72
11
 73
7
 74
0
 42
0.0000001
 43
0.0000001
 44
0.0000000001
 40
0.0
 40
0.0
 40
0.0
 40
0.0
 40
0.2250842062
 40
0.465887156
 40
0.7245959786
 40
1.0
 40
1.0
 40
1.0
 40
1.0
 10
90.9296157812
 20
182.5298502903
 30
0.0
 10
91.0265942886
 20
182.5298541408
 30
0.0
 10
91.2278420178
 20
182.5477441214
 30
0.0
 10
91.5295537972
 20
182.635777806
 30
0.0
 10
91.8264577398
 20
182.793045418
 30
0.0
 10
92.0081372927
 20
182.9361915697
 30
0.0
 10
92.0959226362
 20
183.0160270009
 30
0.0
  0
SPLINE
  5
4D0
100
AcDbEntity
  8
RUNDUNGEN
100
AcDbSpline
 62
9
  6
CONTINUOUS
 70
0
 71
3
 72
16
 73
12
 74
0
 42
0.0000001
 43
0.0000001
 44
0.0000000001
 40
0.0
 40
0.0
 40
0.0
 40
0.0
 40
0.1192614441
 40
0.2427387133
 40
0.305222749
 40
0.3679630967
 40
0.4939178626
 40
0.6202357446
 40
0.7467347383
 40
0.8733386992
 40
1.0
 40
1.0
 40
1.0
 40
1.0
 10
92.0959226362
 20
183.0160270009
 30
0.0
 10
92.2518366519
 20
183.1578213162
 30
0.0
 10
92.533442717
 20
183.4857254357
 30
0.0
 10
92.8227714025
 20
183.941812914
 30
0.0
 10
93.0334876796
 20
184.3275915398
 30
0.0
 10
93.2329388147
 20
184.7241956895
 30
0.0
 10
93.4616254835
 20
185.2319783802
 30
0.0
 10
93.7129755766
 20
185.8524178995
 30
0.0
 10
93.9487013102
 20
186.4801593217
 30
0.0
 10
94.1711402283
 20
187.1133444477
 30
0.0
 10
94.3133026885
 20
187.5377278434
 30
0.0
 10
94.3830841104
 20
187.7503965884
 30
0.0
  0
LINE
  5
4D1
100
AcDbEntity
  8
RUNDUNGEN
100
AcDbLine
 62
9
  6
CONTINUOUS
 10
94.4386216756
 20
187.920577115
 11
94.4405053644
 21
187.9263812799
  0
SPLINE
  5
4D2
100
AcDbEntity
  8
RUNDUNGEN
100
AcDbSpline
 62
9
  6
CONTINUOUS
 70
0
 71
3
 72
9
 73
5
 74
0
 42
0.0000001
 43
0.0000001
 44
0.0000000001
 40
0.0
 40
0.0
 40
0.0
 40
0.0
 40
0.4999538258
 40
1.0
 40
1.0
 40
1.0
 40
1.0
 10
94.4405053644
 20
187.9263812799
 30
0.0
 10
94.5527932511
 20
188.2724334965
 30
0.0
 10
94.7708728028
 20
188.9667213665
 30
0.0
 10
94.9798222881
 20
189.6637878592
 30
0.0
 10
95.082563989
 20
190.0128634259
 30
0.0
  0
SPLINE
  5
4D3
100
AcDbEntity
  8
RUNDUNGEN
100
AcDbSpline
 62
9
  6
CONTINUOUS
 70
0
 71
3
 72
10
 73
6
 74
0
 42
0.0000001
 43
0.0000001
 44
0.0000000001
 40
0.0
 40
0.0
 40
0.0
 40
0.0
 40
0.4594156465
 40
0.7224477664
 40
1.0
 40
1.0
 40
1.0
 40
1.0
 10
91.0204854324
 20
182.6827913009
 30
0.0
 10
90.9955086316
 20
182.669934832
 30
0.0
 10
90.9635080724
 20
182.6353010949
 30
0.0
 10
90.9389590105
 20
182.5792559977
 30
0.0
 10
90.9317319368
 20
182.5466890603
 30
0.0
 10
90.9296157812
 20
182.5298502903
 30
0.0
  0
SPLINE
  5
4D4
100
AcDbEntity
  8
RUNDUNGEN
100
AcDbSpline
 62
9
  6
CONTINUOUS
 70
0
 71
3
 72
16
 73
12
 74
0
 42
0.0000001
 43
0.0000001
 44
0.0000000001
 40
0.0
 40
0.0
 40
0.0
 40
0.0
 40
0.2514145033
 40
0.3770769034
 40
0.5026677969
 40
0.6281039276
 40
0.753196251
 40
0.8154985162
 40
0.8775121649
 40
0.9390838617
 40
1.0
 40
1.0
 40
1.0
 40
1.0
 10
94.9999724027
 20
190.0389707203
 30
0.0
 10
95.0939522386
 20
190.3570302605
 30
0.0
 10
95.237640658
 20
190.8332904206
 30
0.0
 10
95.4414604074
 20
191.4643032444
 30
0.0
 10
95.6027510824
 20
191.9343636919
 30
0.0
 10
95.7776541395
 20
192.3987475367
 30
0.0
 10
95.9400541475
 20
192.7784389538
 30
0.0
 10
96.0869924458
 20
193.0729247025
 30
0.0
 10
96.2074719922
 20
193.2866668249
 30
0.0
 10
96.3411315551
 20
193.4903152191
 30
0.0
 10
96.4415568168
 20
193.6173364484
 30
0.0
 10
96.4950199667
 20
193.6773283448
 30
0.0
  0
SPLINE
  5
4D5
100
AcDbEntity
  8
RUNDUNGEN
100
AcDbSpline
 62
9
  6
CONTINUOUS
 70
0
 71
3
 72
16
 73
12
 74
0
 42
0.0000001
 43
0.0000001
 44
0.0000000001
 40
0.0
 40
0.0
 40
0.0
 40
0.0
 40
0.2513520078
 40
0.3769952804
 40
0.5025816507
 40
0.6280374559
 40
0.7531876003
 40
0.8155332598
 40
0.8775913944
 40
0.939178073
 40
1.0
 40
1.0
 40
1.0
 40
1.0
 10
95.0825639691
 20
190.012863432
 30
0.0
 10
95.1746589287
 20
190.3251653883
 30
0.0
 10
95.315407695
 20
190.7928394066
 30
0.0
 10
95.5148169722
 20
191.4126037836
 30
0.0
 10
95.67239402
 20
191.8744654886
 30
0.0
 10
95.8430888375
 20
192.330973965
 30
0.0
 10
96.0011486446
 20
192.7045865705
 30
0.0
 10
96.1442248168
 20
192.9945780376
 30
0.0
 10
96.2615879208
 20
193.2051560222
 30
0.0
 10
96.3921248765
 20
193.405557941
 30
0.0
 10
96.4907890208
 20
193.5301867234
 30
0.0
 10
96.5435649649
 20
193.5886865502
 30
0.0
  0
SPLINE
  5
4D6
100
AcDbEntity
  8
RUNDUNGEN
100
AcDbSpline
 62
9
  6
CONTINUOUS
 70
0
 71
3
 72
11
 73
7
 74
0
 42
0.0000001
 43
0.0000001
 44
0.0000000001
 40
0.0
 40
0.0
 40
0.0
 40
0.0
 40
0.099524781
 40
0.3068391969
 40
0.6122122875
 40
1.0
 40
1.0
 40
1.0
 40
1.0
 10
94.9999724027
 20
190.0389707203
 30
0.0
 10
95.0025968215
 20
190.0377995765
 30
0.0
 10
95.0110751451
 20
190.0351424792
 30
0.0
 10
95.0278480526
 20
190.0296144835
 30
0.0
 10
95.0527132182
 20
190.0219751018
 30
0.0
 10
95.0718482435
 20
190.0161134626
 30
0.0
 10
95.0825639691
 20
190.012863432
 30
0.0
  0
SPLINE
  5
4D7
100
AcDbEntity
  8
RUNDUNGEN
100
AcDbSpline
 62
9
  6
CONTINUOUS
 70
0
 71
3
 72
13
 73
9
 74
0
 42
0.0000001
 43
0.0000001
 44
0.0000000001
 40
0.0
 40
0.0
 40
0.0
 40
0.0
 40
0.2460427534
 40
0.369372154
 40
0.4933775707
 40
0.618421431
 40
0.7447119723
 40
1.0
 40
1.0
 40
1.0
 40
1.0
 10
96.495021064
 20
193.6773275051
 30
0.0
 10
96.577761247
 20
193.7701630033
 30
0.0
 10
96.7143097293
 20
193.8997105755
 30
0.0
 10
96.9209045163
 20
194.0401522041
 30
0.0
 10
97.0883178958
 20
194.1271733556
 30
0.0
 10
97.266450957
 20
194.1937941424
 30
0.0
 10
97.5157862187
 20
194.2542906276
 30
0.0
 10
97.7096170166
 20
194.2684627986
 30
0.0
 10
97.8386455615
 20
194.2683547079
 30
0.0
  0
SPLINE
  5
4D8
100
AcDbEntity
  8
RUNDUNGEN
100
AcDbSpline
 62
9
  6
CONTINUOUS
 70
0
 71
3
 72
12
 73
8
 74
0
 42
0.0000001
 43
0.0000001
 44
0.0000000001
 40
0.0
 40
0.0
 40
0.0
 40
0.0
 40
0.2451589826
 40
0.4914027182
 40
0.7429210421
 40
0.8710396878
 40
1.0
 40
1.0
 40
1.0
 40
1.0
 10
96.5435650726
 20
193.5886865206
 30
0.0
 10
96.6248110038
 20
193.672554469
 30
0.0
 10
96.8040624872
 20
193.826074256
 30
0.0
 10
97.1204573209
 20
193.9915970938
 30
0.0
 10
97.4120326017
 20
194.0648752321
 30
0.0
 10
97.6531000688
 20
194.0902013388
 30
0.0
 10
97.7756123672
 20
194.0939783227
 30
0.0
 10
97.8370354458
 20
194.0939586137
 30
0.0
  0
SPLINE
  5
4D9
100
AcDbEntity
  8
RUNDUNGEN
100
AcDbSpline
 62
9
  6
CONTINUOUS
 70
0
 71
3
 72
10
 73
6
 74
0
 42
0.0000001
 43
0.0000001
 44
0.0000000001
 40
0.0
 40
0.0
 40
0.0
 40
0.0
 40
0.1718112127
 40
0.398485975
 40
1.0
 40
1.0
 40
1.0
 40
1.0
 10
96.495021064
 20
193.6773275051
 30
0.0
 10
96.4953393237
 20
193.6714849342
 30
0.0
 10
96.4988752658
 20
193.6581538616
 30
0.0
 10
96.5136605417
 20
193.6274256809
 30
0.0
 10
96.5305735345
 20
193.6045252733
 30
0.0
 10
96.5435650726
 20
193.5886865206
 30
0.0
  0
SPLINE
  5
4DA
100
AcDbEntity
  8
RUNDUNGEN
100
AcDbSpline
 62
9
  6
CONTINUOUS
 70
0
 71
3
 72
13
 73
9
 74
0
 42
0.0000001
 43
0.0000001
 44
0.0000000001
 40
0.0
 40
0.0
 40
0.0
 40
0.0
 40
0.2552656605
 40
0.3815245879
 40
0.5065565249
 40
0.6305478402
 40
0.7539032079
 40
1.0
 40
1.0
 40
1.0
 40
1.0
 10
97.8386455609
 20
194.2683561026
 30
0.0
 10
97.9673480725
 20
194.2672219233
 30
0.0
 10
98.1606450942
 20
194.2540261969
 30
0.0
 10
98.4093360684
 20
194.1932954665
 30
0.0
 10
98.5868099663
 20
194.1263595156
 30
0.0
 10
98.7538052601
 20
194.0395310171
 30
0.0
 10
98.9598148771
 20
193.8992271334
 30
0.0
 10
99.096040245
 20
193.7699570152
 30
0.0
 10
99.1786001211
 20
193.6773242812
 30
0.0
  0
SPLINE
  5
4DB
100
AcDbEntity
  8
RUNDUNGEN
100
AcDbSpline
 62
9
  6
CONTINUOUS
 70
0
 71
3
 72
12
 73
8
 74
0
 42
0.0000001
 43
0.0000001
 44
0.0000000001
 40
0.0
 40
0.0
 40
0.0
 40
0.0
 40
0.1289552226
 40
0.2570480225
 40
0.5085285446
 40
0.754794914
 40
1.0
 40
1.0
 40
1.0
 40
1.0
 10
97.8370354937
 20
194.0939651701
 30
0.0
 10
97.8984340618
 20
194.0934740122
 30
0.0
 10
98.0208508708
 20
194.0895175253
 30
0.0
 10
98.2619212702
 20
194.06517151
 30
0.0
 10
98.5533254752
 20
193.9914491995
 30
0.0
 10
98.8696361862
 20
193.8260920929
 30
0.0
 10
99.0488200877
 20
193.6725370585
 30
0.0
 10
99.1300566187
 20
193.5886827096
 30
0.0
  0
LINE
  5
4DC
100
AcDbEntity
  8
RUNDUNGEN
100
AcDbLine
 62
9
  6
CONTINUOUS
 10
97.8386455609
 20
194.2683561026
 11
97.8370354937
 21
194.0939651701
  0
SPLINE
  5
4DD
100
AcDbEntity
  8
RUNDUNGEN
100
AcDbSpline
 62
9
  6
CONTINUOUS
 70
0
 71
3
 72
16
 73
12
 74
0
 42
0.0000001
 43
0.0000001
 44
0.0000000001
 40
0.0
 40
0.0
 40
0.0
 40
0.0
 40
0.0608216583
 40
0.1224077464
 40
0.1844662973
 40
0.2468121798
 40
0.3719624585
 40
0.4974182759
 40
0.6230046569
 40
0.7486480067
 40
1.0
 40
1.0
 40
1.0
 40
1.0
 10
99.1300561521
 20
193.5886825815
 30
0.0
 10
99.182833217
 20
193.5301815172
 30
0.0
 10
99.2815003108
 20
193.4055513076
 30
0.0
 10
99.4120396459
 20
193.205144232
 30
0.0
 10
99.5294048999
 20
192.9945603052
 30
0.0
 10
99.6724830454
 20
192.7045594833
 30
0.0
 10
99.8305471086
 20
192.3309367894
 30
0.0
 10
100.001238996
 20
191.8744138835
 30
0.0
 10
100.1588349595
 20
191.4125450122
 30
0.0
 10
100.3581992832
 20
190.7927491594
 30
0.0
 10
100.4990789148
 20
190.3251009935
 30
0.0
 10
100.5910921768
 20
190.0127662844
 30
0.0
  0
SPLINE
  5
4DE
100
AcDbEntity
  8
RUNDUNGEN
100
AcDbSpline
 62
9
  6
CONTINUOUS
 70
0
 71
3
 72
10
 73
6
 74
0
 42
0.0000001
 43
0.0000001
 44
0.0000000001
 40
0.0
 40
0.0
 40
0.0
 40
0.0
 40
0.1718119749
 40
0.3984871096
 40
1.0
 40
1.0
 40
1.0
 40
1.0
 10
99.1786008066
 20
193.677324806
 30
0.0
 10
99.1782825096
 20
193.6714821305
 30
0.0
 10
99.1747465
 20
193.6581508475
 30
0.0
 10
99.1599610571
 20
193.627422224
 30
0.0
 10
99.1430478635
 20
193.6045215064
 30
0.0
 10
99.1300561521
 20
193.5886825815
 30
0.0
  0
SPLINE
  5
4DF
100
AcDbEntity
  8
RUNDUNGEN
100
AcDbSpline
 62
9
  6
CONTINUOUS
 70
0
 71
3
 72
16
 73
12
 74
0
 42
0.0000001
 43
0.0000001
 44
0.0000000001
 40
0.0
 40
0.0
 40
0.0
 40
0.0
 40
0.0609159644
 40
0.1224870281
 40
0.1845010495
 40
0.2468035752
 40
0.3718960406
 40
0.4973321907
 40
0.6229230944
 40
0.7485855592
 40
1.0
 40
1.0
 40
1.0
 40
1.0
 10
99.1786008066
 20
193.677324806
 30
0.0
 10
99.2320666151
 20
193.6173302522
 30
0.0
 10
99.3324966854
 20
193.4903039244
 30
0.0
 10
99.4661617742
 20
193.2866453567
 30
0.0
 10
99.5866455826
 20
193.072891647
 30
0.0
 10
99.7335878963
 20
192.7783885687
 30
0.0
 10
99.8959955434
 20
192.3986774898
 30
0.0
 10
100.0708986988
 20
191.9342673469
 30
0.0
 10
100.2322095973
 20
191.4641874003
 30
0.0
 10
100.4359908087
 20
190.8331282007
 30
0.0
 10
100.5798111879
 20
190.3568816818
 30
0.0
 10
100.6737111255
 20
190.0387814943
 30
0.0
  0
SPLINE
  5
4E0
100
AcDbEntity
  8
RUNDUNGEN
100
AcDbSpline
 62
9
  6
CONTINUOUS
 70
0
 71
3
 72
9
 73
5
 74
0
 42
0.0000001
 43
0.0000001
 44
0.0000000001
 40
0.0
 40
0.0
 40
0.0
 40
0.0
 40
0.500071536
 40
1.0
 40
1.0
 40
1.0
 40
1.0
 10
100.6737045327
 20
190.038779565
 30
0.0
 10
100.7851879825
 20
189.660747114
 30
0.0
 10
101.0120575782
 20
188.9059442694
 30
0.0
 10
101.2496000909
 20
188.1543983471
 30
0.0
 10
101.3723048506
 20
187.7799764415
 30
0.0
  0
SPLINE
  5
4E1
100
AcDbEntity
  8
RUNDUNGEN
100
AcDbSpline
 62
9
  6
CONTINUOUS
 70
0
 71
3
 72
9
 73
5
 74
0
 42
0.0000001
 43
0.0000001
 44
0.0000000001
 40
0.0
 40
0.0
 40
0.0
 40
0.0
 40
0.5000467706
 40
1.0
 40
1.0
 40
1.0
 40
1.0
 10
100.591085202
 20
190.0127641746
 30
0.0
 10
100.694118919
 20
189.6627027048
 30
0.0
 10
100.9036719887
 20
188.9636713221
 30
0.0
 10
101.1224000633
 20
188.2674322361
 30
0.0
 10
101.2350439962
 20
187.9204156519
 30
0.0
  0
SPLINE
  5
4E2
100
AcDbEntity
  8
RUNDUNGEN
100
AcDbSpline
 62
9
  6
CONTINUOUS
 70
0
 71
3
 72
18
 73
14
 74
0
 42
0.0000001
 43
0.0000001
 44
0.0000000001
 40
0.0
 40
0.0
 40
0.0
 40
0.0
 40
0.1266558933
 40
0.2532544611
 40
0.3797493238
 40
0.4429375302
 40
0.5060669936
 40
0.5691103816
 40
0.6320283021
 40
0.6947714776
 40
0.7572587774
 40
0.8807432375
 40
1.0
 40
1.0
 40
1.0
 40
1.0
 10
101.2814619672
 20
187.7780598371
 30
0.0
 10
101.3515278778
 20
187.5641541564
 30
0.0
 10
101.4942607385
 20
187.1372953215
 30
0.0
 10
101.7176160753
 20
186.5004174052
 30
0.0
 10
101.9147207075
 20
185.9739592143
 30
0.0
 10
102.0806629095
 20
185.5564227919
 30
0.0
 10
102.2096701987
 20
185.2455894934
 30
0.0
 10
102.3444017332
 20
184.9377054495
 30
0.0
 10
102.4863683533
 20
184.6338371843
 30
0.0
 10
102.6362448865
 20
184.3348762703
 30
0.0
 10
102.8479162326
 20
183.9467415014
 30
0.0
 10
103.1384585383
 20
183.4877761544
 30
0.0
 10
103.4215980609
 20
183.1578952279
 30
0.0
 10
103.5784416998
 20
183.0153531093
 30
0.0
  0
SPLINE
  5
4E3
100
AcDbEntity
  8
RUNDUNGEN
100
AcDbSpline
 62
9
  6
CONTINUOUS
 70
0
 71
3
 72
11
 73
7
 74
0
 42
0.0000001
 43
0.0000001
 44
0.0000000001
 40
0.0
 40
0.0
 40
0.0
 40
0.0
 40
0.2753950021
 40
0.5340953195
 40
0.7749000094
 40
1.0
 40
1.0
 40
1.0
 40
1.0
 10
103.5784416998
 20
183.0153531093
 30
0.0
 10
103.6661833762
 20
182.9356120082
 30
0.0
 10
103.8477720564
 20
182.7926501191
 30
0.0
 10
104.1445002186
 20
182.6356264124
 30
0.0
 10
104.4459950416
 20
182.5477201343
 30
0.0
 10
104.6470940747
 20
182.529851887
 30
0.0
 10
104.7440042835
 20
182.5298503112
 30
0.0
  0
SPLINE
  5
4E4
100
AcDbEntity
  8
RUNDUNGEN
100
AcDbSpline
 62
9
  6
CONTINUOUS
 70
0
 71
3
 72
11
 73
7
 74
0
 42
0.0000001
 43
0.0000001
 44
0.0000000001
 40
0.0
 40
0.0
 40
0.0
 40
0.0
 40
0.0994979366
 40
0.3068062574
 40
0.6121893859
 40
1.0
 40
1.0
 40
1.0
 40
1.0
 10
100.6737045327
 20
190.038779565
 30
0.0
 10
100.6710756556
 20
190.0376205207
 30
0.0
 10
100.6625968706
 20
190.034973434
 30
0.0
 10
100.6458158812
 20
190.0294699239
 30
0.0
 10
100.6209443886
 20
190.0218522325
 30
0.0
 10
100.6018037877
 20
190.0160062988
 30
0.0
 10
100.591085202
 20
190.0127641746
 30
0.0
  0
SPLINE
  5
4E5
100
AcDbEntity
  8
RUNDUNGEN
100
AcDbSpline
 62
9
  6
CONTINUOUS
 70
0
 71
3
 72
11
 73
7
 74
0
 42
0.0000001
 43
0.0000001
 44
0.0000000001
 40
0.0
 40
0.0
 40
0.0
 40
0.0
 40
0.1990253582
 40
0.4347657101
 40
0.7032627471
 40
1.0
 40
1.0
 40
1.0
 40
1.0
 10
106.6286230334
 20
180.6091091712
 30
0.0
 10
106.3777374993
 20
180.6116022197
 30
0.0
 10
105.8296750635
 20
180.6164435975
 30
0.0
 10
104.9431140679
 20
180.6173502388
 30
0.0
 10
103.9333785881
 20
180.6159036526
 30
0.0
 10
103.2208386651
 20
180.6112606926
 30
0.0
 10
102.8467680998
 20
180.6091091739
 30
0.0
  0
SPLINE
  5
4E6
100
AcDbEntity
  8
RUNDUNGEN
100
AcDbSpline
 62
9
  6
CONTINUOUS
 70
0
 71
3
 72
11
 73
7
 74
0
 42
0.0000001
 43
0.0000001
 44
0.0000000001
 40
0.0
 40
0.0
 40
0.0
 40
0.0
 40
0.2321550066
 40
0.4758678205
 40
0.734049389
 40
1.0
 40
1.0
 40
1.0
 40
1.0
 10
106.4570617293
 20
180.3819685115
 30
0.0
 10
106.4816922323
 20
180.3819685049
 30
0.0
 10
106.5329114979
 20
180.3951176568
 30
0.0
 10
106.5929644327
 20
180.4485086749
 30
0.0
 10
106.6282801003
 20
180.5241125103
 30
0.0
 10
106.6319459044
 20
180.5810894635
 30
0.0
 10
106.6286230334
 20
180.6091091712
 30
0.0
  0
SPLINE
  5
4E7
100
AcDbEntity
  8
RUNDUNGEN
100
AcDbSpline
 62
9
  6
CONTINUOUS
 70
0
 71
3
 72
13
 73
9
 74
0
 42
0.0000001
 43
0.0000001
 44
0.0000000001
 40
0.0
 40
0.0
 40
0.0
 40
0.0
 40
0.0805898908
 40
0.1709848504
 40
0.276629858
 40
0.3990628748
 40
0.6853890755
 40
1.0
 40
1.0
 40
1.0
 40
1.0
 10
102.74762113
 20
180.3819685115
 30
0.0
 10
102.7548381067
 20
180.3819685132
 30
0.0
 10
102.7702676513
 20
180.3855206202
 30
0.0
 10
102.7909153034
 20
180.3999586298
 30
0.0
 10
102.8091032218
 20
180.4222644256
 30
0.0
 10
102.8305839289
 20
180.4632648172
 30
0.0
 10
102.8467254619
 20
180.5268229882
 30
0.0
 10
102.8486944449
 20
180.581001096
 30
0.0
 10
102.846768058
 20
180.6091091624
 30
0.0
  0
SPLINE
  5
4E8
100
AcDbEntity
  8
RUNDUNGEN
100
AcDbSpline
 62
9
  6
CONTINUOUS
 70
0
 71
3
 72
11
 73
7
 74
0
 42
0.0000001
 43
0.0000001
 44
0.0000000001
 40
0.0
 40
0.0
 40
0.0
 40
0.0
 40
0.2967378325
 40
0.5652348188
 40
0.8009750588
 40
1.0
 40
1.0
 40
1.0
 40
1.0
 10
92.8268518902
 20
180.6091091712
 30
0.0
 10
92.4527805919
 20
180.6112607285
 30
0.0
 10
91.7402399997
 20
180.6159041479
 30
0.0
 10
90.7305039846
 20
180.6173502976
 30
0.0
 10
89.8439437164
 20
180.6164430711
 30
0.0
 10
89.2958819401
 20
180.6116021801
 30
0.0
 10
89.0449969296
 20
180.6091091739
 30
0.0
  0
SPLINE
  5
4E9
100
AcDbEntity
  8
RUNDUNGEN
100
AcDbSpline
 62
9
  6
CONTINUOUS
 70
0
 71
3
 72
13
 73
9
 74
0
 42
0.0000001
 43
0.0000001
 44
0.0000000001
 40
0.0
 40
0.0
 40
0.0
 40
0.0
 40
0.0805899507
 40
0.1709849422
 40
0.2766299563
 40
0.3990629621
 40
0.6853891142
 40
1.0
 40
1.0
 40
1.0
 40
1.0
 10
92.9259988502
 20
180.3819685115
 30
0.0
 10
92.9187818658
 20
180.3819685081
 30
0.0
 10
92.9033523052
 20
180.3855206042
 30
0.0
 10
92.8827046261
 20
180.3999586055
 30
0.0
 10
92.8645166863
 20
180.4222643997
 30
0.0
 10
92.8430359609
 20
180.4632647937
 30
0.0
 10
92.8268944302
 20
180.5268229806
 30
0.0
 10
92.824925479
 20
180.581001101
 30
0.0
 10
92.8268518902
 20
180.6091091712
 30
0.0
  0
LINE
  5
4EA
100
AcDbEntity
  8
RUNDUNGEN
100
AcDbLine
 62
9
  6
CONTINUOUS
 10
89.044997002
 20
180.6091091624
 11
87.7013017513
 21
180.595508829
  0
SPLINE
  5
4EB
100
AcDbEntity
  8
RUNDUNGEN
100
AcDbSpline
 62
9
  6
CONTINUOUS
 70
0
 71
3
 72
11
 73
7
 74
0
 42
0.0000001
 43
0.0000001
 44
0.0000000001
 40
0.0
 40
0.0
 40
0.0
 40
0.0
 40
0.2321550577
 40
0.4758678834
 40
0.7340494211
 40
1.0
 40
1.0
 40
1.0
 40
1.0
 10
89.2165582508
 20
180.3819685115
 30
0.0
 10
89.1919277453
 20
180.3819685147
 30
0.0
 10
89.1407084846
 20
180.3951176777
 30
0.0
 10
89.0806555558
 20
180.4485086927
 30
0.0
 10
89.0453399028
 20
180.5241125202
 30
0.0
 10
89.0416741194
 20
180.581089463
 30
0.0
 10
89.044997002
 20
180.6091091624
 30
0.0
  0
SPLINE
  5
4EC
100
AcDbEntity
  8
0
100
AcDbSpline
 62
7
  6
CONTINUOUS
 70
0
 71
3
 72
21
 73
17
 74
0
 42
0.0000001
 43
0.0000001
 44
0.0000000001
 40
0.0
 40
0.0
 40
0.0
 40
0.0
 40
0.0625
 40
0.125
 40
0.1875
 40
0.25
 40
0.3125
 40
0.375
 40
0.5
 40
0.625
 40
0.6875
 40
0.75
 40
0.8125
 40
0.875
 40
0.9375
 40
1.0
 40
1.0
 40
1.0
 40
1.0
 10
97.8368099901
 20
136.5819685115
 30
0.0
 10
98.0462477102
 20
136.5819685115
 30
0.0
 10
98.4651231506
 20
136.7328096655
 30
0.0
 10
99.0692915306
 20
137.4028977882
 30
0.0
 10
99.6260925688
 20
138.4910670684
 30
0.0
 10
100.1141466084
 20
139.9554782237
 30
0.0
 10
100.5146311368
 20
141.7399350667
 30
0.0
 10
100.9116634093
 20
144.4541046053
 30
0.0
 10
101.1202410439
 20
148.2819685115
 30
0.0
 10
100.9116634093
 20
152.1098324177
 30
0.0
 10
100.5146311368
 20
154.8240019563
 30
0.0
 10
100.1141466084
 20
156.6084587994
 30
0.0
 10
99.6260925688
 20
158.0728699546
 30
0.0
 10
99.0692915306
 20
159.1610392348
 30
0.0
 10
98.4651231506
 20
159.8311273575
 30
0.0
 10
98.0462477102
 20
159.9819685115
 30
0.0
 10
97.8368099901
 20
159.9819685115
 30
0.0
  0
SPLINE
  5
4ED
100
AcDbEntity
  8
0
100
AcDbSpline
 62
7
  6
CONTINUOUS
 70
0
 71
3
 72
9
 73
5
 74
0
 42
0.0000001
 43
0.0000001
 44
0.0000000001
 40
0.0
 40
0.0
 40
0.0
 40
0.0
 40
0.1891586918
 40
1.0
 40
1.0
 40
1.0
 40
1.0
 10
98.1954185698
 20
144.9539551349
 30
0.0
 10
98.1770634577
 20
144.9463639961
 30
0.0
 10
98.0742324102
 20
144.9205710057
 30
0.0
 10
97.966590664
 20
144.9354496864
 30
0.0
 10
97.8828876656
 20
144.9510465184
 30
0.0
  0
SPLINE
  5
4EE
100
AcDbEntity
  8
0
100
AcDbSpline
 62
7
  6
CONTINUOUS
 70
0
 71
3
 72
24
 73
20
 74
0
 42
0.0000001
 43
0.0000001
 44
0.0000000001
 40
0.0
 40
0.0
 40
0.0
 40
0.0
 40
0.1058819536
 40
0.1817835354
 40
0.2749824195
 40
0.3285772598
 40
0.3869265351
 40
0.4501049455
 40
0.4835240148
 40
0.5181701699
 40
0.5528838848
 40
0.5861669734
 40
0.6484705255
 40
0.705156097
 40
0.7563207956
 40
0.8430874985
 40
0.9107623415
 40
0.9589102316
 40
1.0
 40
1.0
 40
1.0
 40
1.0
 10
98.1954185698
 20
147.5383109305
 30
0.0
 10
98.2717400573
 20
147.4781752693
 30
0.0
 10
98.3662278911
 20
147.3309195075
 30
0.0
 10
98.4447969374
 20
147.0916746492
 30
0.0
 10
98.4816548618
 20
146.8897882201
 30
0.0
 10
98.5032615364
 20
146.702823349
 30
0.0
 10
98.5152118174
 20
146.5424989415
 30
0.0
 10
98.5210082176
 20
146.400407933
 30
0.0
 10
98.5233581932
 20
146.2799868774
 30
0.0
 10
98.5239327389
 20
146.1856675598
 30
0.0
 10
98.5233612157
 20
146.0914727526
 30
0.0
 10
98.5210247601
 20
145.9719181074
 30
0.0
 10
98.5152781031
 20
145.8322750025
 30
0.0
 10
98.5033928526
 20
145.6765364421
 30
0.0
 10
98.4819731329
 20
145.499176589
 30
0.0
 10
98.4458780603
 20
145.3136385755
 30
0.0
 10
98.3821876847
 20
145.137324209
 30
0.0
 10
98.2984428085
 20
145.0179666397
 30
0.0
 10
98.2301131742
 20
144.9687245098
 30
0.0
 10
98.1954185698
 20
144.9539551349
 30
0.0
  0
SPLINE
  5
4EF
100
AcDbEntity
  8
0
100
AcDbSpline
 62
7
  6
CONTINUOUS
 70
0
 71
3
 72
9
 73
5
 74
0
 42
0.0000001
 43
0.0000001
 44
0.0000000001
 40
0.0
 40
0.0
 40
0.0
 40
0.0
 40
0.3017450471
 40
1.0
 40
1.0
 40
1.0
 40
1.0
 10
97.8829005274
 20
147.6566228175
 30
0.0
 10
97.9160888301
 20
147.6504513133
 30
0.0
 10
98.0247849872
 20
147.6264617294
 30
0.0
 10
98.1339878429
 20
147.5865643873
 30
0.0
 10
98.1954185698
 20
147.5383109305
 30
0.0
  0
SPLINE
  5
4F0
100
AcDbEntity
  8
0
100
AcDbSpline
 62
7
  6
CONTINUOUS
 70
0
 71
3
 72
10
 73
6
 74
0
 42
0.0000001
 43
0.0000001
 44
0.0000000001
 40
0.0
 40
0.0
 40
0.0
 40
0.0
 40
0.0349096905
 40
0.4558401875
 40
1.0
 40
1.0
 40
1.0
 40
1.0
 10
97.8368099901
 20
152.9313529888
 30
0.0
 10
97.8400336158
 20
152.9245967469
 30
0.0
 10
97.8812655152
 20
152.8375670575
 30
0.0
 10
97.9552513032
 20
152.7029313486
 30
0.0
 10
97.9109457096
 20
152.1899675116
 30
0.0
 10
97.9704388454
 20
152.2929309032
 30
0.0
  0
SPLINE
  5
4F1
100
AcDbEntity
  8
0
100
AcDbSpline
 62
7
  6
CONTINUOUS
 70
0
 71
3
 72
21
 73
17
 74
0
 42
0.0000001
 43
0.0000001
 44
0.0000000001
 40
0.0
 40
0.0
 40
0.0
 40
0.0
 40
0.0625
 40
0.125
 40
0.1875
 40
0.25
 40
0.3125
 40
0.375
 40
0.5
 40
0.625
 40
0.6875
 40
0.75
 40
0.8125
 40
0.875
 40
0.9375
 40
1.0
 40
1.0
 40
1.0
 40
1.0
 10
97.8368099901
 20
160.2819685114
 30
0.0
 10
98.0658824965
 20
160.2819685114
 30
0.0
 10
98.5240275094
 20
160.1272596356
 30
0.0
 10
99.184836675
 20
159.4399897661
 30
0.0
 10
99.7938378106
 20
158.3239187095
 30
0.0
 10
100.3276469164
 20
156.8219585503
 30
0.0
 10
100.7656768693
 20
154.9917464036
 30
0.0
 10
101.1999309174
 20
152.2079827743
 30
0.0
 10
101.4280627052
 20
148.2819685115
 30
0.0
 10
101.1999309174
 20
144.3559542487
 30
0.0
 10
100.7656768693
 20
141.5721906194
 30
0.0
 10
100.3276469164
 20
139.7419784727
 30
0.0
 10
99.7938378106
 20
138.2400183134
 30
0.0
 10
99.184836675
 20
137.1239472569
 30
0.0
 10
98.5240275094
 20
136.4366773874
 30
0.0
 10
98.0658824965
 20
136.2819685115
 30
0.0
 10
97.8368099901
 20
136.2819685115
 30
0.0
  0
SPLINE
  5
4F2
100
AcDbEntity
  8
0
100
AcDbSpline
 62
7
  6
CONTINUOUS
 70
0
 71
3
 72
9
 73
5
 74
0
 42
0.0000001
 43
0.0000001
 44
0.0000000001
 40
0.0
 40
0.0
 40
0.0
 40
0.0
 40
0.1905329466
 40
1.0
 40
1.0
 40
1.0
 40
1.0
 10
98.0265798137
 20
146.7892449
 30
0.0
 10
98.0151897564
 20
146.7944087178
 30
0.0
 10
97.9535797095
 20
146.8173839892
 30
0.0
 10
97.8890532325
 20
146.8310533435
 30
0.0
 10
97.8368099901
 20
146.8408702253
 30
0.0
  0
SPLINE
  5
4F3
100
AcDbEntity
  8
0
100
AcDbSpline
 62
7
  6
CONTINUOUS
 70
0
 71
3
 72
21
 73
17
 74
0
 42
0.0000001
 43
0.0000001
 44
0.0000000001
 40
0.0
 40
0.0
 40
0.0
 40
0.0
 40
0.0477465592
 40
0.091921783
 40
0.1524530835
 40
0.2369667976
 40
0.3460518987
 40
0.4091328979
 40
0.4780222504
 40
0.5474262546
 40
0.6118674582
 40
0.7266551703
 40
0.8203795299
 40
0.8931271877
 40
0.9457868622
 40
1.0
 40
1.0
 40
1.0
 40
1.0
 10
98.0265798137
 20
145.7671674256
 30
0.0
 10
98.0453229409
 20
145.7690222143
 30
0.0
 10
98.081232549
 20
145.7763719068
 30
0.0
 10
98.1352898072
 20
145.8057168062
 30
0.0
 10
98.17931165
 20
145.8690437658
 30
0.0
 10
98.2071561179
 20
145.9660326743
 30
0.0
 10
98.221534349
 20
146.0664441463
 30
0.0
 10
98.2275188429
 20
146.1613822118
 30
0.0
 10
98.2289820517
 20
146.2408251061
 30
0.0
 10
98.2275074499
 20
146.3208095145
 30
0.0
 10
98.2213729047
 20
146.4187153025
 30
0.0
 10
98.2068685438
 20
146.5256586541
 30
0.0
 10
98.1774079883
 20
146.6330630331
 30
0.0
 10
98.1354027745
 20
146.7103027859
 30
0.0
 10
98.082522453
 20
146.7586630683
 30
0.0
 10
98.0459241569
 20
146.7801268633
 30
0.0
 10
98.0265798137
 20
146.7892449
 30
0.0
  0
SPLINE
  5
4F4
100
AcDbEntity
  8
0
100
AcDbSpline
 62
7
  6
CONTINUOUS
 70
0
 71
3
 72
9
 73
5
 74
0
 42
0.0000001
 43
0.0000001
 44
0.0000000001
 40
0.0
 40
0.0
 40
0.0
 40
0.0
 40
0.1429760991
 40
1.0
 40
1.0
 40
1.0
 40
1.0
 10
97.8702401189
 20
145.7804470989
 30
0.0
 10
97.8776218235
 20
145.7792395069
 30
0.0
 10
97.929334963
 20
145.7710077707
 30
0.0
 10
97.9818791465
 20
145.7636932805
 30
0.0
 10
98.0265798137
 20
145.7671674256
 30
0.0
  0
SPLINE
  5
4F5
100
AcDbEntity
  8
0
100
AcDbSpline
 62
7
  6
CONTINUOUS
 70
0
 71
3
 72
21
 73
17
 74
0
 42
0.0000001
 43
0.0000001
 44
0.0000000001
 40
0.0
 40
0.0
 40
0.0
 40
0.0
 40
0.0625
 40
0.125
 40
0.1875
 40
0.25
 40
0.3125
 40
0.375
 40
0.5
 40
0.625
 40
0.6875
 40
0.75
 40
0.8125
 40
0.875
 40
0.9375
 40
1.0
 40
1.0
 40
1.0
 40
1.0
 10
97.8368099901
 20
159.9819685115
 30
0.0
 10
97.6273722699
 20
159.9819685115
 30
0.0
 10
97.2084968295
 20
159.8311273575
 30
0.0
 10
96.6043284495
 20
159.1610392348
 30
0.0
 10
96.0475274113
 20
158.0728699546
 30
0.0
 10
95.5594733717
 20
156.6084587994
 30
0.0
 10
95.1589888434
 20
154.8240019563
 30
0.0
 10
94.7619565708
 20
152.1098324177
 30
0.0
 10
94.5533789362
 20
148.2819685115
 30
0.0
 10
94.7619565708
 20
144.4541046053
 30
0.0
 10
95.1589888434
 20
141.7399350667
 30
0.0
 10
95.5594733717
 20
139.9554782237
 30
0.0
 10
96.0475274113
 20
138.4910670684
 30
0.0
 10
96.6043284495
 20
137.4028977882
 30
0.0
 10
97.2084968295
 20
136.7328096655
 30
0.0
 10
97.6273722699
 20
136.5819685115
 30
0.0
 10
97.8368099901
 20
136.5819685115
 30
0.0
  0
SPLINE
  5
4F6
100
AcDbEntity
  8
0
100
AcDbSpline
 62
7
  6
CONTINUOUS
 70
0
 71
3
 72
17
 73
13
 74
0
 42
0.0000001
 43
0.0000001
 44
0.0000000001
 40
0.0
 40
0.0
 40
0.0
 40
0.0
 40
0.3226626564
 40
0.460603246
 40
0.5700100943
 40
0.6557530699
 40
0.6937823846
 40
0.7322383363
 40
0.7921723794
 40
0.8564109065
 40
0.9305201121
 40
1.0
 40
1.0
 40
1.0
 40
1.0
 10
97.2218926387
 20
152.402717679
 30
0.0
 10
97.2333804579
 20
152.537161063
 30
0.0
 10
97.2591944385
 20
152.7296862183
 30
0.0
 10
97.3382352167
 20
152.9557086132
 30
0.0
 10
97.4101433226
 20
153.0764306907
 30
0.0
 10
97.488206458
 20
153.1409033186
 30
0.0
 10
97.5547348097
 20
153.1587508055
 30
0.0
 10
97.6123938389
 20
153.1566361613
 30
0.0
 10
97.6780090767
 20
153.1340064521
 30
0.0
 10
97.7441903609
 20
153.0818735653
 30
0.0
 10
97.7971816835
 20
153.0129990095
 30
0.0
 10
97.8245323135
 20
152.9570851794
 30
0.0
 10
97.8368099901
 20
152.9313529888
 30
0.0
  0
SPLINE
  5
4F7
100
AcDbEntity
  8
0
100
AcDbSpline
 62
7
  6
CONTINUOUS
 70
0
 71
3
 72
9
 73
5
 74
0
 42
0.0000001
 43
0.0000001
 44
0.0000000001
 40
0.0
 40
0.0
 40
0.0
 40
0.0
 40
0.3323763573
 40
1.0
 40
1.0
 40
1.0
 40
1.0
 10
97.2019314064
 20
151.5659053958
 30
0.0
 10
97.2019314064
 20
151.658652633
 30
0.0
 10
97.2037217648
 20
151.9375994901
 30
0.0
 10
97.2060319866
 20
152.2170984851
 30
0.0
 10
97.2218926387
 20
152.402717679
 30
0.0
  0
SPLINE
  5
4F8
100
AcDbEntity
  8
0
100
AcDbSpline
 62
7
  6
CONTINUOUS
 70
0
 71
3
 72
21
 73
17
 74
0
 42
0.0000001
 43
0.0000001
 44
0.0000000001
 40
0.0
 40
0.0
 40
0.0
 40
0.0
 40
0.0625
 40
0.125
 40
0.1875
 40
0.25
 40
0.3125
 40
0.375
 40
0.5
 40
0.625
 40
0.6875
 40
0.75
 40
0.8125
 40
0.875
 40
0.9375
 40
1.0
 40
1.0
 40
1.0
 40
1.0
 10
97.8368099901
 20
136.2819685115
 30
0.0
 10
97.6077374836
 20
136.2819685115
 30
0.0
 10
97.1495924707
 20
136.4366773874
 30
0.0
 10
96.4887833051
 20
137.1239472569
 30
0.0
 10
95.8797821695
 20
138.2400183134
 30
0.0
 10
95.3459730638
 20
139.7419784727
 30
0.0
 10
94.9079431109
 20
141.5721906194
 30
0.0
 10
94.4736890628
 20
144.3559542487
 30
0.0
 10
94.2455572749
 20
148.2819685115
 30
0.0
 10
94.4736890628
 20
152.2079827743
 30
0.0
 10
94.9079431109
 20
154.9917464036
 30
0.0
 10
95.3459730638
 20
156.8219585503
 30
0.0
 10
95.8797821695
 20
158.3239187095
 30
0.0
 10
96.4887833051
 20
159.4399897661
 30
0.0
 10
97.1495924707
 20
160.1272596356
 30
0.0
 10
97.6077374836
 20
160.2819685114
 30
0.0
 10
97.8368099901
 20
160.2819685114
 30
0.0
  0
SPLINE
  5
4F9
100
AcDbEntity
  8
0
100
AcDbSpline
 62
7
  6
CONTINUOUS
 70
0
 71
3
 72
13
 73
9
 74
0
 42
0.0000001
 43
0.0000001
 44
0.0000000001
 40
0.0
 40
0.0
 40
0.0
 40
0.0
 40
0.1312846991
 40
0.2064033834
 40
0.3002381734
 40
0.4215793167
 40
0.5780541939
 40
1.0
 40
1.0
 40
1.0
 40
1.0
 10
97.6504353435
 20
152.1808568998
 30
0.0
 10
97.622320826
 20
152.1853296639
 30
0.0
 10
97.5719108097
 20
152.1731967892
 30
0.0
 10
97.5325967335
 20
152.1194525437
 30
0.0
 10
97.5091275872
 20
152.0607348776
 30
0.0
 10
97.4921111811
 20
151.9816860628
 30
0.0
 10
97.4744214452
 20
151.8308975099
 30
0.0
 10
97.4718239008
 20
151.7052249006
 30
0.0
 10
97.4718239008
 20
151.6137291814
 30
0.0
  0
SPLINE
  5
4FA
100
AcDbEntity
  8
0
100
AcDbSpline
 62
7
  6
CONTINUOUS
 70
0
 71
3
 72
11
 73
7
 74
0
 42
0.0000001
 43
0.0000001
 44
0.0000000001
 40
0.0
 40
0.0
 40
0.0
 40
0.0
 40
0.4028670045
 40
0.6883622384
 40
0.8744389452
 40
1.0
 40
1.0
 40
1.0
 40
1.0
 10
97.8105410605
 20
151.5456322693
 30
0.0
 10
97.8105410605
 20
151.6377407954
 30
0.0
 10
97.807193128
 20
151.7954694837
 30
0.0
 10
97.7816153253
 20
151.9937027079
 30
0.0
 10
97.7405142975
 20
152.1263362812
 30
0.0
 10
97.678786156
 20
152.1763465432
 30
0.0
 10
97.6504353435
 20
152.1808568998
 30
0.0
  0
SPLINE
  5
4FB
100
AcDbEntity
  8
0
100
AcDbSpline
 62
7
  6
CONTINUOUS
 70
0
 71
3
 72
15
 73
11
 74
0
 42
0.0000001
 43
0.0000001
 44
0.0000000001
 40
0.0
 40
0.0
 40
0.0
 40
0.0
 40
0.0561607237
 40
0.1244926806
 40
0.3010803792
 40
0.4139017388
 40
0.5506491326
 40
0.7288614665
 40
0.8485215897
 40
1.0
 40
1.0
 40
1.0
 40
1.0
 10
100.9224395479
 20
262.2976294909
 30
0.0
 10
100.8886594402
 20
262.3598268135
 30
0.0
 10
100.8066436178
 20
262.4938579689
 30
0.0
 10
100.5841977129
 20
262.8015466806
 30
0.0
 10
100.2774660737
 20
263.1350619303
 30
0.0
 10
99.8676525261
 20
263.4832456071
 30
0.0
 10
99.4189512206
 20
263.7846228181
 30
0.0
 10
98.9186456577
 20
264.0166487945
 30
0.0
 10
98.3704084621
 20
264.1646914238
 30
0.0
 10
98.0277160356
 20
264.1979465461
 30
0.0
 10
97.8368099901
 20
264.1979465461
 30
0.0
  0
SPLINE
  5
4FC
100
AcDbEntity
  8
0
100
AcDbSpline
 62
7
  6
CONTINUOUS
 70
0
 71
3
 72
9
 73
5
 74
0
 42
0.0000001
 43
0.0000001
 44
0.0000000001
 40
0.0
 40
0.0
 40
0.0
 40
0.0
 40
0.4627986466
 40
1.0
 40
1.0
 40
1.0
 40
1.0
 10
97.8105410605
 20
262.9649397255
 30
0.0
 10
97.8105410605
 20
262.9696958349
 30
0.0
 10
97.8092721659
 20
262.980116475
 30
0.0
 10
97.8037195431
 20
262.9891957766
 30
0.0
 10
97.8000767327
 20
262.9933440823
 30
0.0
  0
SPLINE
  5
4FD
100
AcDbEntity
  8
0
100
AcDbSpline
 62
7
  6
CONTINUOUS
 70
0
 71
3
 72
10
 73
6
 74
0
 42
0.0000001
 43
0.0000001
 44
0.0000000001
 40
0.0
 40
0.0
 40
0.0
 40
0.0
 40
0.2479007027
 40
0.5100850847
 40
1.0
 40
1.0
 40
1.0
 40
1.0
 10
97.7966707142
 20
262.9968607086
 30
0.0
 10
97.7875243183
 20
263.0054604852
 30
0.0
 10
97.7633824053
 20
263.0172134902
 30
0.0
 10
97.713484196
 20
263.0258981854
 30
0.0
 10
97.6752453318
 20
263.0274765156
 30
0.0
 10
97.6504353435
 20
263.0272923068
 30
0.0
  0
SPLINE
  5
4FE
100
AcDbEntity
  8
0
100
AcDbSpline
 62
7
  6
CONTINUOUS
 70
0
 71
3
 72
12
 73
8
 74
0
 42
0.0000001
 43
0.0000001
 44
0.0000000001
 40
0.0
 40
0.0
 40
0.0
 40
0.0
 40
0.3816652426
 40
0.6164797559
 40
0.8156239263
 40
0.9190541009
 40
1.0
 40
1.0
 40
1.0
 40
1.0
 10
97.6504353435
 20
263.0272923068
 30
0.0
 10
97.6242332981
 20
263.0270977622
 30
0.0
 10
97.5817733774
 20
263.0252460716
 30
0.0
 10
97.5265704342
 20
263.0167802323
 30
0.0
 10
97.4910264936
 20
263.0028970796
 30
0.0
 10
97.4737913392
 20
262.9814795545
 30
0.0
 10
97.4718239008
 20
262.9685398502
 30
0.0
 10
97.4718239008
 20
262.9629826069
 30
0.0
  0
SPLINE
  5
4FF
100
AcDbEntity
  8
0
100
AcDbSpline
 62
7
  6
CONTINUOUS
 70
0
 71
3
 72
15
 73
11
 74
0
 42
0.0000001
 43
0.0000001
 44
0.0000000001
 40
0.0
 40
0.0
 40
0.0
 40
0.0
 40
0.1514610231
 40
0.271117408
 40
0.4493282155
 40
0.5860754051
 40
0.6988978389
 40
0.8754923274
 40
0.943830558
 40
1.0
 40
1.0
 40
1.0
 40
1.0
 10
97.8368099901
 20
264.1979465461
 30
0.0
 10
97.6459374272
 20
264.1979465461
 30
0.0
 10
97.3032929686
 20
264.1647012814
 30
0.0
 10
96.7551105006
 20
264.0166986014
 30
0.0
 10
96.2548309805
 20
263.7847126429
 30
0.0
 10
95.8061424293
 20
263.4833769198
 30
0.0
 10
95.3963272127
 20
263.1352306966
 30
0.0
 10
95.0895830979
 20
262.8017399515
 30
0.0
 10
94.8671145079
 20
262.4940626376
 30
0.0
 10
94.785078181
 20
262.3600330285
 30
0.0
 10
94.7512892689
 20
262.2978328671
 30
0.0
  0
SPLINE
  5
500
100
AcDbEntity
  8
0
100
AcDbSpline
 62
7
  6
CONTINUOUS
 70
0
 71
3
 72
10
 73
6
 74
0
 42
0.0000001
 43
0.0000001
 44
0.0000000001
 40
0.0
 40
0.0
 40
0.0
 40
0.0
 40
0.2287937991
 40
0.5859408326
 40
1.0
 40
1.0
 40
1.0
 40
1.0
 10
97.2019314064
 20
262.9355470523
 30
0.0
 10
97.2019314064
 20
262.9425395428
 30
0.0
 10
97.2029460608
 20
262.960410234
 30
0.0
 10
97.2044331753
 20
262.9910749981
 30
0.0
 10
97.2143401354
 20
263.0134932322
 30
0.0
 10
97.2218926387
 20
263.0236470388
 30
0.0
  0
SPLINE
  5
501
100
AcDbEntity
  8
0
100
AcDbSpline
 62
7
  6
CONTINUOUS
 70
0
 71
3
 72
15
 73
11
 74
0
 42
0.0000001
 43
0.0000001
 44
0.0000000001
 40
0.0
 40
0.0
 40
0.0
 40
0.0
 40
0.0905300167
 40
0.1625633661
 40
0.2665355016
 40
0.4295567652
 40
0.6658975398
 40
0.8697434028
 40
0.9422232416
 40
1.0
 40
1.0
 40
1.0
 40
1.0
 10
97.2218926387
 20
263.0236470388
 30
0.0
 10
97.2334189529
 20
263.0391433534
 30
0.0
 10
97.2618883604
 20
263.0609367115
 30
0.0
 10
97.3134934489
 20
263.0846676438
 30
0.0
 10
97.3827895789
 20
263.1063196454
 30
0.0
 10
97.4888104838
 20
263.1249167086
 30
0.0
 10
97.6176444631
 20
263.131286768
 30
0.0
 10
97.7271181687
 20
263.1260101033
 30
0.0
 10
97.7977019758
 20
263.1156557048
 30
0.0
 10
97.8248200634
 20
263.1095186152
 30
0.0
 10
97.8368099901
 20
263.1066614267
 30
0.0
  0
SPLINE
  5
502
100
AcDbEntity
  8
0
100
AcDbSpline
 62
7
  6
CONTINUOUS
 70
0
 71
3
 72
16
 73
12
 74
0
 42
0.0000001
 43
0.0000001
 44
0.0000000001
 40
0.0
 40
0.0
 40
0.0
 40
0.0
 40
0.1459881466
 40
0.2644560997
 40
0.4434188035
 40
0.5814799465
 40
0.6956232661
 40
0.7923566879
 40
0.8745731507
 40
0.9435988233
 40
1.0
 40
1.0
 40
1.0
 40
1.0
 10
97.8368099901
 20
264.2518540052
 30
0.0
 10
98.0390367969
 20
264.2518540052
 30
0.0
 10
98.4063529684
 20
264.2173870614
 30
0.0
 10
99.0019773544
 20
264.0605114312
 30
0.0
 10
99.5543037939
 20
263.8074329498
 30
0.0
 10
100.0517961379
 20
263.4741587621
 30
0.0
 10
100.4204580551
 20
263.1602479152
 30
0.0
 10
100.7044152216
 20
262.86941298
 30
0.0
 10
100.9244129805
 20
262.605163679
 30
0.0
 10
101.0916780461
 20
262.3708794028
 30
0.0
 10
101.1816058546
 20
262.221917866
 30
0.0
 10
101.218416557
 20
262.1530046649
 30
0.0
  0
SPLINE
  5
503
100
AcDbEntity
  8
0
100
AcDbSpline
 62
7
  6
CONTINUOUS
 70
0
 71
3
 72
17
 73
13
 74
0
 42
0.0000001
 43
0.0000001
 44
0.0000000001
 40
0.0
 40
0.0
 40
0.0
 40
0.0
 40
0.2295661869
 40
0.41580727
 40
0.5256635829
 40
0.5920920867
 40
0.6496298699
 40
0.7062053954
 40
0.7657958003
 40
0.8209359268
 40
0.9222580552
 40
1.0
 40
1.0
 40
1.0
 40
1.0
 10
97.8368099901
 20
263.1116936441
 30
0.0
 10
97.8495169963
 20
263.1086654058
 30
0.0
 10
97.8726568898
 20
263.1033627355
 30
0.0
 10
97.9012211549
 20
263.0953192004
 30
0.0
 10
97.9204252983
 20
263.0858761283
 30
0.0
 10
97.9274029785
 20
263.0738148222
 30
0.0
 10
97.9281132017
 20
263.0633970226
 30
0.0
 10
97.9280553226
 20
263.0536986797
 30
0.0
 10
97.9305442084
 20
263.0434035533
 30
0.0
 10
97.9425233508
 20
263.0376039695
 30
0.0
 10
97.9559876693
 20
263.0382242555
 30
0.0
 10
97.9660755827
 20
263.0395227818
 30
0.0
 10
97.9704388454
 20
263.04025152
 30
0.0
  0
SPLINE
  5
504
100
AcDbEntity
  8
0
100
AcDbSpline
 62
7
  6
CONTINUOUS
 70
0
 71
3
 72
17
 73
13
 74
0
 42
0.0000001
 43
0.0000001
 44
0.0000000001
 40
0.0
 40
0.0
 40
0.0
 40
0.0
 40
0.2295690242
 40
0.4158122272
 40
0.5256688256
 40
0.5920957415
 40
0.6496312838
 40
0.7062045276
 40
0.7657930406
 40
0.8209334679
 40
0.9222571553
 40
1.0
 40
1.0
 40
1.0
 40
1.0
 10
97.8368099901
 20
263.1066614267
 30
0.0
 10
97.8495170002
 20
263.1036333578
 30
0.0
 10
97.8726568819
 20
263.0983309623
 30
0.0
 10
97.9012210669
 20
263.0902877147
 30
0.0
 10
97.9204251404
 20
263.080845206
 30
0.0
 10
97.927402963
 20
263.0687844467
 30
0.0
 10
97.9281132098
 20
263.0583671414
 30
0.0
 10
97.9280553006
 20
263.0486692967
 30
0.0
 10
97.9305443488
 20
263.038374603
 30
0.0
 10
97.942523446
 20
263.0325754349
 30
0.0
 10
97.9559876422
 20
263.0331955155
 30
0.0
 10
97.9660755827
 20
263.0344938576
 30
0.0
 10
97.9704388454
 20
263.0352225016
 30
0.0
  0
LINE
  5
505
100
AcDbEntity
  8
0
100
AcDbLine
 62
7
  6
CONTINUOUS
 10
98.4753790373
 20
263.1076249229
 11
98.4896388072
 21
263.1093285175
  0
SPLINE
  5
506
100
AcDbEntity
  8
0
100
AcDbSpline
 62
7
  6
CONTINUOUS
 70
0
 71
3
 72
16
 73
12
 74
0
 42
0.0000001
 43
0.0000001
 44
0.0000000001
 40
0.0
 40
0.0
 40
0.0
 40
0.0
 40
0.1463731082
 40
0.2650099535
 40
0.4441063307
 40
0.5822209528
 40
0.6963613127
 40
0.7930290136
 40
0.8751070741
 40
0.9439113379
 40
1.0
 40
1.0
 40
1.0
 40
1.0
 10
97.8368099901
 20
264.256951503
 30
0.0
 10
98.0399633333
 20
264.256951503
 30
0.0
 10
98.4087712823
 20
264.2221897035
 30
0.0
 10
99.0063243141
 20
264.0641557446
 30
0.0
 10
99.5598388964
 20
263.8096154391
 30
0.0
 10
100.0579892114
 20
263.4747731161
 30
0.0
 10
100.4268289816
 20
263.1596533348
 30
0.0
 10
100.7106205455
 20
262.8679561354
 30
0.0
 10
100.9301559206
 20
262.6032207513
 30
0.0
 10
101.096670742
 20
262.3688610945
 30
0.0
 10
101.1859599259
 20
262.2199791064
 30
0.0
 10
101.2223703336
 20
262.1511726925
 30
0.0
  0
SPLINE
  5
507
100
AcDbEntity
  8
0
100
AcDbSpline
 62
7
  6
CONTINUOUS
 70
0
 71
3
 72
15
 73
11
 74
0
 42
0.0000001
 43
0.0000001
 44
0.0000000001
 40
0.0
 40
0.0
 40
0.0
 40
0.0
 40
0.0905297621
 40
0.1625626017
 40
0.2665342393
 40
0.4295554396
 40
0.6658967561
 40
0.8697429597
 40
0.9422230051
 40
1.0
 40
1.0
 40
1.0
 40
1.0
 10
97.2218926387
 20
263.0286919331
 30
0.0
 10
97.2334188158
 20
263.0441882208
 30
0.0
 10
97.2618882424
 20
263.0659813173
 30
0.0
 10
97.3134934705
 20
263.0897109686
 30
0.0
 10
97.3827897744
 20
263.1113610679
 30
0.0
 10
97.4888109101
 20
263.129955182
 30
0.0
 10
97.6176448491
 20
263.1363222192
 30
0.0
 10
97.7271184
 20
263.1310438003
 30
0.0
 10
97.7977020543
 20
263.1206884552
 30
0.0
 10
97.824820081
 20
263.1145509893
 30
0.0
 10
97.8368099901
 20
263.1116936441
 30
0.0
  0
SPLINE
  5
508
100
AcDbEntity
  8
0
100
AcDbSpline
 62
7
  6
CONTINUOUS
 70
0
 71
3
 72
10
 73
6
 74
0
 42
0.0000001
 43
0.0000001
 44
0.0000000001
 40
0.0
 40
0.0
 40
0.0
 40
0.0
 40
0.2287967858
 40
0.585946866
 40
1.0
 40
1.0
 40
1.0
 40
1.0
 10
97.2019314064
 20
262.9405885376
 30
0.0
 10
97.2019314064
 20
262.9475813726
 30
0.0
 10
97.2029460657
 20
262.9654529003
 30
0.0
 10
97.204433107
 20
262.9961187516
 30
0.0
 10
97.2143400214
 20
263.0185378701
 30
0.0
 10
97.2218926387
 20
263.0286919331
 30
0.0
  0
SPLINE
  5
509
100
AcDbEntity
  8
0
100
AcDbSpline
 62
7
  6
CONTINUOUS
 70
0
 71
3
 72
16
 73
12
 74
0
 42
0.0000001
 43
0.0000001
 44
0.0000000001
 40
0.0
 40
0.0
 40
0.0
 40
0.0
 40
0.0564061417
 40
0.1254352451
 40
0.207654026
 40
0.3043886922
 40
0.4185324688
 40
0.556593275
 40
0.7355544959
 40
0.8540198841
 40
1.0
 40
1.0
 40
1.0
 40
1.0
 10
94.4552643705
 20
262.1531202681
 30
0.0
 10
94.4920806721
 20
262.2220354978
 30
0.0
 10
94.5820205152
 20
262.3709969488
 30
0.0
 10
94.7492963892
 20
262.6052805099
 30
0.0
 10
94.9693030868
 20
262.8695210037
 30
0.0
 10
95.2532636886
 20
263.1603424748
 30
0.0
 10
95.6219250476
 20
263.4742334611
 30
0.0
 10
96.1194089297
 20
263.8074830638
 30
0.0
 10
96.6717187408
 20
264.0605368558
 30
0.0
 10
97.2673107913
 20
264.2173930293
 30
0.0
 10
97.6346006488
 20
264.2518540052
 30
0.0
 10
97.8368099901
 20
264.2518540052
 30
0.0
  0
SPLINE
  5
50A
100
AcDbEntity
  8
0
100
AcDbSpline
 62
7
  6
CONTINUOUS
 70
0
 71
3
 72
16
 73
12
 74
0
 42
0.0000001
 43
0.0000001
 44
0.0000000001
 40
0.0
 40
0.0
 40
0.0
 40
0.0
 40
0.0560949208
 40
0.1249035067
 40
0.206984404
 40
0.3036536369
 40
0.4177944277
 40
0.5559084929
 40
0.735002837
 40
0.8536364722
 40
1.0
 40
1.0
 40
1.0
 40
1.0
 10
94.4513256144
 20
262.1513175587
 30
0.0
 10
94.4877432409
 20
262.2201265299
 30
0.0
 10
94.5770474111
 20
262.369008674
 30
0.0
 10
94.7435761295
 20
262.6033673104
 30
0.0
 10
94.963122212
 20
262.8680920558
 30
0.0
 10
95.2469183886
 20
263.1597717355
 30
0.0
 10
95.6157567946
 20
263.4748668214
 30
0.0
 10
96.1138962326
 20
263.809677717
 30
0.0
 10
96.6673893596
 20
264.0641874312
 30
0.0
 10
97.2649023279
 20
264.2221968714
 30
0.0
 10
97.6336779006
 20
264.256951503
 30
0.0
 10
97.8368099901
 20
264.256951503
 30
0.0
  0
ENDSEC
  0
SECTION
  2
OBJECTS
  0
DICTIONARY
  5
C
100
AcDbDictionary
280
0
281
1
  3
ACAD_GROUP
350
D
  3
ACAD_MLINESTYLE
350
17
  3
ACAD_LAYOUT
350
1A
  3
ACAD_PLOTSETTINGS
350
19
  3
ACAD_PLOTSTYLENAME
350
E
  3
ACAD_TABLESTYLE
350
       50B
  0
DICTIONARY
  5
D
102
{ACAD_REACTORS
330
C
102
}
100
AcDbDictionary
280
0
281
1
  0
ACDBDICTIONARYWDFLT
  5
E
102
{ACAD_REACTORS
330
C
102
}
100
AcDbDictionary
281
1
  3
Normal
350
F
100
AcDbDictionaryWithDefault
340
F
  0
DICTIONARY
  5
17
102
{ACAD_REACTORS
330
C
102
}
100
AcDbDictionary
280
0
281
1
  3
Standard
350
18
  0
DICTIONARY
  5
50B
330
C
100
AcDbDictionary
281
1
  3
Standard
350
       50E
  3
Standard1
350
       50F
  0
DICTIONARY
  5
19
102
{ACAD_REACTORS
330
C
102
}
100
AcDbDictionary
281
1
  0
DICTIONARY
  5
1A
102
{ACAD_REACTORS
330
C
102
}
100
AcDbDictionary
281
1
  3
Model
350
50C
  3
Layout1
350
50D
  0
ACDBPLACEHOLDER
  5
F
102
{ACAD_REACTORS
330
E
102
}
  0
MLINESTYLE
  5
18
102
{ACAD_REACTORS
330
17
102
}
100
AcDbMlineStyle
  2
STANDARD
 70
0
  3

 62
256
 51
90.0
 52
90.0
 71
2
 49
0.5
 62
256
  6
BYLAYER
 49
-0.5
 62
256
  6
BYLAYER
  0
LAYOUT
  5
50C
102
{ACAD_REACTORS
330
1A
102
}
100
AcDbPlotSettings
  1

  2
none_device
  4

  6

 40
0.0
 41
0.0
 42
0.0
 43
0.0
 44
210.0
 45
297.0
 46
0.0
 47
0.0
 48
0.0
 49
0.0
140
0.0
141
0.0
142
1.0
143
1.0
 70
1024
 72
1
 73
0
 74
0
  7

 75
0
147
1.0
148
0.0
149
0.0
100
AcDbLayout
  1
Model
 70
0
 71
0
 10
0.0
 20
0.0
 11
210.0
 21
297.0
 12
0.0
 22
0.0
 32
0.0
 14
0.0
 24
0.0
 34
0.0
 15
0.0
 25
0.0
 35
0.0
146
0.0
 13
0.0
 23
0.0
 33
0.0
 16
1.0
 26
0.0
 36
0.0
 17
0.0
 27
1.0
 37
0.0
 76
0
330
21A
345
0
346
0
  0
LAYOUT
  5
50D
102
{ACAD_REACTORS
330
1A
102
}
100
AcDbPlotSettings
  1

  2
none_device
  4

  6

 40
0.0
 41
0.0
 42
0.0
 43
0.0
 44
210.0
 45
297.0
 46
0.0
 47
0.0
 48
0.0
 49
0.0
140
0.0
141
0.0
142
1.0
143
1.0
 70
0
 72
1
 73
0
 74
0
  7

 75
0
147
1.0
148
0.0
149
0.0
100
AcDbLayout
  1
Layout1
 70
0
 71
1
 10
0.0
 20
0.0
 11
210.0
 21
297.0
 12
0.0
 22
0.0
 32
0.0
 14
0.0
 24
0.0
 34
0.0
 15
0.0
 25
0.0
 35
0.0
146
0.0
 13
0.0
 23
0.0
 33
0.0
 16
1.0
 26
0.0
 36
0.0
 17
0.0
 27
1.0
 37
0.0
 76
0
330
21B
345
0
346
0
  0
TABLESTYLE
  5
50E
102
{ACAD_REACTORS
330
50B
330
2FB
102
}
330
50B
100
AcDbTableStyle
  3
Standard
 70
0
 71
0
 40
0.06
 41
0.06
280
1
281
1
  7
Standard
140
0.18
170
1
 62
0
 63
7
283
0
  7
Standard
140
0.18
170
1
 62
0
 63
7
283
0
  7
Standard
140
0.18
170
1
 62
0
 63
7
283
0
  0
TABLESTYLE
  5
50F
102
{ACAD_REACTORS
330
50B
102
}
330
50B
100
AcDbTableStyle
  3
Standard1
 70
1
 71
0
 40
0.06
 41
0.06
280
1
281
1
  7
Standard
140
0.18
170
1
 62
0
 63
7
283
0
  7
Standard
140
0.18
170
1
 62
0
 63
7
283
0
  7
Standard
140
0.18
170
1
 62
0
 63
7
283
0
  0
ENDSEC
  0
EOF
