999
DXF file: st-htxx-14.dxf
999
Pro/ENGINEER 2015480 by Parametric Technology Corporation
  0
SECTION
  2
HEADER
  9
$ACADVER
  1
AC1018
  9
$DWGCODEPAGE
  3
ANSI_1252
  9
$EXTMAX
 10
210.0
 20
297.0
 30
0.0
  9
$EXTMIN
 10
0.0
 20
0.0
 30
0.0
  9
$LIMMIN
 10
0.0
 20
0.0
  9
$LIMMAX
 10
210.0
 20
297.0
  9
$VIEWCTR
 10
105.0
 20
148.5
  9
$VIEWSIZE
 40
297.0
  9
$CLAYER
  8
0
  9
$LTSCALE
 40
19.36
  9
$CELTYPE
  6
BYLAYER
  9
$DIMSCALE
 40
1.0
  9
$DIMASZ
 40
3.5
  9
$DIMEXO
 40
0.0
  9
$DIMDLI
 40
13.376
  9
$DIMEXE
 40
1.5
  9
$DIMCEN
 40
3.168
  9
$DIMLFAC
 40
1.0
  9
$DIMBLK
  1
_FILLED
  9
$DIMALT
 70
0
  9
$DIMALTF
 40
0.0393700787
  9
$DIMTXT
 40
3.5
  9
$DIMTOL
 70
1
  9
$DIMLIM
 70
0
  9
$DIMTFAC
 40
1.0
  9
$DIMTP
 40
0.005
  9
$DIMTM
 40
0.005
  9
$DIMGAP
 40
0.625
  9
$DIMDSEP
 70
46
  9
$AUNITS
 70
0
  9
$PDMODE
 70
3
  9
$PDSIZE
 40
0.3125
  9
$HANDSEED
  5
39B
  9
$TILEMODE
 70
1
  9
$MEASUREMENT
 70
1
  9
$INSUNITS
 70
4
  0
ENDSEC
  0
SECTION
  2
CLASSES
  0
CLASS
  1
ACDBDICTIONARYWDFLT
  2
AcDbDictionaryWithDefault
  3
AutoCAD 2000
 90
0
 91
1
280
0
281
0
  0
CLASS
  1
ACDBPLACEHOLDER
  2
AcDbPlaceHolder
  3
AutoCAD 2000
 90
0
 91
1
280
0
281
0
  0
CLASS
  1
LAYOUT
  2
AcDbLayout
  3
AutoCAD 2000
 90
0
 91
0
280
0
281
0
  0
CLASS
  1
TABLESTYLE
  2
AcDbTableStyle
  3
ObjectDBX Classes
 90
2047
 91
1
280
0
281
0
  0
CLASS
  1
ACAD_TABLE
  2
AcDbTable
  3
ObjectDBX Classes
 90
1025
 91
1
280
0
281
1
  0
ENDSEC
  0
SECTION
  2
TABLES
  0
TABLE
  2
VPORT
  5
8
100
AcDbSymbolTable
 70
2
  0
VPORT
  5
1F4
100
AcDbSymbolTableRecord
100
AcDbViewportTableRecord
  2
*ACTIVE
 70
0
 10
0.0
 20
0.0
 11
1.0
 21
1.0
 12
105.0
 22
148.5
 13
0.0
 23
0.0
 14
1.0
 24
1.0
 15
0.0
 25
0.0
 16
0.0
 26
0.0
 36
1.0
 17
0.0
 27
0.0
 37
0.0
 40
297.0
 41
0.7070707071
 42
50.0
 43
0.0
 44
0.0
 50
0.0
 51
0.0
 71
0
 72
100
 73
1
 74
1
 75
0
 76
0
 77
0
 78
0
  0
ENDTAB
  0
TABLE
  2
LTYPE
  5
5
100
AcDbSymbolTable
 70
6
  0
LTYPE
  5
14
100
AcDbSymbolTableRecord
100
AcDbLinetypeTableRecord
  2
BYBLOCK
 70
0
  3

 72
65
 73
0
 40
0.0
  0
LTYPE
  5
15
100
AcDbSymbolTableRecord
100
AcDbLinetypeTableRecord
  2
BYLAYER
 70
0
  3

 72
65
 73
0
 40
0.0
  0
LTYPE
  5
16
100
AcDbSymbolTableRecord
100
AcDbLinetypeTableRecord
  2
CONTINUOUS
 70
64
  3
Solid line
 72
65
 73
0
 40
0.0
  0
LTYPE
  5
1F5
100
AcDbSymbolTableRecord
100
AcDbLinetypeTableRecord
  2
CENTER
 70
64
  3
____ _ ____ _ ____ _ ____ _ ____ _ ____ _ ____
 72
65
 73
4
 40
0.6
 49
0.375
 74
0
 49
-0.075
 74
0
 49
0.075
 74
0
 49
-0.075
 74
0
  0
LTYPE
  5
1F6
100
AcDbSymbolTableRecord
100
AcDbLinetypeTableRecord
  2
HIDDEN
 70
64
  3
- - - - - - - - - - - - - - - - - - - -
 72
65
 73
2
 40
0.2
 49
0.1
 74
0
 49
-0.1
 74
0
  0
LTYPE
  5
1F7
100
AcDbSymbolTableRecord
100
AcDbLinetypeTableRecord
  2
PHANTOM
 70
64
  3
_____ _ _ _____ _ _ _____ _ _ _____
 72
65
 73
6
 40
0.8
 49
0.45
 74
0
 49
-0.05
 74
0
 49
0.1
 74
0
 49
-0.05
 74
0
 49
0.1
 74
0
 49
-0.05
 74
0
  0
LTYPE
  5
1F8
100
AcDbSymbolTableRecord
100
AcDbLinetypeTableRecord
  2
DOT
 70
64
  3
. . . . . . . . . . . . . . . . . . . .
 72
65
 73
2
 40
0.2
 49
0.1
 74
0
 49
-0.1
 74
0
  0
LTYPE
  5
1F9
100
AcDbSymbolTableRecord
100
AcDbLinetypeTableRecord
  2
DASHED
 70
64
  3
- - - - - - - - - - - - - - - - - - - -
 72
65
 73
2
 40
0.2
 49
0.1
 74
0
 49
-0.1
 74
0
  0
ENDTAB
  0
TABLE
  2
LAYER
  5
2
100
AcDbSymbolTable
 70
36
  0
LAYER
  5
10
100
AcDbSymbolTableRecord
100
AcDbLayerTableRecord
  2
0
 70
0
 62
7
  6
CONTINUOUS
370
-3
390
F
  0
LAYER
  5
1FA
100
AcDbSymbolTableRecord
100
AcDbLayerTableRecord
  2
DEFAULT_1
 70
0
 62
7
  6
CENTER
370
-3
390
F
  0
LAYER
  5
1FB
100
AcDbSymbolTableRecord
100
AcDbLayerTableRecord
  2
DEFAULT_2
 70
0
 62
8
  6
HIDDEN
370
-3
390
F
  0
LAYER
  5
1FC
100
AcDbSymbolTableRecord
100
AcDbLayerTableRecord
  2
DEFAULT_3
 70
0
 62
7
  6
PHANTOM
370
-3
390
F
  0
LAYER
  5
1FD
100
AcDbSymbolTableRecord
100
AcDbLayerTableRecord
  2
3D_NOTIZEN
 70
0
 62
7
  6
CONTINUOUS
370
-3
390
F
  0
LAYER
  5
1FE
100
AcDbSymbolTableRecord
100
AcDbLayerTableRecord
  2
BEZUGSACHSEN
 70
0
 62
7
  6
CONTINUOUS
370
-3
390
F
  0
LAYER
  5
1FF
100
AcDbSymbolTableRecord
100
AcDbLayerTableRecord
  2
BEZUGSEBENEN
 70
0
 62
7
  6
CONTINUOUS
370
-3
390
F
  0
LAYER
  5
200
100
AcDbSymbolTableRecord
100
AcDbLayerTableRecord
  2
BOHRUNGEN
 70
0
 62
7
  6
CONTINUOUS
370
-3
390
F
  0
LAYER
  5
201
100
AcDbSymbolTableRecord
100
AcDbLayerTableRecord
  2
FASEN
 70
0
 62
7
  6
CONTINUOUS
370
-3
390
F
  0
LAYER
  5
202
100
AcDbSymbolTableRecord
100
AcDbLayerTableRecord
  2
GEWINDE
 70
0
 62
7
  6
CONTINUOUS
370
-3
390
F
  0
LAYER
  5
203
100
AcDbSymbolTableRecord
100
AcDbLayerTableRecord
  2
HILFEN
 70
0
 62
7
  6
CONTINUOUS
370
-3
390
F
  0
LAYER
  5
204
100
AcDbSymbolTableRecord
100
AcDbLayerTableRecord
  2
PLAZIERUNG
 70
0
 62
7
  6
CONTINUOUS
370
-3
390
F
  0
LAYER
  5
205
100
AcDbSymbolTableRecord
100
AcDbLayerTableRecord
  2
RUNDUNGEN
 70
0
 62
7
  6
CONTINUOUS
370
-3
390
F
  0
LAYER
  5
206
100
AcDbSymbolTableRecord
100
AcDbLayerTableRecord
  2
TEIL_STARTBEZUEGE
 70
0
 62
7
  6
CONTINUOUS
370
-3
390
F
  0
LAYER
  5
207
100
AcDbSymbolTableRecord
100
AcDbLayerTableRecord
  2
XSEC_DATUMS
 70
0
 62
7
  6
CONTINUOUS
370
-3
390
F
  0
ENDTAB
  0
TABLE
  2
STYLE
  5
3
100
AcDbSymbolTable
 70
1
  0
STYLE
  5
11
100
AcDbSymbolTableRecord
100
AcDbTextStyleTableRecord
  2
STANDARD
 70
0
 40
0.0
 41
0.7
 50
0.0
 71
0
 42
0.2
  3
txt
  4

  0
STYLE
  5
208
100
AcDbSymbolTableRecord
100
AcDbTextStyleTableRecord
  2
TEXTSTYLE_1
 70
0
 40
0.0
 41
0.8
 50
0.0
 71
0
 42
0.2
  3
gdt
  4

  0
STYLE
  5
209
100
AcDbSymbolTableRecord
100
AcDbTextStyleTableRecord
  2
TEXTSTYLE_2
 70
0
 40
0.0
 41
0.7
 50
0.0
 71
0
 42
0.2
  3
gdt
  4

  0
STYLE
  5
20A
100
AcDbSymbolTableRecord
100
AcDbTextStyleTableRecord
  2
TEXTSTYLE_3
 70
0
 40
0.0
 41
0.8
 50
0.0
 71
0
 42
0.2
  3
txt
  4

  0
ENDTAB
  0
TABLE
  2
VIEW
  5
6
100
AcDbSymbolTable
 70
0
  0
ENDTAB
  0
TABLE
  2
UCS
  5
7
100
AcDbSymbolTable
 70
0
  0
ENDTAB
  0
TABLE
  2
APPID
  5
9
100
AcDbSymbolTable
 70
1
  0
APPID
  5
20B
100
AcDbSymbolTableRecord
100
AcDbRegAppTableRecord
  2
ACAD
 70
0
  0
ENDTAB
  0
TABLE
  2
BLOCK_RECORD
  5
1
100
AcDbSymbolTable
 70
0
  0
BLOCK_RECORD
  5
20C
100
AcDbSymbolTableRecord
100
AcDbBlockTableRecord
  2
*Model_Space
  0
BLOCK_RECORD
  5
20D
100
AcDbSymbolTableRecord
100
AcDbBlockTableRecord
  2
*Paper_Space
  0
BLOCK_RECORD
  5
20E
100
AcDbSymbolTableRecord
100
AcDbBlockTableRecord
  2
_FILLED
  0
BLOCK_RECORD
  5
20F
100
AcDbSymbolTableRecord
100
AcDbBlockTableRecord
  2
*D0
  0
BLOCK_RECORD
  5
210
100
AcDbSymbolTableRecord
100
AcDbBlockTableRecord
  2
*D1
  0
BLOCK_RECORD
  5
211
100
AcDbSymbolTableRecord
100
AcDbBlockTableRecord
  2
*D2
  0
BLOCK_RECORD
  5
212
100
AcDbSymbolTableRecord
100
AcDbBlockTableRecord
  2
NEUTRIK_BL0
  0
BLOCK_RECORD
  5
213
100
AcDbSymbolTableRecord
100
AcDbBlockTableRecord
  2
*T1
  0
ENDTAB
  0
TABLE
  2
DIMSTYLE
  5
A
100
AcDbSymbolTable
 70
1
100
AcDbDimStyleTable
 71
0
  0
DIMSTYLE
105
214
100
AcDbSymbolTableRecord
100
AcDbDimStyleTableRecord
  2
STANDARD
 70
0
  3

  4

 40
1.0
 41
3.5
 42
0.0
 43
0.38
 44
1.5
 45
0.0
 46
0.0
 47
0.005
 48
0.005
140
3.5
141
0.09
142
0.0
143
25.4
144
1.0
145
0.0
146
1.0
147
0.625
 71
1.0
 72
0.0
 73
0
 74
0
 75
0
 76
0
 77
1
 78
8
170
0
171
2
172
0
173
0
174
0
175
0
176
0
177
0
178
5
270
2
271
3
272
3
273
2
274
2
275
0
280
0
281
0
282
0
283
1
284
8
285
0
286
0
287
3
288
0
340
11
278
46
341
20E
342
20E
343
20E
344
20E
  0
DIMSTYLE
105
215
100
AcDbSymbolTableRecord
100
AcDbDimStyleTableRecord
  2
DIMSTYLE_1
 70
0
  3

  4

 40
1.0
 41
3.5
 42
0.0
 43
0.38
 44
1.5
 45
0.0
 46
0.0
 47
0.3
 48
0.3
140
3.5
141
0.09
142
0.0
143
25.4
144
1.0
145
0.0
146
1.0
147
0.875
 71
0.0
 72
0.0
 73
0
 74
0
 75
0
 76
0
 77
1
 78
8
170
0
171
2
172
0
173
0
174
0
175
0
176
0
177
0
178
5
270
2
271
3
272
3
273
2
274
2
275
0
280
0
281
0
282
0
283
1
284
8
285
0
286
0
287
3
288
0
340
11
278
46
341
20E
342
20E
343
20E
344
20E
  0
DIMSTYLE
105
216
100
AcDbSymbolTableRecord
100
AcDbDimStyleTableRecord
  2
DIMSTYLE_2
 70
0
  3

  4

 40
1.0
 41
3.5
 42
0.0
 43
0.38
 44
1.5
 45
0.0
 46
0.0
 47
0.1
 48
0.0
140
3.5
141
0.09
142
0.0
143
25.4
144
1.0
145
0.0
146
1.0
147
0.875
 71
0.0
 72
0.0
 73
0
 74
0
 75
0
 76
0
 77
1
 78
8
170
0
171
2
172
0
173
0
174
0
175
0
176
0
177
0
178
5
270
2
271
3
272
3
273
2
274
2
275
0
280
0
281
0
282
0
283
1
284
8
285
0
286
0
287
3
288
0
340
11
278
46
341
20E
342
20E
343
20E
344
20E
  0
ENDTAB
  0
ENDSEC
  0
SECTION
  2
BLOCKS
  0
BLOCK
  5
20
100
AcDbEntity
  8
0
100
AcDbBlockBegin
  2
*Model_Space
 70
0
 10
0.0
 20
0.0
 30
0.0
  3
*Model_Space
  1

  0
ENDBLK
  5
21
100
AcDbEntity
  8
0
100
AcDbBlockEnd
  0
BLOCK
  5
1C
100
AcDbEntity
  8
0
100
AcDbBlockBegin
  2
*Paper_Space
 70
0
 10
0.0
 20
0.0
 30
0.0
  3
*Paper_Space
  1

  0
ENDBLK
  5
1D
100
AcDbEntity
  8
0
100
AcDbBlockEnd
  0
BLOCK
  5
217
100
AcDbEntity
  8
0
100
AcDbBlockBegin
 62
2
  6
CONTINUOUS
  2
NEUTRIK_BL0
 70
64
 10
112.502726438
 20
9.4530281929
  3
NEUTRIK_BL0
  1

  0
LINE
  5
218
100
AcDbEntity
  8
0
100
AcDbLine
 62
2
  6
CONTINUOUS
 10
82.9822278849
 20
9.8386995072
 11
86.2833181894
 21
7.3030281929
  0
LINE
  5
219
100
AcDbEntity
  8
0
100
AcDbLine
 62
2
  6
CONTINUOUS
 10
87.1924461329
 20
9.1430281929
 11
84.2297826829
 21
11.6030281929
  0
LINE
  5
21A
100
AcDbEntity
  8
0
100
AcDbLine
 62
2
  6
CONTINUOUS
 10
80.0164493495
 20
11.6030281929
 11
79.1693931047
 21
7.3030281929
  0
LINE
  5
21B
100
AcDbEntity
  8
0
100
AcDbLine
 62
2
  6
CONTINUOUS
 10
82.482726438
 20
7.3030281929
 11
82.9822278849
 21
9.8386995072
  0
LINE
  5
21C
100
AcDbEntity
  8
0
100
AcDbLine
 62
2
  6
CONTINUOUS
 10
92.6693931047
 20
11.6030281929
 11
91.9172065157
 21
7.3030281929
  0
LINE
  5
21D
100
AcDbEntity
  8
0
100
AcDbLine
 62
2
  6
CONTINUOUS
 10
87.6770411009
 20
11.6030281929
 11
87.1924461329
 21
9.1430281929
  0
LINE
  5
21E
100
AcDbEntity
  8
0
100
AcDbLine
 62
2
  6
CONTINUOUS
 10
90.2366515227
 20
7.3030281929
 11
91.0837077676
 21
11.6030281929
  0
LINE
  5
21F
100
AcDbEntity
  8
0
100
AcDbLine
 62
2
  6
CONTINUOUS
 10
79.1693931047
 20
7.3030281929
 11
82.482726438
 21
7.3030281929
  0
LINE
  5
220
100
AcDbEntity
  8
0
100
AcDbLine
 62
2
  6
CONTINUOUS
 10
86.2833181894
 20
7.3030281929
 11
90.2366515227
 21
7.3030281929
  0
LINE
  5
221
100
AcDbEntity
  8
0
100
AcDbLine
 62
2
  6
CONTINUOUS
 10
91.9172065157
 20
7.3030281929
 11
99.8172065157
 21
7.3030281929
  0
LINE
  5
222
100
AcDbEntity
  8
0
100
AcDbLine
 62
2
  6
CONTINUOUS
 10
113.1512412895
 20
7.3030281929
 11
115.9512412895
 21
7.3030281929
  0
LINE
  5
223
100
AcDbEntity
  8
0
100
AcDbLine
 62
2
  6
CONTINUOUS
 10
119.362726438
 20
7.3030281929
 11
122.4360597713
 21
7.3030281929
  0
LINE
  5
224
100
AcDbEntity
  8
0
100
AcDbLine
 62
2
  6
CONTINUOUS
 10
125.182726438
 20
7.3030281929
 11
128.8893931047
 21
7.3030281929
  0
LINE
  5
225
100
AcDbEntity
  8
0
100
AcDbLine
 62
2
  6
CONTINUOUS
 10
129.8960597713
 20
7.3030281929
 11
133.1693931047
 21
7.3030281929
  0
LINE
  5
226
100
AcDbEntity
  8
0
100
AcDbLine
 62
2
  6
CONTINUOUS
 10
134.7093931047
 20
7.3030281929
 11
137.7560597713
 21
7.3030281929
  0
LINE
  5
227
100
AcDbEntity
  8
0
100
AcDbLine
 62
2
  6
CONTINUOUS
 10
141.4493931047
 20
7.3030281929
 11
145.2960597713
 21
7.3030281929
  0
LINE
  5
228
100
AcDbEntity
  8
0
100
AcDbLine
 62
2
  6
CONTINUOUS
 10
100.013640678
 20
8.4259768204
 11
94.9203073446
 21
8.4259768204
  0
LINE
  5
229
100
AcDbEntity
  8
0
100
AcDbLine
 62
2
  6
CONTINUOUS
 10
95.0200108684
 20
8.9959486309
 11
98.9533442017
 21
8.9959486309
  0
LINE
  5
22A
100
AcDbEntity
  8
0
100
AcDbLine
 62
2
  6
CONTINUOUS
 10
128.8893931047
 20
7.3030281929
 11
125.6493931047
 21
9.1730281929
  0
LINE
  5
22B
100
AcDbEntity
  8
0
100
AcDbLine
 62
2
  6
CONTINUOUS
 10
122.7006799264
 20
8.9763615262
 11
125.182726438
 21
7.3030281929
  0
LINE
  5
22C
100
AcDbEntity
  8
0
100
AcDbLine
 62
2
  6
CONTINUOUS
 10
94.9203073446
 20
8.4259768204
 11
95.0200108684
 21
8.9959486309
  0
LINE
  5
22D
100
AcDbEntity
  8
0
100
AcDbLine
 62
2
  6
CONTINUOUS
 10
95.2072551283
 20
10.0663616501
 11
95.2980054137
 21
10.5851507821
  0
LINE
  5
22E
100
AcDbEntity
  8
0
100
AcDbLine
 62
2
  6
CONTINUOUS
 10
99.1405884616
 20
10.0663616501
 11
95.2072551283
 21
10.0663616501
  0
LINE
  5
22F
100
AcDbEntity
  8
0
100
AcDbLine
 62
2
  6
CONTINUOUS
 10
95.2980054137
 20
10.5851507821
 11
100.1513387471
 21
10.5851507821
  0
LINE
  5
230
100
AcDbEntity
  8
0
100
AcDbLine
 62
2
  6
CONTINUOUS
 10
111.4960597713
 20
10.5930281929
 11
113.802726438
 21
10.5930281929
  0
LINE
  5
231
100
AcDbEntity
  8
0
100
AcDbLine
 62
2
  6
CONTINUOUS
 10
116.602726438
 20
10.5930281929
 11
118.9093931047
 21
10.5930281929
  0
LINE
  5
232
100
AcDbEntity
  8
0
100
AcDbLine
 62
2
  6
CONTINUOUS
 10
145.8360597713
 20
11.6030281929
 11
142.2560597713
 21
11.6030281929
  0
LINE
  5
233
100
AcDbEntity
  8
0
100
AcDbLine
 62
2
  6
CONTINUOUS
 10
138.662726438
 20
11.6030281929
 11
135.6160597713
 21
11.6030281929
  0
LINE
  5
234
100
AcDbEntity
  8
0
100
AcDbLine
 62
2
  6
CONTINUOUS
 10
133.9560597713
 20
11.6030281929
 11
130.682726438
 21
11.6030281929
  0
LINE
  5
235
100
AcDbEntity
  8
0
100
AcDbLine
 62
2
  6
CONTINUOUS
 10
123.622726438
 20
11.6030281929
 11
120.042726438
 21
11.6030281929
  0
LINE
  5
236
100
AcDbEntity
  8
0
100
AcDbLine
 62
2
  6
CONTINUOUS
 10
119.1093931047
 20
11.6030281929
 11
111.6960597713
 21
11.6030281929
  0
LINE
  5
237
100
AcDbEntity
  8
0
100
AcDbLine
 62
2
  6
CONTINUOUS
 10
110.8360597713
 20
11.6030281929
 11
108.082726438
 21
11.6030281929
  0
LINE
  5
238
100
AcDbEntity
  8
0
100
AcDbLine
 62
2
  6
CONTINUOUS
 10
104.562726438
 20
11.6030281929
 11
101.802726438
 21
11.6030281929
  0
LINE
  5
239
100
AcDbEntity
  8
0
100
AcDbLine
 62
2
  6
CONTINUOUS
 10
100.3293931047
 20
11.6030281929
 11
92.6693931047
 21
11.6030281929
  0
LINE
  5
23A
100
AcDbEntity
  8
0
100
AcDbLine
 62
2
  6
CONTINUOUS
 10
91.0837077676
 20
11.6030281929
 11
87.6770411009
 21
11.6030281929
  0
LINE
  5
23B
100
AcDbEntity
  8
0
100
AcDbLine
 62
2
  6
CONTINUOUS
 10
84.2297826829
 20
11.6030281929
 11
80.0164493495
 21
11.6030281929
  0
LINE
  5
23C
100
AcDbEntity
  8
0
100
AcDbLine
 62
2
  6
CONTINUOUS
 10
145.2960597713
 20
7.3030281929
 11
141.222726438
 21
9.5030281929
  0
LINE
  5
23D
100
AcDbEntity
  8
0
100
AcDbLine
 62
2
  6
CONTINUOUS
 10
138.162726438
 20
9.2317046635
 11
141.4493931047
 21
7.3030281929
  0
LINE
  5
23E
100
AcDbEntity
  8
0
100
AcDbLine
 62
2
  6
CONTINUOUS
 10
98.9533442017
 20
8.9959486309
 11
99.1405884616
 21
10.0663616501
  0
LINE
  5
23F
100
AcDbEntity
  8
0
100
AcDbLine
 62
2
  6
CONTINUOUS
 10
100.1513387471
 20
10.5851507821
 11
100.3293931047
 21
11.6030281929
  0
LINE
  5
240
100
AcDbEntity
  8
0
100
AcDbLine
 62
2
  6
CONTINUOUS
 10
99.8172065157
 20
7.3030281929
 11
100.013640678
 21
8.4259768204
  0
LINE
  5
241
100
AcDbEntity
  8
0
100
AcDbLine
 62
2
  6
CONTINUOUS
 10
101.802726438
 20
11.6030281929
 11
101.3760597713
 21
9.3096948596
  0
LINE
  5
242
100
AcDbEntity
  8
0
100
AcDbLine
 62
2
  6
CONTINUOUS
 10
104.1867602898
 20
9.5929104114
 11
104.562726438
 21
11.6030281929
  0
LINE
  5
243
100
AcDbEntity
  8
0
100
AcDbLine
 62
2
  6
CONTINUOUS
 10
110.4093931047
 20
9.3096948596
 11
110.8360597713
 21
11.6030281929
  0
LINE
  5
244
100
AcDbEntity
  8
0
100
AcDbLine
 62
2
  6
CONTINUOUS
 10
108.082726438
 20
11.6030281929
 11
107.7223106327
 21
9.6760509309
  0
LINE
  5
245
100
AcDbEntity
  8
0
100
AcDbLine
 62
2
  6
CONTINUOUS
 10
111.6960597713
 20
11.6030281929
 11
111.4960597713
 21
10.5930281929
  0
LINE
  5
246
100
AcDbEntity
  8
0
100
AcDbLine
 62
2
  6
CONTINUOUS
 10
113.802726438
 20
10.5930281929
 11
113.1512412895
 21
7.3030281929
  0
LINE
  5
247
100
AcDbEntity
  8
0
100
AcDbLine
 62
2
  6
CONTINUOUS
 10
115.9512412895
 20
7.3030281929
 11
116.602726438
 21
10.5930281929
  0
LINE
  5
248
100
AcDbEntity
  8
0
100
AcDbLine
 62
2
  6
CONTINUOUS
 10
120.042726438
 20
11.6030281929
 11
119.362726438
 21
7.3030281929
  0
LINE
  5
249
100
AcDbEntity
  8
0
100
AcDbLine
 62
2
  6
CONTINUOUS
 10
122.4360597713
 20
7.3030281929
 11
122.7006799264
 21
8.9763615262
  0
LINE
  5
24A
100
AcDbEntity
  8
0
100
AcDbLine
 62
2
  6
CONTINUOUS
 10
122.7893931047
 20
9.5373419184
 11
122.9693931047
 21
10.6755772125
  0
LINE
  5
24B
100
AcDbEntity
  8
0
100
AcDbLine
 62
2
  6
CONTINUOUS
 10
118.9093931047
 20
10.5930281929
 11
119.1093931047
 21
11.6030281929
  0
LINE
  5
24C
100
AcDbEntity
  8
0
100
AcDbLine
 62
2
  6
CONTINUOUS
 10
130.682726438
 20
11.6030281929
 11
129.8960597713
 21
7.3030281929
  0
LINE
  5
24D
100
AcDbEntity
  8
0
100
AcDbLine
 62
2
  6
CONTINUOUS
 10
133.1693931047
 20
7.3030281929
 11
133.9560597713
 21
11.6030281929
  0
LINE
  5
24E
100
AcDbEntity
  8
0
100
AcDbLine
 62
2
  6
CONTINUOUS
 10
135.6160597713
 20
11.6030281929
 11
134.7093931047
 21
7.3030281929
  0
LINE
  5
24F
100
AcDbEntity
  8
0
100
AcDbLine
 62
2
  6
CONTINUOUS
 10
137.7560597713
 20
7.3030281929
 11
138.162726438
 21
9.2317046635
  0
LINE
  5
250
100
AcDbEntity
  8
0
100
AcDbLine
 62
2
  6
CONTINUOUS
 10
138.2493931047
 20
9.6427340753
 11
138.662726438
 21
11.6030281929
  0
LINE
  5
251
100
AcDbEntity
  8
0
100
AcDbLine
 62
2
  6
CONTINUOUS
 10
142.2560597713
 20
11.6030281929
 11
138.2493931047
 21
9.6427340753
  0
LINE
  5
252
100
AcDbEntity
  8
0
100
AcDbLine
 62
2
  6
CONTINUOUS
 10
141.222726438
 20
9.5030281929
 11
145.8360597713
 21
11.6030281929
  0
SPLINE
  5
253
100
AcDbEntity
  8
0
100
AcDbSpline
 62
2
  6
CONTINUOUS
 70
0
 71
3
 72
13
 73
9
 74
0
 42
0.0000001
 43
0.0000001
 44
0.0000000001
 40
0.0
 40
0.0
 40
0.0
 40
0.0
 40
0.25
 40
0.5
 40
0.625
 40
0.75
 40
0.875
 40
1.0
 40
1.0
 40
1.0
 40
1.0
 10
122.9693931047
 20
10.6755772125
 30
0.0
 10
123.2386915491
 20
10.6755772125
 30
0.0
 10
123.7727159207
 20
10.6717404148
 30
0.0
 10
124.4182563139
 20
10.648492557
 30
0.0
 10
124.8984145813
 20
10.5994567313
 30
0.0
 10
125.2238514123
 20
10.533578318
 30
0.0
 10
125.4806403429
 20
10.4100974767
 30
0.0
 10
125.5461080301
 20
10.2390631635
 30
0.0
 10
125.522726438
 20
10.1064595655
 30
0.0
  0
SPLINE
  5
254
100
AcDbEntity
  8
0
100
AcDbSpline
 62
2
  6
CONTINUOUS
 70
0
 71
3
 72
12
 73
8
 74
0
 42
0.0000001
 43
0.0000001
 44
0.0000000001
 40
0.0
 40
0.0
 40
0.0
 40
0.0
 40
0.125
 40
0.25
 40
0.5
 40
0.75
 40
1.0
 40
1.0
 40
1.0
 40
1.0
 10
125.522726438
 20
10.1064595655
 30
0.0
 10
125.499494629
 20
9.9747054295
 30
0.0
 10
125.375565196
 20
9.8035173209
 30
0.0
 10
124.978213059
 20
9.6393002466
 30
0.0
 10
124.3669391324
 20
9.5705845058
 30
0.0
 10
123.5892222581
 20
9.540787018
 30
0.0
 10
123.0569664164
 20
9.5373419184
 30
0.0
 10
122.7893931047
 20
9.5373419184
 30
0.0
  0
SPLINE
  5
255
100
AcDbEntity
  8
0
100
AcDbSpline
 62
2
  6
CONTINUOUS
 70
0
 71
3
 72
12
 73
8
 74
0
 42
0.0000001
 43
0.0000001
 44
0.0000000001
 40
0.0
 40
0.0
 40
0.0
 40
0.0
 40
0.25
 40
0.5
 40
0.75
 40
0.875
 40
1.0
 40
1.0
 40
1.0
 40
1.0
 10
125.6493931047
 20
9.1730281929
 30
0.0
 10
126.0007819935
 20
9.1730281929
 30
0.0
 10
126.6904227399
 20
9.1861652243
 30
0.0
 10
127.6512492369
 20
9.279505394
 30
0.0
 10
128.3316070907
 20
9.4776197625
 30
0.0
 10
128.6954377587
 20
9.8165668722
 30
0.0
 10
128.7760597713
 20
10.0873337485
 30
0.0
 10
128.7760597713
 20
10.2630281929
 30
0.0
  0
SPLINE
  5
256
100
AcDbEntity
  8
0
100
AcDbSpline
 62
2
  6
CONTINUOUS
 70
0
 71
3
 72
14
 73
10
 74
0
 42
0.0000001
 43
0.0000001
 44
0.0000000001
 40
0.0
 40
0.0
 40
0.0
 40
0.0
 40
0.0625
 40
0.125
 40
0.25
 40
0.375
 40
0.5
 40
0.75
 40
1.0
 40
1.0
 40
1.0
 40
1.0
 10
128.7760597713
 20
10.2630281929
 30
0.0
 10
128.7760597713
 20
10.3983059707
 30
0.0
 10
128.7248659971
 20
10.617667752
 30
0.0
 10
128.4989967536
 20
10.9329096197
 30
0.0
 10
128.0685377986
 20
11.1788395535
 30
0.0
 10
127.4365931752
 20
11.3585615968
 30
0.0
 10
126.5026758705
 20
11.5068665143
 30
0.0
 10
125.2315498312
 20
11.5885182528
 30
0.0
 10
124.1638375491
 20
11.6030281929
 30
0.0
 10
123.622726438
 20
11.6030281929
 30
0.0
  0
SPLINE
  5
257
100
AcDbEntity
  8
0
100
AcDbSpline
 62
2
  6
CONTINUOUS
 70
0
 71
3
 72
13
 73
9
 74
0
 42
0.0000001
 43
0.0000001
 44
0.0000000001
 40
0.0
 40
0.0
 40
0.0
 40
0.0
 40
0.125
 40
0.25
 40
0.375
 40
0.5
 40
0.75
 40
1.0
 40
1.0
 40
1.0
 40
1.0
 10
101.3760597713
 20
9.3096948596
 30
0.0
 10
101.3256921644
 20
9.0389689724
 30
0.0
 10
101.2914500021
 20
8.5527804321
 30
0.0
 10
101.491012838
 20
8.0320455277
 30
0.0
 10
101.9212756466
 20
7.7030483507
 30
0.0
 10
102.7109344927
 20
7.4438851445
 30
0.0
 10
103.9407964009
 20
7.3217156713
 30
0.0
 10
105.0197970714
 20
7.3030281929
 30
0.0
 10
105.5705398491
 20
7.3030281929
 30
0.0
  0
SPLINE
  5
258
100
AcDbEntity
  8
0
100
AcDbSpline
 62
2
  6
CONTINUOUS
 70
0
 71
3
 72
12
 73
8
 74
0
 42
0.0000001
 43
0.0000001
 44
0.0000000001
 40
0.0
 40
0.0
 40
0.0
 40
0.0
 40
0.25
 40
0.5
 40
0.75
 40
0.875
 40
1.0
 40
1.0
 40
1.0
 40
1.0
 10
105.5705398491
 20
7.3030281929
 30
0.0
 10
106.1127581694
 20
7.3030281929
 30
0.0
 10
107.1814756125
 20
7.3219416247
 30
0.0
 10
108.6842268411
 20
7.4710233315
 30
0.0
 10
109.7100340607
 20
7.8677667512
 30
0.0
 10
110.2172007651
 20
8.562341368
 30
0.0
 10
110.3598050931
 20
9.0431592975
 30
0.0
 10
110.4093931047
 20
9.3096948596
 30
0.0
  0
SPLINE
  5
259
100
AcDbEntity
  8
0
100
AcDbSpline
 62
2
  6
CONTINUOUS
 70
0
 71
3
 72
12
 73
8
 74
0
 42
0.0000001
 43
0.0000001
 44
0.0000000001
 40
0.0
 40
0.0
 40
0.0
 40
0.0
 40
0.25
 40
0.375
 40
0.5
 40
0.75
 40
1.0
 40
1.0
 40
1.0
 40
1.0
 10
107.7223106327
 20
9.6760509309
 30
0.0
 10
107.6725557961
 20
9.4100347421
 30
0.0
 10
107.5867423941
 20
9.0244767855
 30
0.0
 10
107.3862364464
 20
8.6140820906
 30
0.0
 10
107.0897668066
 20
8.3192639469
 30
0.0
 10
106.5241507086
 20
8.185629946
 30
0.0
 10
105.9933556242
 20
8.1730281929
 30
0.0
 10
105.722726438
 20
8.1730281929
 30
0.0
  0
SPLINE
  5
25A
100
AcDbEntity
  8
0
100
AcDbSpline
 62
2
  6
CONTINUOUS
 70
0
 71
3
 72
14
 73
10
 74
0
 42
0.0000001
 43
0.0000001
 44
0.0000000001
 40
0.0
 40
0.0
 40
0.0
 40
0.0
 40
0.25
 40
0.375
 40
0.5
 40
0.625
 40
0.75
 40
0.875
 40
1.0
 40
1.0
 40
1.0
 40
1.0
 10
105.722726438
 20
8.1730281929
 30
0.0
 10
105.4522230268
 20
8.1730281929
 30
0.0
 10
105.0564256816
 20
8.1812961722
 30
0.0
 10
104.5999142925
 20
8.2514530825
 30
0.0
 10
104.3245296566
 20
8.3597002359
 30
0.0
 10
104.155562975
 20
8.55630666
 30
0.0
 10
104.0996784986
 20
8.8468057101
 30
0.0
 10
104.1200169838
 20
9.2005930028
 30
0.0
 10
104.1618944332
 20
9.4599641326
 30
0.0
 10
104.1867602898
 20
9.5929104114
 30
0.0
  0
ENDBLK
  5
25B
100
AcDbEntity
  8
0
  6
BYBLOCK
 62
0
100
AcDbBlockEnd
  0
BLOCK
  5
25C
100
AcDbEntity
  8
0
100
AcDbBlockBegin
  2
_FILLED
 70
64
 10
0.0
 20
0.0
  3
_FILLED
  1

  0
SOLID
  5
25D
100
AcDbEntity
  8
0
  6
BYBLOCK
 62
0
100
AcDbTrace
 10
0.0
 20
0.0
 11
-1.0
 21
0.125
 12
-1.0
 22
-0.125
 13
-1.0
 23
-0.125
  0
ENDBLK
  5
25E
100
AcDbEntity
  8
0
  6
BYBLOCK
 62
0
100
AcDbBlockEnd
  0
BLOCK
  5
25F
100
AcDbEntity
  8
0
100
AcDbBlockBegin
 62
2
  6
CONTINUOUS
  2
*D0
 70
65
 10
0.0
 20
0.0
  3
*D0
  1

  0
MTEXT
  5
260
100
AcDbEntity
  8
0
100
AcDbMText
 62
5
  6
CONTINUOUS
  7
TEXTSTYLE_2
 71
2
 72
1
 10
69.0042707557
 20
267.0701132847
 30
0.0
 11
1.0
 21
0.0
 31
0.0
 44
0.9
  1
\Q15.0;{\Fgdt;n}\Ftxt;40{\Ftxt.shx;\W1.000000;\H3.500000; }[1.57]
 40
3.5
 41
38.875
  0
LINE
  5
261
100
AcDbEntity
  8
0
100
AcDbLine
 62
2
  6
CONTINUOUS
 10
89.0042707557
 20
252.664129405
 11
89.0042707557
 21
264.1642466269
  0
LINE
  5
262
100
AcDbEntity
  8
0
100
AcDbLine
 62
2
  6
CONTINUOUS
 10
49.0042707557
 20
252.664129405
 11
49.0042707557
 21
264.1642466269
  0
LINE
  5
263
100
AcDbEntity
  8
0
100
AcDbLine
 62
2
  6
CONTINUOUS
 10
89.0042707557
 20
262.6642466269
 11
69.0042707557
 21
262.6642466269
  0
LINE
  5
264
100
AcDbEntity
  8
0
100
AcDbLine
 62
2
  6
CONTINUOUS
 10
49.0042707557
 20
262.6642466269
 11
69.0042707557
 21
262.6642466269
  0
INSERT
  5
265
100
AcDbEntity
  8
0
100
AcDbBlockReference
 62
2
  6
CONTINUOUS
  2
_FILLED
 10
89.0042707557
 20
262.6642466269
 41
3.5
 42
3.5
 43
3.5
  0
INSERT
  5
266
100
AcDbEntity
  8
0
100
AcDbBlockReference
 62
2
  6
CONTINUOUS
  2
_FILLED
 10
49.0042707557
 20
262.6642466269
 41
3.5
 42
3.5
 43
3.5
 50
180.0
  0
ENDBLK
  5
267
100
AcDbEntity
  8
0
  6
BYBLOCK
 62
0
100
AcDbBlockEnd
  0
BLOCK
  5
268
100
AcDbEntity
  8
0
100
AcDbBlockBegin
 62
2
  6
CONTINUOUS
  2
*D1
 70
65
 10
0.0
 20
0.0
  3
*D1
  1

  0
MTEXT
  5
269
100
AcDbEntity
  8
0
100
AcDbMText
 62
5
  6
CONTINUOUS
  7
STANDARD
 71
2
 72
1
 10
34.6131628441
 20
212.664129405
 30
0.0
 11
0.0
 21
1.0
 31
0.0
 44
0.9
  1
\Q15.0;80{\Ftxt.shx;\W1.000000;\H3.500000; }[3.15]
 40
3.5
 41
31.5
  0
LINE
  5
26A
100
AcDbEntity
  8
0
100
AcDbLine
 62
2
  6
CONTINUOUS
 10
49.0042707557
 20
172.664129405
 11
37.5190295019
 21
172.664129405
  0
LINE
  5
26B
100
AcDbEntity
  8
0
100
AcDbLine
 62
2
  6
CONTINUOUS
 10
49.0042707557
 20
252.664129405
 11
37.5190295019
 21
252.664129405
  0
LINE
  5
26C
100
AcDbEntity
  8
0
100
AcDbLine
 62
2
  6
CONTINUOUS
 10
39.0190295019
 20
172.664129405
 11
39.0190295019
 21
212.664129405
  0
LINE
  5
26D
100
AcDbEntity
  8
0
100
AcDbLine
 62
2
  6
CONTINUOUS
 10
39.0190295019
 20
252.664129405
 11
39.0190295019
 21
212.664129405
  0
INSERT
  5
26E
100
AcDbEntity
  8
0
100
AcDbBlockReference
 62
2
  6
CONTINUOUS
  2
_FILLED
 10
39.0190295019
 20
172.664129405
 41
3.5
 42
3.5
 43
3.5
 50
270.0
  0
INSERT
  5
26F
100
AcDbEntity
  8
0
100
AcDbBlockReference
 62
2
  6
CONTINUOUS
  2
_FILLED
 10
39.0190295019
 20
252.664129405
 41
3.5
 42
3.5
 43
3.5
 50
90.0
  0
ENDBLK
  5
270
100
AcDbEntity
  8
0
  6
BYBLOCK
 62
0
100
AcDbBlockEnd
  0
BLOCK
  5
271
100
AcDbEntity
  8
0
100
AcDbBlockBegin
 62
2
  6
CONTINUOUS
  2
*D2
 70
65
 10
0.0
 20
0.0
  3
*D2
  1

  0
MTEXT
  5
272
100
AcDbEntity
  8
0
100
AcDbMText
 62
5
  6
CONTINUOUS
  7
TEXTSTYLE_2
 71
1
 72
1
 10
81.3977508136
 20
79.1690039547
 30
0.0
 11
1.0
 21
0.0
 31
0.0
 44
0.9
  1
\Q15.0;{\Fgdt;n}\Ftxt;10,5{\Ftxt.shx;\W1.000000;\H3.500000; }[.41]
 40
3.5
 41
40.75
  0
LINE
  5
273
100
AcDbEntity
  8
0
100
AcDbLine
 62
2
  6
CONTINUOUS
 10
63.7542707547
 20
101.6979562784
 11
63.7542707547
 21
73.2631372968
  0
LINE
  5
274
100
AcDbEntity
  8
0
100
AcDbLine
 62
2
  6
CONTINUOUS
 10
74.2542707547
 20
101.6979562784
 11
74.2542707547
 21
73.2631372968
  0
LINE
  5
275
100
AcDbEntity
  8
0
100
AcDbLine
 62
2
  6
CONTINUOUS
 10
63.7542707547
 20
74.7631372968
 11
57.7542707547
 21
74.7631372968
  0
LINE
  5
276
100
AcDbEntity
  8
0
100
AcDbLine
 62
2
  6
CONTINUOUS
 10
57.7542707547
 20
74.7631372968
 11
69.0042707547
 21
74.7631372968
  0
LINE
  5
277
100
AcDbEntity
  8
0
100
AcDbLine
 62
2
  6
CONTINUOUS
 10
74.2542707547
 20
74.7631372968
 11
108.5644174803
 21
74.7631372968
  0
LINE
  5
278
100
AcDbEntity
  8
0
100
AcDbLine
 62
2
  6
CONTINUOUS
 10
108.5644174803
 20
74.7631372968
 11
69.0042707547
 21
74.7631372968
  0
INSERT
  5
279
100
AcDbEntity
  8
0
100
AcDbBlockReference
 62
2
  6
CONTINUOUS
  2
_FILLED
 10
63.7542707547
 20
74.7631372968
 41
3.5
 42
3.5
 43
3.5
  0
INSERT
  5
27A
100
AcDbEntity
  8
0
100
AcDbBlockReference
 62
2
  6
CONTINUOUS
  2
_FILLED
 10
74.2542707547
 20
74.7631372968
 41
3.5
 42
3.5
 43
3.5
 50
180.0
  0
ENDBLK
  5
27B
100
AcDbEntity
  8
0
  6
BYBLOCK
 62
0
100
AcDbBlockEnd
  0
BLOCK
  5
27C
100
AcDbEntity
  8
0
100
AcDbBlockBegin
  2
*T1
 70
1
 10
0.0
 20
0.0
  3
*T1
  1

  0
LINE
  5
27D
100
AcDbEntity
  8
0
100
AcDbLine
 62
7
  6
CONTINUOUS
 10
0.0
 20
0.0
 11
133.0
 21
0.0
  0
LINE
  5
27E
100
AcDbEntity
  8
0
100
AcDbLine
 62
7
  6
CONTINUOUS
 10
0.0
 20
0.0
 11
0.0
 21
-37.0
  0
LINE
  5
27F
100
AcDbEntity
  8
0
100
AcDbLine
 62
7
  6
CONTINUOUS
 10
80.5
 20
-4.5
 11
133.0
 21
-4.5
  0
LINE
  5
280
100
AcDbEntity
  8
0
100
AcDbLine
 62
7
  6
CONTINUOUS
 10
0.0
 20
-9.0
 11
133.0
 21
-9.0
  0
LINE
  5
281
100
AcDbEntity
  8
0
100
AcDbLine
 62
7
  6
CONTINUOUS
 10
80.5
 20
-13.5
 11
133.0
 21
-13.5
  0
LINE
  5
282
100
AcDbEntity
  8
0
100
AcDbLine
 62
7
  6
CONTINUOUS
 10
80.5
 20
-23.5
 11
133.0
 21
-23.5
  0
LINE
  5
283
100
AcDbEntity
  8
0
100
AcDbLine
 62
7
  6
CONTINUOUS
 10
0.0
 20
-28.0
 11
133.0
 21
-28.0
  0
LINE
  5
284
100
AcDbEntity
  8
0
100
AcDbLine
 62
7
  6
CONTINUOUS
 10
0.0
 20
-37.0
 11
133.0
 21
-37.0
  0
LINE
  5
285
100
AcDbEntity
  8
0
100
AcDbLine
 62
7
  6
CONTINUOUS
 10
58.0
 20
0.0
 11
58.0
 21
-9.0
  0
LINE
  5
286
100
AcDbEntity
  8
0
100
AcDbLine
 62
7
  6
CONTINUOUS
 10
80.5
 20
0.0
 11
80.5
 21
-37.0
  0
LINE
  5
287
100
AcDbEntity
  8
0
100
AcDbLine
 62
7
  6
CONTINUOUS
 10
98.0
 20
0.0
 11
98.0
 21
-23.5
  0
LINE
  5
288
100
AcDbEntity
  8
0
100
AcDbLine
 62
7
  6
CONTINUOUS
 10
115.5
 20
0.0
 11
115.5
 21
-23.5
  0
LINE
  5
289
100
AcDbEntity
  8
0
100
AcDbLine
 62
7
  6
CONTINUOUS
 10
133.0
 20
0.0
 11
133.0
 21
-37.0
  0
MTEXT
  5
28A
100
AcDbEntity
  8
3D_NOTIZEN
100
AcDbMText
 62
5
  6
CONTINUOUS
  7
TEXTSTYLE_3
 71
1
 72
1
 10
0.0625
 20
-3.5352761804
 30
0.0
 11
1.0
 21
0.0
 31
0.0
 44
0.9
  1
\Q15.0; Refer to protection notice ISO 16016.
 40
2.0
 41
105.2380952381
  0
MTEXT
  5
28B
100
AcDbEntity
  8
3D_NOTIZEN
100
AcDbMText
 62
5
  6
CONTINUOUS
  7
TEXTSTYLE_3
 71
2
 72
1
 10
69.25
 20
-1.2852761804
 30
0.0
 11
1.0
 21
0.0
 31
0.0
 44
0.9
  1
\Q15.0;Scale
 40
2.0
 41
14.1904761905
  0
MTEXT
  5
28C
100
AcDbEntity
  8
3D_NOTIZEN
100
AcDbMText
 62
5
  6
CONTINUOUS
  7
TEXTSTYLE_3
 71
2
 72
1
 10
106.75
 20
-1.2852761804
 30
0.0
 11
1.0
 21
0.0
 31
0.0
 44
0.9
  1
\Q15.0;Date
 40
2.0
 41
12.380952381
  0
MTEXT
  5
28D
100
AcDbEntity
  8
3D_NOTIZEN
100
AcDbMText
 62
5
  6
CONTINUOUS
  7
TEXTSTYLE_3
 71
2
 72
1
 10
124.25
 20
-1.2852761804
 30
0.0
 11
1.0
 21
0.0
 31
0.0
 44
0.9
  1
\Q15.0;Name
 40
2.0
 41
13.3333333333
  0
MTEXT
  5
28E
100
AcDbEntity
  8
3D_NOTIZEN
100
AcDbMText
 62
5
  6
CONTINUOUS
  7
TEXTSTYLE_3
 71
2
 72
1
 10
69.25
 20
-4.6839535412
 30
0.0
 11
1.0
 21
0.0
 31
0.0
 44
0.9
  1
\Q15.0;1:1 \H2.0;(A4)
 40
3.0
 41
24.8571428571
  0
MTEXT
  5
28F
100
AcDbEntity
  8
3D_NOTIZEN
100
AcDbMText
 62
5
  6
CONTINUOUS
  7
TEXTSTYLE_3
 71
1
 72
1
 10
80.5625
 20
-5.7852761804
 30
0.0
 11
1.0
 21
0.0
 31
0.0
 44
0.9
  1
\Q15.0; Drawn
 40
2.0
 41
19.8095238095
  0
MTEXT
  5
290
100
AcDbEntity
  8
3D_NOTIZEN
100
AcDbMText
 62
5
  6
CONTINUOUS
  7
TEXTSTYLE_3
 71
2
 72
1
 10
106.75
 20
-5.7852761804
 30
0.0
 11
1.0
 21
0.0
 31
0.0
 44
0.9
  1
\Q15.0;27.11.15
 40
2.0
 41
21.3333333333
  0
MTEXT
  5
291
100
AcDbEntity
  8
3D_NOTIZEN
100
AcDbMText
 62
5
  6
CONTINUOUS
  7
TEXTSTYLE_3
 71
2
 72
1
 10
124.25
 20
-5.7852761804
 30
0.0
 11
1.0
 21
0.0
 31
0.0
 44
0.9
  1
\Q15.0;jutz b
 40
2.0
 41
16.7619047619
  0
MTEXT
  5
292
100
AcDbEntity
  8
3D_NOTIZEN
100
AcDbMText
 62
5
  6
CONTINUOUS
  7
TEXTSTYLE_3
 71
1
 72
1
 10
0.0625
 20
-10.2852761804
 30
0.0
 11
1.0
 21
0.0
 31
0.0
 44
0.9
  1
\Q15.0; Name
 40
2.0
 41
16.4761904762
  0
MTEXT
  5
293
100
AcDbEntity
  8
3D_NOTIZEN
100
AcDbMText
 62
5
  6
CONTINUOUS
  7
TEXTSTYLE_3
 71
1
 72
1
 10
80.5625
 20
-10.2852761804
 30
0.0
 11
1.0
 21
0.0
 31
0.0
 44
1.2
  1
\Q15.0; Modified
 40
2.0
 41
25.2380952381
  0
MTEXT
  5
294
100
AcDbEntity
  8
3D_NOTIZEN
100
AcDbMText
 62
5
  6
CONTINUOUS
  7
TEXTSTYLE_3
 71
2
 72
1
 10
106.75
 20
-10.2852761804
 30
0.0
 11
1.0
 21
0.0
 31
0.0
 44
0.9
  1
\Q15.0;-
 40
2.0
 41
3.619047619
  0
MTEXT
  5
295
100
AcDbEntity
  8
3D_NOTIZEN
100
AcDbMText
 62
5
  6
CONTINUOUS
  7
TEXTSTYLE_3
 71
2
 72
1
 10
124.25
 20
-10.2852761804
 30
0.0
 11
1.0
 21
0.0
 31
0.0
 44
0.9
  1
\Q15.0;-
 40
2.0
 41
3.619047619
  0
MTEXT
  5
296
100
AcDbEntity
  8
3D_NOTIZEN
100
AcDbMText
 62
5
  6
CONTINUOUS
  7
TEXTSTYLE_3
 71
2
 72
1
 10
40.25
 20
-11.5941333421
 30
0.0
 11
1.0
 21
0.0
 31
0.0
 44
0.9
  1
\Q15.0;Handtool HTXX-14\P 
 40
3.5
 41
82.8333333333
  0
MTEXT
  5
297
100
AcDbEntity
  8
3D_NOTIZEN
100
AcDbMText
 62
5
  6
CONTINUOUS
  7
TEXTSTYLE_3
 71
1
 72
1
 10
80.5625
 20
-15.0352761804
 30
0.0
 11
1.0
 21
0.0
 31
0.0
 44
0.9
  1
\Q15.0; Change-No.
 40
2.0
 41
32.6666666667
  0
MTEXT
  5
298
100
AcDbEntity
  8
3D_NOTIZEN
100
AcDbMText
 62
5
  6
CONTINUOUS
  7
TEXTSTYLE_3
 71
2
 72
1
 10
106.75
 20
-15.0352761804
 30
0.0
 11
1.0
 21
0.0
 31
0.0
 44
0.9
  1
\Q15.0;Sheet-No.
 40
2.0
 41
25.9047619048
  0
MTEXT
  5
299
100
AcDbEntity
  8
3D_NOTIZEN
100
AcDbMText
 62
5
  6
CONTINUOUS
  7
TEXTSTYLE_3
 71
2
 72
1
 10
124.25
 20
-15.0352761804
 30
0.0
 11
1.0
 21
0.0
 31
0.0
 44
0.9
  1
\Q15.0;Index
 40
2.0
 41
14.7619047619
  0
MTEXT
  5
29A
100
AcDbEntity
  8
3D_NOTIZEN
100
AcDbMText
 62
5
  6
CONTINUOUS
  7
TEXTSTYLE_3
 71
2
 72
1
 10
40.25
 20
-18.7545059021
 30
0.0
 11
1.0
 21
0.0
 31
0.0
 44
0.9
  1
\Q15.0;HTXX-14
 40
5.0
 41
56.1904761905
  0
MTEXT
  5
29B
100
AcDbEntity
  8
3D_NOTIZEN
100
AcDbMText
 62
5
  6
CONTINUOUS
  7
TEXTSTYLE_3
 71
1
 72
1
 10
80.5625
 20
-20.0352761804
 30
0.0
 11
1.0
 21
0.0
 31
0.0
 44
0.9
  1
\Q15.0; - 
 40
2.0
 41
9.9047619048
  0
MTEXT
  5
29C
100
AcDbEntity
  8
3D_NOTIZEN
100
AcDbMText
 62
5
  6
CONTINUOUS
  7
TEXTSTYLE_3
 71
2
 72
1
 10
106.75
 20
-20.0352761804
 30
0.0
 11
1.0
 21
0.0
 31
0.0
 44
0.9
  1
\Q15.0;1 / 1 
 40
2.0
 41
17.8095238095
  0
MTEXT
  5
29D
100
AcDbEntity
  8
3D_NOTIZEN
100
AcDbMText
 62
5
  6
CONTINUOUS
  7
TEXTSTYLE_3
 71
1
 72
1
 10
80.5625
 20
-24.7852761804
 30
0.0
 11
1.0
 21
0.0
 31
0.0
 44
0.9
  1
\Q15.0; Replacement for:
 40
2.0
 41
47.0476190476
  0
MTEXT
  5
29E
100
AcDbEntity
  8
3D_NOTIZEN
100
AcDbMText
 62
5
  6
CONTINUOUS
  7
TEXTSTYLE_3
 71
1
 72
1
 10
80.5625
 20
-28.5352761804
 30
0.0
 11
1.0
 21
0.0
 31
0.0
 44
0.9
  1
\Q15.0; Drawing-No.
 40
2.0
 41
35.9047619048
  0
MTEXT
  5
29F
100
AcDbEntity
  8
3D_NOTIZEN
100
AcDbMText
 62
5
  6
CONTINUOUS
  7
TEXTSTYLE_3
 71
2
 72
1
 10
106.75
 20
-32.3117333157
 30
0.0
 11
1.0
 21
0.0
 31
0.0
 44
0.9
  1
\Q15.0;ST-HTXX-14
 40
3.5
 41
55.8333333333
  0
ENDBLK
  5
2A0
100
AcDbEntity
  8
0
  6
BYBLOCK
 62
0
100
AcDbBlockEnd
  0
ENDSEC
  0
SECTION
  2
ENTITIES
  0
INSERT
  5
2A1
100
AcDbEntity
  8
0
100
AcDbBlockReference
 62
2
  6
CONTINUOUS
  2
NEUTRIK_BL0
 10
112.502726438
 20
9.4530281929
  0
HATCH
  5
2A2
100
AcDbEntity
  8
0
100
AcDbHatch
 62
2
  6
CONTINUOUS
 10
0.0
 20
0.0
 30
0.0
210
0.0
220
0.0
230
1.0
  2
B
 70
0
 71
0
 91
2
 92
1
 93
11
 72
1
 10
53.6394921467
 20
252.664129405
 11
52.0042707547
 21
252.664129405
 72
4
 94
3
 73
0
 74
0
 95
40
 96
36
 40
0.0
 40
0.0
 40
0.0
 40
0.0
 40
0.0032078257
 40
0.0149458437
 40
0.0269391673
 40
0.039174901
 40
0.0520527435
 40
0.0664017126
 40
0.0831066573
 40
0.102916007
 40
0.1258256804
 40
0.1513671474
 40
0.1795706541
 40
0.2109618662
 40
0.2456453017
 40
0.2828965542
 40
0.3216426518
 40
0.3597671224
 40
0.3946300777
 40
0.4269812135
 40
0.4611952475
 40
0.4952527536
 40
0.5287517178
 40
0.562378327
 40
0.5961602197
 40
0.6299063382
 40
0.6636553682
 40
0.697808608
 40
0.733652039
 40
0.7725959571
 40
0.814851052
 40
0.859854413
 40
0.9066000435
 40
0.9537850877
 40
1.0
 40
1.0
 40
1.0
 40
1.0
 10
53.6394921467
 20
252.664129405
 10
53.6483656484
 20
252.6636372276
 10
53.6896842898
 20
252.6608903962
 10
53.7638545477
 20
252.6520915243
 10
53.861542926
 20
252.6319598082
 10
53.9600529686
 20
252.6021707838
 10
54.0613419751
 20
252.5606731533
 10
54.169066007
 20
252.5036910696
 10
54.2865312679
 20
252.4254900546
 10
54.4135398328
 20
252.320370334
 10
54.5468210967
 20
252.1859044135
 10
54.6827127934
 20
252.0225081276
 10
54.8201523218
 20
251.8307135672
 10
54.9591530542
 20
251.6095246032
 10
55.0991142758
 20
251.3598086229
 10
55.2377407453
 20
251.0863350338
 10
55.3715635304
 20
250.7999534112
 10
55.4952481215
 20
250.5162645047
 10
55.6060766767
 20
250.2463798988
 10
55.7086855676
 20
249.9848741855
 10
55.8072650711
 20
249.7242084108
 10
55.9040970566
 20
249.4595023383
 10
55.9977610175
 20
249.1953851502
 10
56.0887788694
 20
248.9311524727
 10
56.1779114784
 20
248.6655567353
 10
56.2653525197
 20
248.3990431724
 10
56.3515432619
 20
248.1310424662
 10
56.4380269831
 20
247.8570390161
 10
56.5273498774
 20
247.5688489007
 10
56.6217103902
 20
247.2587332091
 10
56.7217421667
 20
246.9238308659
 10
56.8262045471
 20
246.5677062574
 10
56.932771253
 20
246.1979748135
 10
57.0387148397
 20
245.8245748447
 10
57.1080942928
 20
245.5753783246
 10
57.142386153
 20
245.4520640959
 72
4
 94
3
 73
0
 74
0
 95
30
 96
26
 40
0.0
 40
0.0
 40
0.0
 40
0.0
 40
0.0430645708
 40
0.0862728178
 40
0.1293600694
 40
0.1722650897
 40
0.2161734917
 40
0.2638603451
 40
0.3176801834
 40
0.3776241191
 40
0.4387827143
 40
0.4981558761
 40
0.5545595534
 40
0.6078618461
 40
0.6582148258
 40
0.7058948705
 40
0.750475335
 40
0.79039885
 40
0.8252189806
 40
0.8563580967
 40
0.8854671435
 40
0.9142749776
 40
0.9434754976
 40
0.9727786564
 40
1.0
 40
1.0
 40
1.0
 40
1.0
 10
57.142386153
 20
245.4520640959
 10
57.1644822891
 20
245.37260594
 10
57.2089511636
 20
245.2134808383
 10
57.2763423921
 20
244.9750842791
 10
57.3444905844
 20
244.7372206023
 10
57.4140554556
 20
244.498370141
 10
57.4874006697
 20
244.2514492557
 10
57.5684166834
 20
243.9850064562
 10
57.6609092116
 20
243.6899630254
 10
57.7655742024
 20
243.3717227826
 10
57.8796364563
 20
243.0454279966
 10
57.999663749
 20
242.7284918488
 10
58.1253015076
 20
242.429952885
 10
58.257723686
 20
242.1533351124
 10
58.3989576107
 20
241.8999834045
 10
58.5509373455
 20
241.6725930099
 10
58.7125712773
 20
241.4771115422
 10
58.8773589537
 20
241.3180587067
 10
59.0387732133
 20
241.1946197439
 10
59.194952273
 20
241.100373081
 10
59.3497270504
 20
241.0280130843
 10
59.5075617062
 20
240.9730857375
 10
59.6704554682
 20
240.934093791
 10
59.8333745024
 20
240.9119241383
 10
59.9416625893
 20
240.906966555
 10
59.9937973636
 20
240.9066850952
 72
1
 10
60.0042707547
 20
240.9066568433
 11
60.740030917
 21
240.9066568433
 72
1
 10
63.7542707547
 20
212.2280804745
 11
60.740030917
 21
240.9066568433
 72
1
 10
63.7542707547
 20
212.2280804745
 11
63.7542707547
 21
173.2640434946
 72
1
 10
63.1543186191
 20
172.6640815414
 11
63.7543137099
 21
173.2640864505
 72
1
 10
63.1542707547
 20
172.664129405
 11
52.0042707547
 21
172.664129405
 72
2
 10
52.0042707547
 20
175.664129405
 40
3.0
 50
180.0
 51
270.0
 73
1
 72
1
 10
49.0042707547
 20
175.664129405
 11
49.0042707547
 21
249.664129405
 72
2
 10
52.0042707547
 20
249.664129405
 40
3.0
 50
90.0
 51
180.0
 73
1
 97
0
 92
1
 93
11
 72
1
 10
86.0042707547
 20
252.664129405
 11
84.3690493627
 21
252.664129405
 72
2
 10
86.0042707547
 20
249.664129405
 40
3.0
 50
0.0
 51
90.0
 73
1
 72
1
 10
89.0042707547
 20
175.664129405
 11
89.0042707547
 21
249.664129405
 72
2
 10
86.0042707547
 20
175.664129405
 40
3.0
 50
270.0
 51
360.0
 73
1
 72
1
 10
86.0042707547
 20
172.664129405
 11
74.8542707547
 21
172.664129405
 72
1
 10
74.2542277995
 20
173.2640864505
 11
74.8542228904
 21
172.6640815414
 72
1
 10
74.2542707547
 20
212.2280804745
 11
74.2542707547
 21
173.2640434946
 72
1
 10
74.2542707547
 20
212.2280804745
 11
77.2685105925
 21
240.9066568433
 72
1
 10
77.2685105925
 20
240.9066568433
 11
78.0042707547
 21
240.9066568433
 72
4
 94
3
 73
0
 74
0
 95
30
 96
26
 40
0.0
 40
0.0
 40
0.0
 40
0.0
 40
0.0272213436
 40
0.0565245024
 40
0.0857250224
 40
0.1145328565
 40
0.1436419033
 40
0.1747810194
 40
0.20960115
 40
0.249524665
 40
0.2941051295
 40
0.3417851742
 40
0.3921381539
 40
0.4454404466
 40
0.5018441239
 40
0.5612172857
 40
0.6223758809
 40
0.6823198166
 40
0.7361396549
 40
0.7838265083
 40
0.8277349103
 40
0.8706399306
 40
0.9137271822
 40
0.9569354292
 40
1.0
 40
1.0
 40
1.0
 40
1.0
 10
78.0147441458
 20
240.9066850952
 10
78.0668789202
 20
240.906966555
 10
78.1751670071
 20
240.9119241383
 10
78.3380860412
 20
240.934093791
 10
78.5009798032
 20
240.9730857375
 10
78.6588144591
 20
241.0280130843
 10
78.8135892364
 20
241.100373081
 10
78.9697682961
 20
241.1946197439
 10
79.1311825557
 20
241.3180587067
 10
79.2959702321
 20
241.4771115422
 10
79.457604164
 20
241.6725930099
 10
79.6095838987
 20
241.8999834045
 10
79.7508178234
 20
242.1533351124
 10
79.8832400018
 20
242.429952885
 10
80.0088777604
 20
242.7284918488
 10
80.1289050531
 20
243.0454279966
 10
80.2429673071
 20
243.3717227826
 10
80.3476322979
 20
243.6899630254
 10
80.4401248261
 20
243.9850064562
 10
80.5211408397
 20
244.2514492557
 10
80.5944860538
 20
244.498370141
 10
80.664050925
 20
244.7372206023
 10
80.7321991173
 20
244.9750842791
 10
80.7995903459
 20
245.2134808383
 10
80.8440592204
 20
245.37260594
 10
80.8661553564
 20
245.4520640959
 72
4
 94
3
 73
0
 74
0
 95
40
 96
36
 40
0.0
 40
0.0
 40
0.0
 40
0.0
 40
0.0462149123
 40
0.0933999565
 40
0.140145587
 40
0.185148948
 40
0.2274040429
 40
0.266347961
 40
0.302191392
 40
0.3363446318
 40
0.3700936618
 40
0.4038397803
 40
0.437621673
 40
0.4712482822
 40
0.5047472464
 40
0.5388047525
 40
0.5730187865
 40
0.6053699223
 40
0.6402328776
 40
0.6783573482
 40
0.7171034458
 40
0.7543546983
 40
0.7890381338
 40
0.8204293459
 40
0.8486328526
 40
0.8741743196
 40
0.897083993
 40
0.9168933427
 40
0.9335982874
 40
0.9479472565
 40
0.960825099
 40
0.9730608327
 40
0.9850541563
 40
0.9967921743
 40
1.0
 40
1.0
 40
1.0
 40
1.0
 10
80.8661553564
 20
245.4520640959
 10
80.9004472166
 20
245.5753783246
 10
80.9698266697
 20
245.8245748447
 10
81.0757702565
 20
246.1979748135
 10
81.1823369624
 20
246.5677062574
 10
81.2867993427
 20
246.9238308659
 10
81.3868311193
 20
247.2587332091
 10
81.4811916321
 20
247.5688489007
 10
81.5705145263
 20
247.8570390161
 10
81.6569982475
 20
248.1310424662
 10
81.7431889898
 20
248.3990431724
 10
81.830630031
 20
248.6655567353
 10
81.9197626401
 20
248.9311524727
 10
82.0107804919
 20
249.1953851502
 10
82.1044444528
 20
249.4595023383
 10
82.2012764384
 20
249.7242084108
 10
82.2998559419
 20
249.9848741855
 10
82.4024648328
 20
250.2463798988
 10
82.5132933879
 20
250.5162645047
 10
82.636977979
 20
250.7999534112
 10
82.7708007641
 20
251.0863350338
 10
82.9094272337
 20
251.3598086229
 10
83.0493884552
 20
251.6095246032
 10
83.1883891877
 20
251.8307135672
 10
83.3258287161
 20
252.0225081276
 10
83.4617204127
 20
252.1859044135
 10
83.5950016766
 20
252.320370334
 10
83.7220102415
 20
252.4254900546
 10
83.8394755024
 20
252.5036910696
 10
83.9471995344
 20
252.5606731533
 10
84.0484885408
 20
252.6021707838
 10
84.1469985834
 20
252.6319598082
 10
84.2446869617
 20
252.6520915243
 10
84.3188572197
 20
252.6608903962
 10
84.3601758611
 20
252.6636372276
 10
84.3690493627
 20
252.664129405
 97
0
 75
0
 76
0
 52
45.0
 41
6.3367991373
 77
0
 78
1
 53
45.0
 43
0.0
 44
0.0
 45
-4.480793641
 46
4.480793641
 79
0
 98
1
 10
0.0
 20
0.0
  0
DIMENSION
  5
2A3
100
AcDbEntity
  8
0
100
AcDbDimension
 62
2
  6
CONTINUOUS
  2
*D0
 10
49.0042707557
 20
262.6642466269
 11
69.0042707557
 21
262.6642466269
 70
160
 71
2
 42
40.0
  1
%%c<>
  3
DIMSTYLE_1
100
AcDbAlignedDimension
 13
89.0042707557
 23
252.664129405
 14
49.0042707557
 24
252.664129405
 50
180.0
100
AcDbRotatedDimension
  0
DIMENSION
  5
2A4
100
AcDbEntity
  8
0
100
AcDbDimension
 62
2
  6
CONTINUOUS
  2
*D1
 10
39.0190295019
 20
252.664129405
 11
39.0190295019
 21
212.664129405
 70
160
 71
2
 42
80.0
  3
DIMSTYLE_1
100
AcDbAlignedDimension
 13
49.0042707557
 23
172.664129405
 14
49.0042707557
 24
252.664129405
 50
90.0
100
AcDbRotatedDimension
  0
DIMENSION
  5
2A5
100
AcDbEntity
  8
0
100
AcDbDimension
 62
2
  6
CONTINUOUS
  2
*D2
 10
74.2542707547
 20
74.7631372968
 11
94.9810841469
 21
74.7631372968
 70
160
 71
1
 42
10.5
  1
%%c<>
  3
DIMSTYLE_2
100
AcDbAlignedDimension
 13
63.7542707547
 23
101.6979562784
 14
74.2542707547
 24
101.6979562784
100
AcDbRotatedDimension
  0
ACAD_TABLE
  5
2A6
100
AcDbEntity
  8
0
 62
2
  6
CONTINUOUS
100
AcDbBlockReference
  2
*T1
 10
72.0
 20
42.0
 30
0.0
100
AcDbTable
342
       399
343
213
 11
1.0
 21
0.0
 31
0.0
 90
22
 91
8
 92
7
 93
16
 94
0
 95
0
 96
0
 41
0.0
141
4.5
141
4.5
141
4.5
141
5.0
141
5.0
141
4.5
141
3.0
141
6.0
142
58.0
142
12.0
142
10.5
142
17.5
142
7.0
142
10.5
142
17.5
171
1
172
0
173
0
174
0
175
1
176
2
177
57
178
0
145
0.0
  7
TEXTSTYLE_3
  1
\Q15.0; Refer to protection notice ISO 16016.
170
4
140
2.0
 64
5
171
1
172
0
173
0
174
0
175
2
176
1
177
57
178
0
145
0.0
  7
TEXTSTYLE_3
  1
\Q15.0;Scale
170
5
140
2.0
 64
5
171
1
172
0
173
1
174
0
175
1
176
1
177
1
178
0
145
0.0
170
1
171
1
172
0
173
0
174
0
175
1
176
1
177
57
178
0
145
0.0
  7
TEXTSTYLE_3
  1
\Q15.0; 
170
4
140
2.0
 64
5
171
1
172
0
173
0
174
0
175
2
176
1
177
57
178
0
145
0.0
  7
TEXTSTYLE_3
  1
\Q15.0;Date
170
5
140
2.0
 64
5
171
1
172
0
173
1
174
0
175
1
176
1
177
1
178
0
145
0.0
170
1
171
1
172
0
173
0
174
0
175
1
176
1
177
57
178
0
145
0.0
  7
TEXTSTYLE_3
  1
\Q15.0;Name
170
5
140
2.0
 64
5
171
1
172
0
173
1
174
0
175
1
176
1
177
1
178
0
145
0.0
170
1
171
1
172
0
173
0
174
0
175
2
176
1
177
57
178
0
145
0.0
  7
TEXTSTYLE_3
  1
\Q15.0;1:1 \H2.0;(A4)
170
2
140
3.0
 64
5
171
1
172
0
173
1
174
0
175
1
176
1
177
1
178
0
145
0.0
170
1
171
1
172
0
173
0
174
0
175
1
176
1
177
57
178
0
145
0.0
  7
TEXTSTYLE_3
  1
\Q15.0; Drawn
170
4
140
2.0
 64
5
171
1
172
0
173
0
174
0
175
2
176
1
177
57
178
0
145
0.0
  7
TEXTSTYLE_3
  1
\Q15.0;27.11.15
170
5
140
2.0
 64
5
171
1
172
0
173
1
174
0
175
1
176
1
177
1
178
0
145
0.0
170
1
171
1
172
0
173
0
174
0
175
1
176
1
177
57
178
0
145
0.0
  7
TEXTSTYLE_3
  1
\Q15.0;jutz b
170
5
140
2.0
 64
5
171
1
172
0
173
0
174
0
175
1
176
1
177
57
178
0
145
0.0
  7
TEXTSTYLE_3
  1
\Q15.0; Name
170
4
140
2.0
 64
5
171
1
172
0
173
0
174
0
175
1
176
1
177
33
178
0
145
0.0
  1
 
170
1
140
0.15625
171
1
172
0
173
0
174
0
175
1
176
1
177
33
178
0
145
0.0
  1
 
170
1
140
0.15625
171
1
172
0
173
0
174
0
175
1
176
1
177
57
178
0
145
0.0
  7
TEXTSTYLE_3
  1
\Q15.0; Modified
170
4
140
2.0
 64
5
171
1
172
0
173
0
174
0
175
2
176
1
177
57
178
0
145
0.0
  7
TEXTSTYLE_3
  1
\Q15.0;-
170
5
140
2.0
 64
5
171
1
172
0
173
1
174
0
175
1
176
1
177
1
178
0
145
0.0
170
1
171
1
172
0
173
0
174
0
175
1
176
1
177
57
178
0
145
0.0
  7
TEXTSTYLE_3
  1
\Q15.0;-
170
5
140
2.0
 64
5
171
1
172
0
173
0
174
0
175
3
176
1
177
57
178
0
145
0.0
  7
TEXTSTYLE_3
  1
\Q15.0;Handtool HTXX-14\P 
170
5
140
3.5
 64
5
171
1
172
0
173
1
174
0
175
1
176
1
177
1
178
0
145
0.0
170
1
171
1
172
0
173
1
174
0
175
1
176
1
177
1
178
0
145
0.0
170
1
171
1
172
0
173
0
174
0
175
1
176
1
177
57
178
0
145
0.0
  7
TEXTSTYLE_3
  1
\Q15.0; Change-No.
170
4
140
2.0
 64
5
171
1
172
0
173
0
174
0
175
2
176
1
177
57
178
0
145
0.0
  7
TEXTSTYLE_3
  1
\Q15.0;Sheet-No.
170
5
140
2.0
 64
5
171
1
172
0
173
1
174
0
175
1
176
1
177
1
178
0
145
0.0
170
1
171
1
172
0
173
0
174
0
175
1
176
1
177
57
178
0
145
0.0
  7
TEXTSTYLE_3
  1
\Q15.0;Index
170
5
140
2.0
 64
5
171
1
172
0
173
0
174
0
175
3
176
2
177
57
178
0
145
0.0
  7
TEXTSTYLE_3
  1
\Q15.0;HTXX-14
170
2
140
5.0
 64
5
171
1
172
0
173
1
174
0
175
1
176
1
177
1
178
0
145
0.0
170
1
171
1
172
0
173
1
174
0
175
1
176
1
177
1
178
0
145
0.0
170
1
171
1
172
0
173
0
174
0
175
1
176
1
177
57
178
0
145
0.0
  7
TEXTSTYLE_3
  1
\Q15.0; - 
170
4
140
2.0
 64
5
171
1
172
0
173
0
174
0
175
2
176
1
177
57
178
0
145
0.0
  7
TEXTSTYLE_3
  1
\Q15.0;1 / 1 
170
5
140
2.0
 64
5
171
1
172
0
173
1
174
0
175
1
176
1
177
1
178
0
145
0.0
170
1
171
1
172
0
173
0
174
0
175
1
176
1
177
33
178
0
145
0.0
  1
 
170
2
140
0.15625
171
1
172
0
173
1
174
0
175
1
176
1
177
1
178
0
145
0.0
170
1
171
1
172
0
173
1
174
0
175
1
176
1
177
1
178
0
145
0.0
170
1
171
1
172
0
173
1
174
0
175
1
176
1
177
1
178
0
145
0.0
170
1
171
1
172
0
173
0
174
0
175
2
176
1
177
57
178
0
145
0.0
  7
TEXTSTYLE_3
  1
\Q15.0; Replacement for:
170
4
140
2.0
 64
5
171
1
172
0
173
1
174
0
175
1
176
1
177
1
178
0
145
0.0
170
1
171
1
172
0
173
0
174
0
175
1
176
1
177
33
178
0
145
0.0
  1
 
170
1
140
0.15625
171
1
172
0
173
0
174
0
175
1
176
1
177
33
178
0
145
0.0
  1
 
170
1
140
0.15625
171
1
172
0
173
0
174
0
175
3
176
2
177
33
178
0
145
0.0
  1
 
170
1
140
0.15625
171
1
172
0
173
1
174
0
175
1
176
1
177
1
178
0
145
0.0
170
1
171
1
172
0
173
1
174
0
175
1
176
1
177
1
178
0
145
0.0
170
1
171
1
172
0
173
0
174
0
175
4
176
1
177
57
178
0
145
0.0
  7
TEXTSTYLE_3
  1
\Q15.0; Drawing-No.
170
4
140
2.0
 64
5
171
1
172
0
173
1
174
0
175
1
176
1
177
1
178
0
145
0.0
170
1
171
1
172
0
173
1
174
0
175
1
176
1
177
1
178
0
145
0.0
170
1
171
1
172
0
173
1
174
0
175
1
176
1
177
1
178
0
145
0.0
170
1
171
1
172
0
173
1
174
0
175
1
176
1
177
1
178
0
145
0.0
170
1
171
1
172
0
173
1
174
0
175
1
176
1
177
1
178
0
145
0.0
170
1
171
1
172
0
173
1
174
0
175
1
176
1
177
1
178
0
145
0.0
170
1
171
1
172
0
173
0
174
0
175
4
176
1
177
57
178
0
145
0.0
  7
TEXTSTYLE_3
  1
\Q15.0;ST-HTXX-14
170
5
140
3.5
 64
5
171
1
172
0
173
1
174
0
175
1
176
1
177
1
178
0
145
0.0
170
1
171
1
172
0
173
1
174
0
175
1
176
1
177
1
178
0
145
0.0
170
1
171
1
172
0
173
1
174
0
175
1
176
1
177
1
178
0
145
0.0
170
1
  0
LINE
  5
2A7
100
AcDbEntity
  8
0
100
AcDbLine
 62
7
  6
CONTINUOUS
 10
0.0
 20
0.0
 11
210.0
 21
0.0
  0
LINE
  5
2A8
100
AcDbEntity
  8
0
100
AcDbLine
 62
7
  6
CONTINUOUS
 10
5.0
 20
5.0
 11
205.0
 21
5.0
  0
LINE
  5
2A9
100
AcDbEntity
  8
0
100
AcDbLine
 62
7
  6
CONTINUOUS
 10
0.0
 20
0.0
 11
0.0
 21
297.0
  0
LINE
  5
2AA
100
AcDbEntity
  8
0
100
AcDbLine
 62
7
  6
CONTINUOUS
 10
5.0
 20
5.0
 11
5.0
 21
292.0
  0
LINE
  5
2AB
100
AcDbEntity
  8
0
100
AcDbLine
 62
7
  6
CONTINUOUS
 10
205.0
 20
5.0
 11
205.0
 21
292.0
  0
LINE
  5
2AC
100
AcDbEntity
  8
0
100
AcDbLine
 62
7
  6
CONTINUOUS
 10
210.0
 20
0.0
 11
210.0
 21
297.0
  0
LINE
  5
2AD
100
AcDbEntity
  8
0
100
AcDbLine
 62
7
  6
CONTINUOUS
 10
5.0
 20
292.0
 11
205.0
 21
292.0
  0
LINE
  5
2AE
100
AcDbEntity
  8
0
100
AcDbLine
 62
7
  6
CONTINUOUS
 10
0.0
 20
297.0
 11
210.0
 21
297.0
  0
LINE
  5
2AF
100
AcDbEntity
  8
0
100
AcDbLine
 62
7
  6
CONTINUOUS
 10
86.0042707547
 20
172.664129405
 11
52.0042707547
 21
172.664129405
  0
LINE
  5
2B0
100
AcDbEntity
  8
0
100
AcDbLine
 62
7
  6
CONTINUOUS
 10
74.2542707547
 20
173.2640649726
 11
63.7542707547
 21
173.2640649726
  0
LINE
  5
2B1
100
AcDbEntity
  8
0
100
AcDbLine
 62
7
  6
CONTINUOUS
 10
74.2542277995
 20
173.2640864505
 11
74.8542228904
 21
172.6640815414
  0
LINE
  5
2B2
100
AcDbEntity
  8
0
100
AcDbLine
 62
7
  6
CONTINUOUS
 10
49.0042707547
 20
175.664129405
 11
49.0042707547
 21
249.664129405
  0
LINE
  5
2B3
100
AcDbEntity
  8
BEZUGSACHSEN
100
AcDbLine
 62
9
  6
CONTINUOUS
 10
60.0042707547
 20
252.664129405
 11
60.0042707547
 21
245.4520640959
  0
LINE
  5
2B4
100
AcDbEntity
  8
0
100
AcDbLine
 62
9
  6
CONTINUOUS
 10
60.0042707547
 20
245.4520640959
 11
60.0042707547
 21
240.9066568433
  0
LINE
  5
2B5
100
AcDbEntity
  8
0
100
AcDbLine
 62
7
  6
CONTINUOUS
 10
63.7542707547
 20
212.2280804745
 11
60.740030917
 21
240.9066568433
  0
LINE
  5
2B6
100
AcDbEntity
  8
0
100
AcDbLine
 62
7
  6
CONTINUOUS
 10
63.7542707547
 20
212.2280804745
 11
63.7542707547
 21
173.2640434946
  0
LINE
  5
2B7
100
AcDbEntity
  8
0
100
AcDbLine
 62
7
  6
CONTINUOUS
 10
74.2542707547
 20
212.2280804745
 11
63.7542707547
 21
212.2280804745
  0
LINE
  5
2B8
100
AcDbEntity
  8
0
100
AcDbLine
 62
7
  6
CONTINUOUS
 10
74.2542707547
 20
212.2280804745
 11
74.2542707547
 21
173.2640434946
  0
LINE
  5
2B9
100
AcDbEntity
  8
0
100
AcDbLine
 62
7
  6
CONTINUOUS
 10
74.2542707547
 20
212.2280804745
 11
77.2685105925
 21
240.9066568433
  0
LINE
  5
2BA
100
AcDbEntity
  8
0
100
AcDbLine
 62
9
  6
CONTINUOUS
 10
78.0042707547
 20
240.9066568433
 11
78.0042707547
 21
245.4520640959
  0
LINE
  5
2BB
100
AcDbEntity
  8
BEZUGSACHSEN
100
AcDbLine
 62
9
  6
CONTINUOUS
 10
78.0042707547
 20
245.4520640959
 11
78.0042707547
 21
252.664129405
  0
LINE
  5
2BC
100
AcDbEntity
  8
0
100
AcDbLine
 62
7
  6
CONTINUOUS
 10
89.0042707547
 20
175.664129405
 11
89.0042707547
 21
249.664129405
  0
LINE
  5
2BD
100
AcDbEntity
  8
0
100
AcDbLine
 62
7
  6
CONTINUOUS
 10
63.1543186191
 20
172.6640815414
 11
63.7543137099
 21
173.2640864505
  0
LINE
  5
2BE
100
AcDbEntity
  8
0
100
AcDbLine
 62
7
  6
CONTINUOUS
 10
60.0042707547
 20
240.9066568433
 11
60.740030917
 21
240.9066568433
  0
LINE
  5
2BF
100
AcDbEntity
  8
0
100
AcDbLine
 62
7
  6
CONTINUOUS
 10
77.2685105925
 20
240.9066568433
 11
78.0042707547
 21
240.9066568433
  0
LINE
  5
2C0
100
AcDbEntity
  8
0
100
AcDbLine
 62
9
  6
CONTINUOUS
 10
80.8661553564
 20
245.4520640959
 11
78.0042707547
 21
245.4520640959
  0
LINE
  5
2C1
100
AcDbEntity
  8
BEZUGSACHSEN
100
AcDbLine
 62
9
  6
CONTINUOUS
 10
78.0042707547
 20
245.4520640959
 11
77.264528328
 21
245.4520640959
  0
LINE
  5
2C2
100
AcDbEntity
  8
BEZUGSACHSEN
100
AcDbLine
 62
9
  6
CONTINUOUS
 10
60.7440131814
 20
245.4520640959
 11
60.0042707547
 21
245.4520640959
  0
LINE
  5
2C3
100
AcDbEntity
  8
0
100
AcDbLine
 62
9
  6
CONTINUOUS
 10
57.142386153
 20
245.4520640959
 11
60.0042707547
 21
245.4520640959
  0
LINE
  5
2C4
100
AcDbEntity
  8
BEZUGSACHSEN
100
AcDbLine
 62
9
  6
CONTINUOUS
 10
66.142386153
 20
245.4520640959
 11
71.8661553564
 21
245.4520640959
  0
LINE
  5
2C5
100
AcDbEntity
  8
0
100
AcDbLine
 62
7
  6
CONTINUOUS
 10
52.0042707547
 20
252.664129405
 11
60.0047116636
 21
252.664129405
  0
LINE
  5
2C6
100
AcDbEntity
  8
BEZUGSACHSEN
100
AcDbLine
 62
7
  6
CONTINUOUS
 10
60.0047116636
 20
252.664129405
 11
61.9516795976
 21
252.664129405
  0
LINE
  5
2C7
100
AcDbEntity
  8
0
100
AcDbLine
 62
7
  6
CONTINUOUS
 10
61.9516795976
 20
252.664129405
 11
62.6394921467
 21
252.664129405
  0
LINE
  5
2C8
100
AcDbEntity
  8
BEZUGSACHSEN
100
AcDbLine
 62
7
  6
CONTINUOUS
 10
62.6394921467
 20
252.664129405
 11
75.3690926667
 21
252.664129405
  0
LINE
  5
2C9
100
AcDbEntity
  8
0
100
AcDbLine
 62
7
  6
CONTINUOUS
 10
75.3690926667
 20
252.664129405
 11
76.0568619118
 21
252.664129405
  0
LINE
  5
2CA
100
AcDbEntity
  8
BEZUGSACHSEN
100
AcDbLine
 62
7
  6
CONTINUOUS
 10
76.0568619118
 20
252.664129405
 11
78.0038300735
 21
252.664129405
  0
LINE
  5
2CB
100
AcDbEntity
  8
0
100
AcDbLine
 62
7
  6
CONTINUOUS
 10
78.0038300735
 20
252.664129405
 11
86.0042707547
 21
252.664129405
  0
LINE
  5
2CC
100
AcDbEntity
  8
FASEN
100
AcDbLine
 62
7
  6
CONTINUOUS
 10
74.8542707547
 20
85.7362051214
 11
74.2542707547
 21
85.7362051214
  0
LINE
  5
2CD
100
AcDbEntity
  8
FASEN
100
AcDbLine
 62
7
  6
CONTINUOUS
 10
63.1542707547
 20
85.7362051214
 11
63.7542707547
 21
85.7362051214
  0
LINE
  5
2CE
100
AcDbEntity
  8
FASEN
100
AcDbLine
 62
7
  6
CONTINUOUS
 10
75.0351985898
 20
82.6289261655
 11
74.2542707547
 21
83.2009970689
  0
LINE
  5
2CF
100
AcDbEntity
  8
BEZUGSACHSEN
100
AcDbLine
 62
9
  6
CONTINUOUS
 10
62.6394921467
 20
92.6979562784
 11
63.7542707547
 21
92.6979562784
  0
LINE
  5
2D0
100
AcDbEntity
  8
BEZUGSACHSEN
100
AcDbLine
 62
9
  6
CONTINUOUS
 10
74.2542838349
 20
92.6979562784
 11
75.3690926667
 21
92.6979562784
  0
LINE
  5
2D1
100
AcDbEntity
  8
BEZUGSACHSEN
100
AcDbLine
 62
9
  6
CONTINUOUS
 10
60.0042707547
 20
108.0627781904
 11
60.0042707547
 21
95.3331776704
  0
LINE
  5
2D2
100
AcDbEntity
  8
BEZUGSACHSEN
100
AcDbLine
 62
7
  6
CONTINUOUS
 10
62.6394921467
 20
110.6979562784
 11
62.6394921467
 21
108.7505865162
  0
LINE
  5
2D3
100
AcDbEntity
  8
BEZUGSACHSEN
100
AcDbLine
 62
7
  6
CONTINUOUS
 10
62.6394921467
 20
94.6453260406
 11
62.6394921467
 21
92.6979562784
  0
LINE
  5
2D4
100
AcDbEntity
  8
BEZUGSACHSEN
100
AcDbLine
 62
7
  6
CONTINUOUS
 10
63.1542707547
 20
85.7362157702
 11
63.1542707547
 21
90.1903863933
  0
LINE
  5
2D5
100
AcDbEntity
  8
BEZUGSACHSEN
100
AcDbLine
 62
7
  6
CONTINUOUS
 10
60.0042707547
 20
95.3331776704
 11
61.9516405169
 21
95.3331776704
  0
LINE
  5
2D6
100
AcDbEntity
  8
BEZUGSACHSEN
100
AcDbLine
 62
7
  6
CONTINUOUS
 10
76.0569009925
 20
95.3331776704
 11
78.0042707547
 21
95.3331776704
  0
LINE
  5
2D7
100
AcDbEntity
  8
0
100
AcDbLine
 62
7
  6
CONTINUOUS
 10
63.7542707547
 20
101.6979562784
 11
63.7542707547
 21
93.8742320925
  0
LINE
  5
2D8
100
AcDbEntity
  8
FASEN
100
AcDbLine
 62
7
  6
CONTINUOUS
 10
63.7542707547
 20
83.2009970689
 11
63.7542707547
 21
85.7362051214
  0
LINE
  5
2D9
100
AcDbEntity
  8
BEZUGSACHSEN
100
AcDbLine
 62
7
  6
CONTINUOUS
 10
63.7542707547
 20
85.7362051214
 11
63.7542707547
 21
93.8742320925
  0
LINE
  5
2DA
100
AcDbEntity
  8
BEZUGSACHSEN
100
AcDbLine
 62
9
  6
CONTINUOUS
 10
66.142386153
 20
109.9582138511
 11
66.142386153
 21
110.6979562784
  0
LINE
  5
2DB
100
AcDbEntity
  8
BEZUGSACHSEN
100
AcDbLine
 62
9
  6
CONTINUOUS
 10
78.0042707547
 20
98.8360716767
 11
77.2645283274
 21
98.8360716767
  0
LINE
  5
2DC
100
AcDbEntity
  8
BEZUGSACHSEN
100
AcDbLine
 62
9
  6
CONTINUOUS
 10
60.744013182
 20
98.8360716767
 11
60.0042707547
 21
98.8360716767
  0
LINE
  5
2DD
100
AcDbEntity
  8
BEZUGSACHSEN
100
AcDbLine
 62
9
  6
CONTINUOUS
 10
69.0042707547
 20
109.9621961162
 11
69.0042707547
 21
110.6979562784
  0
LINE
  5
2DE
100
AcDbEntity
  8
BEZUGSACHSEN
100
AcDbLine
 62
9
  6
CONTINUOUS
 10
78.0042707547
 20
101.6979562784
 11
77.2685105925
 21
101.6979562784
  0
LINE
  5
2DF
100
AcDbEntity
  8
BEZUGSACHSEN
100
AcDbLine
 62
9
  6
CONTINUOUS
 10
60.740030917
 20
101.6979562784
 11
60.0042707547
 21
101.6979562784
  0
LINE
  5
2E0
100
AcDbEntity
  8
BEZUGSACHSEN
100
AcDbLine
 62
9
  6
CONTINUOUS
 10
71.8661553547
 20
109.9582138517
 11
71.8661553547
 21
110.6979562784
  0
LINE
  5
2E1
100
AcDbEntity
  8
BEZUGSACHSEN
100
AcDbLine
 62
9
  6
CONTINUOUS
 10
78.0042707547
 20
104.5598408784
 11
77.264528328
 21
104.5598408784
  0
LINE
  5
2E2
100
AcDbEntity
  8
BEZUGSACHSEN
100
AcDbLine
 62
9
  6
CONTINUOUS
 10
60.7440131814
 20
104.5598408784
 11
60.0042707547
 21
104.5598408784
  0
LINE
  5
2E3
100
AcDbEntity
  8
FASEN
100
AcDbLine
 62
7
  6
CONTINUOUS
 10
74.2542707547
 20
85.7362051214
 11
74.2542707547
 21
83.2009970689
  0
LINE
  5
2E4
100
AcDbEntity
  8
BEZUGSACHSEN
100
AcDbLine
 62
7
  6
CONTINUOUS
 10
74.2542707547
 20
85.7362051214
 11
74.2542707547
 21
93.8742390941
  0
LINE
  5
2E5
100
AcDbEntity
  8
0
100
AcDbLine
 62
7
  6
CONTINUOUS
 10
74.2542707547
 20
93.8742390941
 11
74.2542707547
 21
101.6979562784
  0
LINE
  5
2E6
100
AcDbEntity
  8
BEZUGSACHSEN
100
AcDbLine
 62
7
  6
CONTINUOUS
 10
74.8542707547
 20
90.1903863933
 11
74.8542707547
 21
85.7362157769
  0
LINE
  5
2E7
100
AcDbEntity
  8
BEZUGSACHSEN
100
AcDbLine
 62
7
  6
CONTINUOUS
 10
75.3690926667
 20
110.6975153695
 11
75.3690926667
 21
108.7505474355
  0
LINE
  5
2E8
100
AcDbEntity
  8
BEZUGSACHSEN
100
AcDbLine
 62
7
  6
CONTINUOUS
 10
75.3690926667
 20
94.6453651213
 11
75.3690710147
 21
92.6979562784
  0
LINE
  5
2E9
100
AcDbEntity
  8
BEZUGSACHSEN
100
AcDbLine
 62
7
  6
CONTINUOUS
 10
60.0047116636
 20
108.0627781904
 11
61.9516795976
 21
108.0627781904
  0
LINE
  5
2EA
100
AcDbEntity
  8
BEZUGSACHSEN
100
AcDbLine
 62
7
  6
CONTINUOUS
 10
76.0568619118
 20
108.0627781904
 11
78.0038300735
 21
108.0627781904
  0
LINE
  5
2EB
100
AcDbEntity
  8
BEZUGSACHSEN
100
AcDbLine
 62
9
  6
CONTINUOUS
 10
78.0042707547
 20
95.3331776704
 11
78.0042707547
 21
108.0627781904
  0
LINE
  5
2EC
100
AcDbEntity
  8
BEZUGSACHSEN
100
AcDbLine
 62
9
  6
CONTINUOUS
 10
75.3690926667
 20
110.6979562784
 11
62.6394921467
 21
110.6979562784
  0
LINE
  5
2ED
100
AcDbEntity
  8
FASEN
100
AcDbLine
 62
7
  6
CONTINUOUS
 10
62.9733429197
 20
82.6289261655
 11
63.7542707547
 21
83.2009970689
  0
LINE
  5
2EE
100
AcDbEntity
  8
BEZUGSACHSEN
100
AcDbLine
 62
7
  6
CONTINUOUS
 10
139.8289534572
 20
179.8840858951
 11
139.3816171147
 21
178.1679801227
  0
LINE
  5
2EF
100
AcDbEntity
  8
BEZUGSACHSEN
100
AcDbLine
 62
7
  6
CONTINUOUS
 10
136.1414540222
 20
165.7378195063
 11
135.6941176797
 21
164.0217137339
  0
LINE
  5
2F0
100
AcDbEntity
  8
BEZUGSACHSEN
100
AcDbLine
 62
7
  6
CONTINUOUS
 10
134.5835323168
 20
157.8306068193
 11
135.6067136529
 21
161.7558130467
  0
LINE
  5
2F1
100
AcDbEntity
  8
BEZUGSACHSEN
100
AcDbLine
 62
7
  6
CONTINUOUS
 10
135.2821271993
 20
157.4892327453
 11
136.6358156794
 21
162.6823556692
  0
LINE
  5
2F2
100
AcDbEntity
  8
BEZUGSACHSEN
100
AcDbLine
 62
7
  6
CONTINUOUS
 10
137.1822159845
 20
164.5952328705
 11
136.9120100223
 21
163.5586481634
  0
LINE
  5
2F3
100
AcDbEntity
  8
FASEN
100
AcDbLine
 62
9
  6
CONTINUOUS
 10
161.7133421891
 20
118.3833160988
 11
161.1035131914
 21
118.9725883521
  0
LINE
  5
2F4
100
AcDbEntity
  8
FASEN
100
AcDbLine
 62
7
  6
CONTINUOUS
 10
161.221971385
 20
118.7931484974
 11
161.675488632
 21
118.3404170534
  0
LINE
  5
2F5
100
AcDbEntity
  8
0
100
AcDbLine
 62
7
  6
CONTINUOUS
 10
142.253507459
 20
127.3707418638
 11
126.3324992704
 21
161.4047098314
  0
LINE
  5
2F6
100
AcDbEntity
  8
FASEN
100
AcDbLine
 62
7
  6
CONTINUOUS
 10
150.2644685549
 20
119.6983317324
 11
134.3434603664
 21
153.7322997
  0
LINE
  5
2F7
100
AcDbEntity
  8
FASEN
100
AcDbLine
 62
7
  6
CONTINUOUS
 10
151.1371219124
 20
120.1173263204
 11
135.2161137239
 21
154.151294288
  0
LINE
  5
2F8
100
AcDbEntity
  8
BEZUGSACHSEN
100
AcDbLine
 62
9
  6
CONTINUOUS
 10
144.5355691948
 20
175.5333361415
 11
144.7054977201
 21
176.1852289018
  0
LINE
  5
2F9
100
AcDbEntity
  8
BEZUGSACHSEN
100
AcDbLine
 62
9
  6
CONTINUOUS
 10
148.230866679
 20
173.1343183799
 11
148.3998804258
 21
173.7827017974
  0
LINE
  5
2FA
100
AcDbEntity
  8
BEZUGSACHSEN
100
AcDbLine
 62
7
  6
CONTINUOUS
 10
150.3988597097
 20
177.0795558428
 11
150.3970140444
 21
177.0724569115
  0
LINE
  5
2FB
100
AcDbEntity
  8
0
100
AcDbLine
 62
7
  6
CONTINUOUS
 10
150.3988597097
 20
177.0795558428
 11
150.2194928407
 21
176.3914549889
  0
LINE
  5
2FC
100
AcDbEntity
  8
BEZUGSACHSEN
100
AcDbLine
 62
7
  6
CONTINUOUS
 10
146.6022069584
 20
161.5376177009
 11
145.2485184782
 21
156.344494777
  0
LINE
  5
2FD
100
AcDbEntity
  8
BEZUGSACHSEN
100
AcDbLine
 62
7
  6
CONTINUOUS
 10
147.1486207731
 20
163.4504756313
 11
146.8784052814
 21
162.413901687
  0
LINE
  5
2FE
100
AcDbEntity
  8
BEZUGSACHSEN
100
AcDbLine
 62
7
  6
CONTINUOUS
 10
146.7121210781
 20
160.4802478821
 11
145.6889397434
 21
156.5550416606
  0
LINE
  5
2FF
100
AcDbEntity
  8
BEZUGSACHSEN
100
AcDbLine
 62
7
  6
CONTINUOUS
 10
148.2241467717
 20
164.3500389901
 11
147.7767809002
 21
162.6339011386
  0
LINE
  5
300
100
AcDbEntity
  8
BEZUGSACHSEN
100
AcDbLine
 62
7
  6
CONTINUOUS
 10
151.9115359467
 20
178.4958823914
 11
151.4642919094
 21
176.7801307273
  0
LINE
  5
301
100
AcDbEntity
  8
FASEN
100
AcDbLine
 62
9
  6
CONTINUOUS
 10
134.3434603664
 20
153.7322997
 11
135.2161137239
 21
154.151294288
  0
LINE
  5
302
100
AcDbEntity
  8
FASEN
100
AcDbLine
 62
7
  6
CONTINUOUS
 10
145.6889372957
 20
156.5550322705
 11
145.2485184782
 21
156.344494777
  0
LINE
  5
303
100
AcDbEntity
  8
FASEN
100
AcDbLine
 62
7
  6
CONTINUOUS
 10
145.1825050029
 20
153.0065563197
 11
161.1035131914
 21
118.9725883521
  0
LINE
  5
304
100
AcDbEntity
  8
FASEN
100
AcDbLine
 62
7
  6
CONTINUOUS
 10
145.7923340005
 20
152.4172840663
 11
161.7133421891
 21
118.3833160988
  0
LINE
  5
305
100
AcDbEntity
  8
FASEN
100
AcDbLine
 62
7
  6
CONTINUOUS
 10
134.5835298706
 20
157.8305974351
 11
135.2821271993
 21
157.4892327453
  0
LINE
  5
306
100
AcDbEntity
  8
FASEN
100
AcDbLine
 62
9
  6
CONTINUOUS
 10
145.7923340005
 20
152.4172840663
 11
145.1825050029
 21
153.0065563197
  0
LINE
  5
307
100
AcDbEntity
  8
FASEN
100
AcDbLine
 62
7
  6
CONTINUOUS
 10
155.0281597552
 20
131.959729731
 11
152.2358494325
 21
121.2476560447
  0
LINE
  5
308
100
AcDbEntity
  8
BEZUGSACHSEN
100
AcDbLine
 62
7
  6
CONTINUOUS
 10
133.7981627897
 20
166.6312827253
 11
135.6465674578
 21
166.4189752867
  0
LINE
  5
309
100
AcDbEntity
  8
BEZUGSACHSEN
100
AcDbLine
 62
7
  6
CONTINUOUS
 10
149.0350003142
 20
164.8811822183
 11
150.8834049823
 21
164.6688747797
  0
LINE
  5
30A
100
AcDbEntity
  8
BEZUGSACHSEN
100
AcDbLine
 62
9
  6
CONTINUOUS
 10
138.4882103612
 20
166.752505157
 11
137.7898414408
 21
166.8327196896
  0
LINE
  5
30B
100
AcDbEntity
  8
0
100
AcDbLine
 62
7
  6
CONTINUOUS
 10
151.6073542371
 20
165.3481510743
 11
150.6897033832
 21
165.4535522917
  0
LINE
  5
30C
100
AcDbEntity
  8
0
100
AcDbLine
 62
7
  6
CONTINUOUS
 10
135.4397628985
 20
167.2051578025
 11
134.5221120446
 21
167.3105590199
  0
LINE
  5
30D
100
AcDbEntity
  8
BEZUGSACHSEN
100
AcDbLine
 62
7
  6
CONTINUOUS
 10
151.6073542371
 20
165.3481510743
 11
151.607480857
 21
165.3481365216
  0
LINE
  5
30E
100
AcDbEntity
  8
BEZUGSACHSEN
100
AcDbLine
 62
7
  6
CONTINUOUS
 10
134.5225966736
 20
167.3105032216
 11
134.5221120446
 21
167.3105590199
  0
LINE
  5
30F
100
AcDbEntity
  8
BEZUGSACHSEN
100
AcDbLine
 62
9
  6
CONTINUOUS
 10
154.5545572821
 20
169.4828440443
 11
153.8524084754
 21
169.5634927341
  0
LINE
  5
310
100
AcDbEntity
  8
BEZUGSACHSEN
100
AcDbLine
 62
9
  6
CONTINUOUS
 10
138.1714638963
 20
171.3646033001
 11
137.4693150896
 21
171.4452519899
  0
LINE
  5
311
100
AcDbEntity
  8
0
100
AcDbLine
 62
7
  6
CONTINUOUS
 10
178.4851152797
 20
144.319800679
 11
162.5641070912
 21
178.3537686466
  0
LINE
  5
312
100
AcDbEntity
  8
FASEN
100
AcDbLine
 62
9
  6
CONTINUOUS
 10
178.4855708439
 20
144.3188267381
 11
178.4851152797
 21
144.319800679
  0
LINE
  5
313
100
AcDbEntity
  8
BEZUGSACHSEN
100
AcDbLine
 62
7
  6
CONTINUOUS
 10
136.722737273
 20
177.8491047068
 11
138.5707605337
 21
177.6368410767
  0
LINE
  5
314
100
AcDbEntity
  8
BEZUGSACHSEN
100
AcDbLine
 62
7
  6
CONTINUOUS
 10
151.9591192008
 20
176.0990565296
 11
153.8071426777
 21
175.8867928745
  0
LINE
  5
315
100
AcDbEntity
  8
FASEN
100
AcDbLine
 62
7
  6
CONTINUOUS
 10
150.8880037476
 20
119.4500128109
 11
151.2586973318
 21
119.696895813
  0
LINE
  5
316
100
AcDbEntity
  8
FASEN
100
AcDbLine
 62
7
  6
CONTINUOUS
 10
151.2586973318
 20
119.696895813
 11
151.5797845385
 21
119.9099623222
  0
LINE
  5
317
100
AcDbEntity
  8
FASEN
100
AcDbLine
 62
9
  6
CONTINUOUS
 10
150.2644685549
 20
119.6983317324
 11
151.1371219124
 21
120.1173263204
  0
ARC
  5
318
100
AcDbEntity
  8
0
100
AcDbCircle
 62
7
  6
CONTINUOUS
 10
86.0042707547
 20
175.664129405
 40
3.0
100
AcDbArc
 50
270.0
 51
360.0
  0
ARC
  5
319
100
AcDbEntity
  8
0
100
AcDbCircle
 62
7
  6
CONTINUOUS
 10
52.0042707547
 20
175.664129405
 40
3.0
100
AcDbArc
 50
180.0
 51
270.0
  0
ARC
  5
31A
100
AcDbEntity
  8
0
100
AcDbCircle
 62
7
  6
CONTINUOUS
 10
86.0042707547
 20
249.664129405
 40
3.0
100
AcDbArc
 50
0.0
 51
90.0
  0
ARC
  5
31B
100
AcDbEntity
  8
0
100
AcDbCircle
 62
7
  6
CONTINUOUS
 10
52.0042707547
 20
249.664129405
 40
3.0
100
AcDbArc
 50
90.0
 51
180.0
  0
ARC
  5
31C
100
AcDbEntity
  8
FASEN
100
AcDbCircle
 62
7
  6
CONTINUOUS
 10
69.0042707547
 20
101.6979562784
 40
20.0
100
AcDbArc
 50
287.5505066921
 51
252.4494933079
  0
ARC
  5
31D
100
AcDbEntity
  8
FASEN
100
AcDbCircle
 62
9
  6
CONTINUOUS
 10
69.0042707547
 20
101.6979562784
 40
17.0
100
AcDbArc
 50
290.1279553326
 51
249.8720446752
  0
ARC
  5
31E
100
AcDbEntity
  8
0
100
AcDbCircle
 62
7
  6
CONTINUOUS
 10
69.0042707547
 20
101.6979562784
 40
9.5
100
AcDbArc
 50
312.0656179854
 51
317.9347338183
  0
ARC
  5
31F
100
AcDbEntity
  8
0
100
AcDbCircle
 62
7
  6
CONTINUOUS
 10
69.0042707547
 20
101.6979562784
 40
9.5
100
AcDbArc
 50
42.0656179854
 51
47.9343820146
  0
ARC
  5
320
100
AcDbEntity
  8
0
100
AcDbCircle
 62
7
  6
CONTINUOUS
 10
69.0042707547
 20
101.6979562784
 40
9.5
100
AcDbArc
 50
132.0652661817
 51
137.9343820146
  0
ARC
  5
321
100
AcDbEntity
  8
0
100
AcDbCircle
 62
7
  6
CONTINUOUS
 10
69.0042707547
 20
101.6979562784
 40
9.5
100
AcDbArc
 50
222.0652661817
 51
227.9347338183
  0
ARC
  5
322
100
AcDbEntity
  8
BEZUGSACHSEN
100
AcDbCircle
 62
7
  6
CONTINUOUS
 10
69.0042707547
 20
110.6979562784
 40
6.364778608
100
AcDbArc
 50
359.9960309619
 51
180.0
  0
ARC
  5
323
100
AcDbEntity
  8
BEZUGSACHSEN
100
AcDbCircle
 62
7
  6
CONTINUOUS
 10
60.0042707547
 20
101.6979562784
 40
6.364778608
100
AcDbArc
 50
89.9960309619
 51
270.0
  0
ARC
  5
324
100
AcDbEntity
  8
BEZUGSACHSEN
100
AcDbCircle
 62
7
  6
CONTINUOUS
 10
69.0042707547
 20
92.6979562784
 40
6.364778608
100
AcDbArc
 50
180.0
 51
203.2021238071
  0
ARC
  5
325
100
AcDbEntity
  8
BEZUGSACHSEN
100
AcDbCircle
 62
7
  6
CONTINUOUS
 10
69.0042707547
 20
92.6979562784
 40
6.364778608
100
AcDbArc
 50
336.7978761929
 51
360.0
  0
ARC
  5
326
100
AcDbEntity
  8
BEZUGSACHSEN
100
AcDbCircle
 62
7
  6
CONTINUOUS
 10
78.0042707547
 20
101.6979562784
 40
6.364778608
100
AcDbArc
 50
270.0
 51
90.003966988
  0
ARC
  5
327
100
AcDbEntity
  8
0
100
AcDbCircle
 62
7
  6
CONTINUOUS
 10
69.0042707547
 20
101.6979562784
 40
5.25
100
AcDbArc
 50
0.0
 51
180.0
  0
ARC
  5
328
100
AcDbEntity
  8
BEZUGSACHSEN
100
AcDbCircle
 62
9
  6
CONTINUOUS
 10
69.0042707547
 20
110.6979562784
 40
2.8618846017
100
AcDbArc
 50
0.0
 51
180.0
  0
ARC
  5
329
100
AcDbEntity
  8
BEZUGSACHSEN
100
AcDbCircle
 62
9
  6
CONTINUOUS
 10
60.0042707547
 20
101.6979562784
 40
2.8618846017
100
AcDbArc
 50
90.0
 51
270.0
  0
ARC
  5
32A
100
AcDbEntity
  8
BEZUGSACHSEN
100
AcDbCircle
 62
9
  6
CONTINUOUS
 10
78.0042707547
 20
101.6979562784
 40
2.8618846017
100
AcDbArc
 50
270.0
 51
90.0
  0
ARC
  5
32B
100
AcDbEntity
  8
RUNDUNGEN
100
AcDbCircle
 62
7
  6
CONTINUOUS
 10
157.8230505689
 20
135.7818682584
 40
17.9382914363
100
AcDbArc
 50
244.8155386135
 51
246.0049135657
  0
ARC
  5
32C
100
AcDbEntity
  8
FASEN
100
AcDbCircle
 62
9
  6
CONTINUOUS
 10
155.6908811373
 20
133.6560972133
 40
14.8346995295
100
AcDbArc
 50
205.0679258583
 51
208.3721346191
  0
ARC
  5
32D
100
AcDbEntity
  8
0
100
AcDbCircle
 62
7
  6
CONTINUOUS
 10
144.9423068406
 20
168.7943134023
 40
10.8989402243
100
AcDbArc
 50
120.6774607681
 51
125.7749043793
  0
ARC
  5
32E
100
AcDbEntity
  8
0
100
AcDbCircle
 62
7
  6
CONTINUOUS
 10
142.6634107458
 20
173.7236703188
 40
10.8989334082
100
AcDbArc
 50
300.67776503
 51
305.7752105149
  0
ARC
  5
32F
100
AcDbEntity
  8
BEZUGSACHSEN
100
AcDbCircle
 62
7
  6
CONTINUOUS
 10
137.9546176019
 20
164.744944654
 40
9.2232178692
100
AcDbArc
 50
339.6505551399
 51
345.3605019258
  0
ARC
  5
330
100
AcDbEntity
  8
0
100
AcDbCircle
 62
7
  6
CONTINUOUS
 10
141.7035587039
 20
170.300986528
 40
7.1944076725
100
AcDbArc
 50
216.951802252
 51
219.3655543961
  0
ARC
  5
331
100
AcDbEntity
  8
0
100
AcDbCircle
 62
7
  6
CONTINUOUS
 10
145.9273694702
 20
172.2370451149
 40
7.1622019645
100
AcDbArc
 50
32.6306409092
 51
39.3691302558
  0
ARC
  5
332
100
AcDbEntity
  8
0
100
AcDbCircle
 62
7
  6
CONTINUOUS
 10
141.654220295
 20
170.2640618986
 40
7.1327823228
100
AcDbArc
 50
212.6205204173
 51
216.9530186951
  0
ARC
  5
333
100
AcDbEntity
  8
BEZUGSACHSEN
100
AcDbCircle
 62
9
  6
CONTINUOUS
 10
148.0111382269
 20
176.1672189589
 40
2.205537019
100
AcDbArc
 50
4.3535240583
 51
9.9969802139
  0
ARC
  5
334
100
AcDbEntity
  8
BEZUGSACHSEN
100
AcDbCircle
 62
9
  6
CONTINUOUS
 10
136.1640508316
 20
168.6232836267
 40
2.148159634
100
AcDbArc
 50
216.0033043001
 51
217.4853583916
  0
SPLINE
  5
335
100
AcDbEntity
  8
0
100
AcDbSpline
 62
7
  6
CONTINUOUS
 70
0
 71
3
 72
41
 73
37
 74
0
 42
0.0000001
 43
0.0000001
 44
0.0000000001
 40
0.0
 40
0.0
 40
0.0
 40
0.0
 40
0.0031950825
 40
0.0149144909
 40
0.0269066073
 40
0.0391491468
 40
0.0519963254
 40
0.0662249433
 40
0.0826706281
 40
0.1020914587
 40
0.1245797783
 40
0.1497295719
 40
0.1774757632
 40
0.2081827508
 40
0.2419534734
 40
0.2782891766
 40
0.3163880064
 40
0.3544528194
 40
0.3898433085
 40
0.4246591383
 40
0.461193933
 40
0.4972075307
 40
0.5327504795
 40
0.5683644125
 40
0.6035093053
 40
0.6376927092
 40
0.6709818277
 40
0.7036664349
 40
0.7362869067
 40
0.7690148529
 40
0.8015153008
 40
0.8343659986
 40
0.8690534242
 40
0.907153517
 40
0.9502393105
 40
1.0
 40
1.0
 40
1.0
 40
1.0
 10
75.3690926667
 20
252.664129405
 30
0.0
 10
75.3602543926
 20
252.6636391813
 30
0.0
 10
75.3190222327
 20
252.6608999012
 30
0.0
 10
75.2449403297
 20
252.652123077
 30
0.0
 10
75.1472823144
 20
252.6320214127
 30
0.0
 10
75.0488317861
 20
252.6022739915
 30
0.0
 10
74.9479003319
 20
252.5609595916
 30
0.0
 10
74.8411392158
 20
252.5045970735
 30
0.0
 10
74.7253030057
 20
252.4278060928
 30
0.0
 10
74.6002422487
 20
252.3249980331
 30
0.0
 10
74.4687313642
 20
252.1934764443
 30
0.0
 10
74.3343597406
 20
252.0333975752
 30
0.0
 10
74.1985579484
 20
251.8456581879
 30
0.0
 10
74.0616339461
 20
251.6298889709
 30
0.0
 10
73.9240069775
 20
251.3868465058
 30
0.0
 10
73.7873419739
 20
251.1200673132
 30
0.0
 10
73.6543824937
 20
250.8382426177
 30
0.0
 10
73.5299329137
 20
250.555429064
 30
0.0
 10
73.4152627407
 20
250.2783398837
 30
0.0
 10
73.30688608
 20
250.0032872489
 30
0.0
 10
73.2015991344
 20
249.7251942107
 30
0.0
 10
73.0988364933
 20
249.4440153953
 30
0.0
 10
72.9998678097
 20
249.1641836282
 30
0.0
 10
72.9043354075
 20
248.8857036214
 30
0.0
 10
72.8122617415
 20
248.6100292566
 30
0.0
 10
72.7240314795
 20
248.3398670947
 30
0.0
 10
72.6394325134
 20
248.0756922758
 30
0.0
 10
72.5575014442
 20
247.8152123313
 30
0.0
 10
72.4772755585
 20
247.5558286908
 30
0.0
 10
72.398367013
 20
247.2965744823
 30
0.0
 10
72.3203506775
 20
247.036384797
 30
0.0
 10
72.241794361
 20
246.7706936977
 30
0.0
 10
72.1598586391
 20
246.4898316455
 30
0.0
 10
72.0711169745
 20
246.1814293334
 30
0.0
 10
71.972080242
 20
245.8325513348
 30
0.0
 10
71.9030786177
 20
245.5848397929
 30
0.0
 10
71.8661553547
 20
245.4520640959
 30
0.0
  0
SPLINE
  5
336
100
AcDbEntity
  8
0
100
AcDbSpline
 62
7
  6
CONTINUOUS
 70
0
 71
3
 72
21
 73
17
 74
0
 42
0.0000001
 43
0.0000001
 44
0.0000000001
 40
0.0
 40
0.0
 40
0.0
 40
0.0
 40
0.0312015643
 40
0.0624030364
 40
0.0936291098
 40
0.1248753293
 40
0.1873337384
 40
0.2498338105
 40
0.3123441689
 40
0.3748569034
 40
0.4373708131
 40
0.4998853701
 40
0.6249116967
 40
0.7499404703
 40
0.8749700425
 40
1.0
 40
1.0
 40
1.0
 40
1.0
 10
53.6394921467
 20
252.664129405
 30
0.0
 10
53.7257520652
 20
252.6593449145
 30
0.0
 10
53.8980652382
 20
252.6312912108
 30
0.0
 10
54.1388428099
 20
252.5292335304
 30
0.0
 10
54.3522545293
 20
252.3791704086
 30
0.0
 10
54.6007455969
 20
252.1371139558
 30
0.0
 10
54.8580397737
 20
251.786651233
 30
0.0
 10
55.1161397519
 20
251.3358774797
 30
0.0
 10
55.34296874
 20
250.8684856599
 30
0.0
 10
55.5492393622
 20
250.3918388244
 30
0.0
 10
55.7393009797
 20
249.9085236179
 30
0.0
 10
55.9789170195
 20
249.2589049949
 30
0.0
 10
56.2560991854
 20
248.438881054
 30
0.0
 10
56.5670050715
 20
247.4479118137
 30
0.0
 10
56.8617876059
 20
246.4520189529
 30
0.0
 10
57.0496354987
 20
245.7855973405
 30
0.0
 10
57.142386153
 20
245.4520640959
 30
0.0
  0
SPLINE
  5
337
100
AcDbEntity
  8
0
100
AcDbSpline
 62
7
  6
CONTINUOUS
 70
0
 71
3
 72
17
 73
13
 74
0
 42
0.0000001
 43
0.0000001
 44
0.0000000001
 40
0.0
 40
0.0
 40
0.0
 40
0.0
 40
0.1250843147
 40
0.2501678506
 40
0.37524903
 40
0.5003217136
 40
0.6253484949
 40
0.7501547401
 40
0.8126410859
 40
0.8750930094
 40
0.9375389751
 40
1.0
 40
1.0
 40
1.0
 40
1.0
 10
57.142386153
 20
245.4520640959
 30
0.0
 10
57.2065225853
 20
245.2214281776
 30
0.0
 10
57.3364125069
 20
244.7606056924
 30
0.0
 10
57.5396520754
 20
244.0717685006
 30
0.0
 10
57.7567642378
 20
243.3872071398
 30
0.0
 10
57.9992848362
 20
242.7108949554
 30
0.0
 10
58.2912332688
 20
242.0548838388
 30
0.0
 10
58.6239561934
 20
241.5497545613
 30
0.0
 10
58.9794369537
 20
241.2259932708
 30
0.0
 10
59.2905238317
 20
241.0419274977
 30
0.0
 10
59.6344988436
 20
240.9309491693
 30
0.0
 10
59.8742605925
 20
240.907330438
 30
0.0
 10
59.9937973636
 20
240.9066850952
 30
0.0
  0
SPLINE
  5
338
100
AcDbEntity
  8
0
100
AcDbSpline
 62
7
  6
CONTINUOUS
 70
0
 71
3
 72
21
 73
17
 74
0
 42
0.0000001
 43
0.0000001
 44
0.0000000001
 40
0.0
 40
0.0
 40
0.0
 40
0.0
 40
0.1250299575
 40
0.2500595297
 40
0.3750883033
 40
0.5001146299
 40
0.5626291869
 40
0.6251430966
 40
0.6876558311
 40
0.7501661895
 40
0.8126662616
 40
0.8751246707
 40
0.9063708902
 40
0.9375969636
 40
0.9687984357
 40
1.0
 40
1.0
 40
1.0
 40
1.0
 10
80.8661553564
 20
245.4520640959
 30
0.0
 10
80.9589060107
 20
245.7855973405
 30
0.0
 10
81.1467539035
 20
246.4520189529
 30
0.0
 10
81.4415364379
 20
247.4479118137
 30
0.0
 10
81.752442324
 20
248.438881054
 30
0.0
 10
82.0296244899
 20
249.2589049949
 30
0.0
 10
82.2692405297
 20
249.9085236179
 30
0.0
 10
82.4593021472
 20
250.3918388244
 30
0.0
 10
82.6655727695
 20
250.8684856599
 30
0.0
 10
82.8924017575
 20
251.3358774797
 30
0.0
 10
83.1505017358
 20
251.786651233
 30
0.0
 10
83.4077959126
 20
252.1371139558
 30
0.0
 10
83.6562869801
 20
252.3791704086
 30
0.0
 10
83.8696986996
 20
252.5292335304
 30
0.0
 10
84.1104762712
 20
252.6312912108
 30
0.0
 10
84.2827894443
 20
252.6593449145
 30
0.0
 10
84.3690493627
 20
252.664129405
 30
0.0
  0
SPLINE
  5
339
100
AcDbEntity
  8
0
100
AcDbSpline
 62
7
  6
CONTINUOUS
 70
0
 71
3
 72
17
 73
13
 74
0
 42
0.0000001
 43
0.0000001
 44
0.0000000001
 40
0.0
 40
0.0
 40
0.0
 40
0.0
 40
0.0624610249
 40
0.1249069906
 40
0.1873589141
 40
0.2498452599
 40
0.3746515051
 40
0.4996782864
 40
0.62475097
 40
0.7498321494
 40
0.8749156853
 40
1.0
 40
1.0
 40
1.0
 40
1.0
 10
78.0147441458
 20
240.9066850952
 30
0.0
 10
78.134280917
 20
240.907330438
 30
0.0
 10
78.3740426658
 20
240.9309491693
 30
0.0
 10
78.7180176778
 20
241.0419274977
 30
0.0
 10
79.0291045557
 20
241.2259932708
 30
0.0
 10
79.3845853161
 20
241.5497545613
 30
0.0
 10
79.7173082406
 20
242.0548838388
 30
0.0
 10
80.0092566733
 20
242.7108949554
 30
0.0
 10
80.2517772717
 20
243.3872071398
 30
0.0
 10
80.4688894341
 20
244.0717685006
 30
0.0
 10
80.6721290025
 20
244.7606056924
 30
0.0
 10
80.8020189242
 20
245.2214281776
 30
0.0
 10
80.8661553564
 20
245.4520640959
 30
0.0
  0
SPLINE
  5
33A
100
AcDbEntity
  8
0
100
AcDbSpline
 62
7
  6
CONTINUOUS
 70
0
 71
3
 72
40
 73
36
 74
0
 42
0.0000001
 43
0.0000001
 44
0.0000000001
 40
0.0
 40
0.0
 40
0.0
 40
0.0
 40
0.0462149123
 40
0.0933999565
 40
0.140145587
 40
0.185148948
 40
0.2274040429
 40
0.266347961
 40
0.302191392
 40
0.3363446318
 40
0.3700936618
 40
0.4038397803
 40
0.437621673
 40
0.4712482822
 40
0.5047472464
 40
0.5388047525
 40
0.5730187865
 40
0.6053699223
 40
0.6402328776
 40
0.6783573482
 40
0.7171034458
 40
0.7543546983
 40
0.7890381338
 40
0.8204293459
 40
0.8486328526
 40
0.8741743196
 40
0.897083993
 40
0.9168933427
 40
0.9335982874
 40
0.9479472565
 40
0.960825099
 40
0.9730608327
 40
0.9850541563
 40
0.9967921743
 40
1.0
 40
1.0
 40
1.0
 40
1.0
 10
66.142386153
 20
245.4520640959
 30
0.0
 10
66.1080942928
 20
245.5753783246
 30
0.0
 10
66.0387148397
 20
245.8245748447
 30
0.0
 10
65.932771253
 20
246.1979748135
 30
0.0
 10
65.8262045471
 20
246.5677062574
 30
0.0
 10
65.7217421667
 20
246.9238308659
 30
0.0
 10
65.6217103902
 20
247.2587332091
 30
0.0
 10
65.5273498774
 20
247.5688489007
 30
0.0
 10
65.4380269831
 20
247.8570390161
 30
0.0
 10
65.3515432619
 20
248.1310424662
 30
0.0
 10
65.2653525197
 20
248.3990431724
 30
0.0
 10
65.1779114784
 20
248.6655567353
 30
0.0
 10
65.0887788694
 20
248.9311524727
 30
0.0
 10
64.9977610175
 20
249.1953851502
 30
0.0
 10
64.9040970566
 20
249.4595023383
 30
0.0
 10
64.8072650711
 20
249.7242084108
 30
0.0
 10
64.7086855676
 20
249.9848741855
 30
0.0
 10
64.6060766767
 20
250.2463798988
 30
0.0
 10
64.4952481215
 20
250.5162645047
 30
0.0
 10
64.3715635304
 20
250.7999534112
 30
0.0
 10
64.2377407453
 20
251.0863350338
 30
0.0
 10
64.0991142758
 20
251.3598086229
 30
0.0
 10
63.9591530542
 20
251.6095246032
 30
0.0
 10
63.8201523218
 20
251.8307135672
 30
0.0
 10
63.6827127934
 20
252.0225081276
 30
0.0
 10
63.5468210967
 20
252.1859044135
 30
0.0
 10
63.4135398328
 20
252.320370334
 30
0.0
 10
63.2865312679
 20
252.4254900546
 30
0.0
 10
63.169066007
 20
252.5036910696
 30
0.0
 10
63.0613419751
 20
252.5606731533
 30
0.0
 10
62.9600529686
 20
252.6021707838
 30
0.0
 10
62.861542926
 20
252.6319598082
 30
0.0
 10
62.7638545477
 20
252.6520915243
 30
0.0
 10
62.6896842898
 20
252.6608903962
 30
0.0
 10
62.6483656484
 20
252.6636372276
 30
0.0
 10
62.6394921467
 20
252.664129405
 30
0.0
  0
SPLINE
  5
33B
100
AcDbEntity
  8
0
100
AcDbSpline
 62
7
  6
CONTINUOUS
 70
0
 71
3
 72
30
 73
26
 74
0
 42
0.0000001
 43
0.0000001
 44
0.0000000001
 40
0.0
 40
0.0
 40
0.0
 40
0.0
 40
0.0289913806
 40
0.0582412203
 40
0.0873886079
 40
0.1161440242
 40
0.1452001051
 40
0.1762825615
 40
0.2110393345
 40
0.250890206
 40
0.2953895532
 40
0.3429828409
 40
0.3932441999
 40
0.4464495054
 40
0.5027505524
 40
0.5620156807
 40
0.6230629936
 40
0.6828978573
 40
0.7366197667
 40
0.7842198507
 40
0.8280483583
 40
0.87087531
 40
0.9138841614
 40
0.9570137881
 40
1.0
 40
1.0
 40
1.0
 40
1.0
 10
69.0042707547
 20
240.9066568433
 30
0.0
 10
68.9486479536
 20
240.9066568433
 30
0.0
 10
68.836838866
 20
240.9114527156
 30
0.0
 10
68.6704554682
 20
240.934093791
 30
0.0
 10
68.5075617062
 20
240.9730857375
 30
0.0
 10
68.3497270504
 20
241.0280130843
 30
0.0
 10
68.194952273
 20
241.100373081
 30
0.0
 10
68.0387732133
 20
241.1946197439
 30
0.0
 10
67.8773589537
 20
241.3180587067
 30
0.0
 10
67.7125712773
 20
241.4771115422
 30
0.0
 10
67.5509373455
 20
241.6725930099
 30
0.0
 10
67.3989576107
 20
241.8999834045
 30
0.0
 10
67.257723686
 20
242.1533351124
 30
0.0
 10
67.1253015076
 20
242.429952885
 30
0.0
 10
66.999663749
 20
242.7284918488
 30
0.0
 10
66.8796364563
 20
243.0454279966
 30
0.0
 10
66.7655742024
 20
243.3717227826
 30
0.0
 10
66.6609092116
 20
243.6899630254
 30
0.0
 10
66.5684166834
 20
243.9850064562
 30
0.0
 10
66.4874006697
 20
244.2514492557
 30
0.0
 10
66.4140554556
 20
244.498370141
 30
0.0
 10
66.3444905844
 20
244.7372206023
 30
0.0
 10
66.2763423921
 20
244.9750842791
 30
0.0
 10
66.2089511636
 20
245.2134808383
 30
0.0
 10
66.1644822891
 20
245.37260594
 30
0.0
 10
66.142386153
 20
245.4520640959
 30
0.0
  0
SPLINE
  5
33C
100
AcDbEntity
  8
0
100
AcDbSpline
 62
7
  6
CONTINUOUS
 70
0
 71
3
 72
35
 73
31
 74
0
 42
0.0000001
 43
0.0000001
 44
0.0000000001
 40
0.0
 40
0.0
 40
0.0
 40
0.0
 40
0.0420570213
 40
0.0847741118
 40
0.1272308365
 40
0.1685828893
 40
0.2083297745
 40
0.246471034
 40
0.2825577611
 40
0.3153629883
 40
0.3453247012
 40
0.3766152422
 40
0.4081598706
 40
0.4392423289
 40
0.4701432755
 40
0.501949625
 40
0.536474754
 40
0.5756136463
 40
0.6201791703
 40
0.6673889519
 40
0.7137741049
 40
0.7571710411
 40
0.7957517912
 40
0.8292635282
 40
0.8591472627
 40
0.8871262503
 40
0.9150332809
 40
0.9433833056
 40
0.9718456237
 40
1.0
 40
1.0
 40
1.0
 40
1.0
 10
71.8661553547
 20
245.4520640959
 30
0.0
 10
71.8445360739
 20
245.3743213707
 30
0.0
 10
71.8007616084
 20
245.2176703441
 30
0.0
 10
71.7343716612
 20
244.9827595539
 30
0.0
 10
71.6675381907
 20
244.7493810098
 30
0.0
 10
71.6013186571
 20
244.5217564225
 30
0.0
 10
71.5363266661
 20
244.3024005664
 30
0.0
 10
71.4730708016
 20
244.0930699343
 30
0.0
 10
71.412502236
 20
243.8968442798
 30
0.0
 10
71.3553744648
 20
243.7159849264
 30
0.0
 10
71.2997344712
 20
243.5443109541
 30
0.0
 10
71.243362895
 20
243.3754229348
 30
0.0
 10
71.1846436788
 20
243.2050600386
 30
0.0
 10
71.1243074478
 20
243.0360555025
 30
0.0
 10
71.0615531739
 20
242.8673953572
 30
0.0
 10
70.9934785322
 20
242.6936911831
 30
0.0
 10
70.915474852
 20
242.5069477538
 30
0.0
 10
70.8221972718
 20
242.300125143
 30
0.0
 10
70.7092917198
 20
242.0756337556
 30
0.0
 10
70.5760294782
 20
241.8462225594
 30
0.0
 10
70.4253738244
 20
241.6303682569
 30
0.0
 10
70.2641366038
 20
241.4435473914
 30
0.0
 10
70.1010796155
 20
241.2927803369
 30
0.0
 10
69.9428979474
 20
241.1769569607
 30
0.0
 10
69.7910439074
 20
241.0887456818
 30
0.0
 10
69.6409098739
 20
241.0206933567
 30
0.0
 10
69.4874633246
 20
240.9691069824
 30
0.0
 10
69.3288308628
 20
240.9324897929
 30
0.0
 10
69.1669794641
 20
240.9111591171
 30
0.0
 10
69.0582891991
 20
240.9066568433
 30
0.0
 10
69.0042707547
 20
240.9066568433
 30
0.0
  0
SPLINE
  5
33D
100
AcDbEntity
  8
0
100
AcDbSpline
 62
7
  6
CONTINUOUS
 70
0
 71
3
 72
13
 73
9
 74
0
 42
0.0000001
 43
0.0000001
 44
0.0000000001
 40
0.0
 40
0.0
 40
0.0
 40
0.0
 40
0.0317558815
 40
0.1242114772
 40
0.2533417052
 40
0.3967846594
 40
0.6960428091
 40
1.0
 40
1.0
 40
1.0
 40
1.0
 10
77.2685105925
 20
240.9066568433
 30
0.0
 10
77.2630010373
 20
240.954485891
 30
0.0
 10
77.2441646103
 20
241.1418258537
 30
0.0
 10
77.2238399698
 20
241.525507262
 30
0.0
 10
77.2144460515
 20
242.0787798411
 30
0.0
 10
77.2198177307
 20
242.9455900937
 30
0.0
 10
77.241530306
 20
244.0771670872
 30
0.0
 10
77.2576704013
 20
244.9913778495
 30
0.0
 10
77.264528328
 20
245.4520640959
 30
0.0
  0
SPLINE
  5
33E
100
AcDbEntity
  8
0
100
AcDbSpline
 62
7
  6
CONTINUOUS
 70
0
 71
3
 72
23
 73
19
 74
0
 42
0.0000001
 43
0.0000001
 44
0.0000000001
 40
0.0
 40
0.0
 40
0.0
 40
0.0
 40
0.134512498
 40
0.2685132733
 40
0.4018022097
 40
0.4680805631
 40
0.5340027231
 40
0.5994711825
 40
0.6643060075
 40
0.7281646564
 40
0.7905497509
 40
0.8503697246
 40
0.878758095
 40
0.9056735844
 40
0.9308270421
 40
0.954351357
 40
0.977063447
 40
1.0
 40
1.0
 40
1.0
 40
1.0
 10
77.264528328
 20
245.4520640959
 30
0.0
 10
77.2696326278
 20
245.7949491717
 30
0.0
 10
77.2761143718
 20
246.4794820713
 30
0.0
 10
77.2708634907
 20
247.5038531445
 30
0.0
 10
77.2513295514
 20
248.3540871701
 30
0.0
 10
77.2237363898
 20
249.030376299
 30
0.0
 10
77.1954657257
 20
249.5335391494
 30
0.0
 10
77.158243644
 20
250.0324396833
 30
0.0
 10
77.1097968
 20
250.5251150633
 30
0.0
 10
77.0451945812
 20
251.0081042371
 30
0.0
 10
76.9596427493
 20
251.4748366701
 30
0.0
 10
76.8603494752
 20
251.8467129025
 30
0.0
 10
76.7524307423
 20
252.120075526
 30
0.0
 10
76.6558909452
 20
252.3017495936
 30
0.0
 10
76.5379552179
 20
252.4557388828
 30
0.0
 10
76.3953227468
 20
252.5721612319
 30
0.0
 10
76.2313313957
 20
252.6427341424
 30
0.0
 10
76.1152237717
 20
252.6605110278
 30
0.0
 10
76.0568619118
 20
252.664129405
 30
0.0
  0
SPLINE
  5
33F
100
AcDbEntity
  8
0
100
AcDbSpline
 62
7
  6
CONTINUOUS
 70
0
 71
3
 72
13
 73
9
 74
0
 42
0.0000001
 43
0.0000001
 44
0.0000000001
 40
0.0
 40
0.0
 40
0.0
 40
0.0
 40
0.3039613722
 40
0.603224542
 40
0.7466686512
 40
0.8757961557
 40
0.9682487242
 40
1.0
 40
1.0
 40
1.0
 40
1.0
 10
60.7440131814
 20
245.4520640959
 30
0.0
 10
60.7508712028
 20
244.991371493
 30
0.0
 10
60.7670120475
 20
244.077146748
 30
0.0
 10
60.7887308155
 20
242.9455541417
 30
0.0
 10
60.7940975344
 20
242.0787384732
 30
0.0
 10
60.784698057
 20
241.525473122
 30
0.0
 10
60.7643792394
 20
241.1418069786
 30
0.0
 10
60.7455409221
 20
240.9544788343
 30
0.0
 10
60.740030917
 20
240.9066568433
 30
0.0
  0
SPLINE
  5
340
100
AcDbEntity
  8
0
100
AcDbSpline
 62
7
  6
CONTINUOUS
 70
0
 71
3
 72
23
 73
19
 74
0
 42
0.0000001
 43
0.0000001
 44
0.0000000001
 40
0.0
 40
0.0
 40
0.0
 40
0.0
 40
0.0229371422
 40
0.0456506855
 40
0.0691757844
 40
0.0943314615
 40
0.1212480708
 40
0.1496358331
 40
0.2094557441
 40
0.2718400291
 40
0.3356982189
 40
0.4005327119
 40
0.4660007573
 40
0.5319224999
 40
0.598200423
 40
0.7314884976
 40
0.8654883898
 40
1.0
 40
1.0
 40
1.0
 40
1.0
 10
61.9516795976
 20
252.664129405
 30
0.0
 10
61.8933162557
 20
252.660510936
 30
0.0
 10
61.7772001818
 20
252.6427432404
 30
0.0
 10
61.613214335
 20
252.5721391737
 30
0.0
 10
61.4705663165
 20
252.4557218611
 30
0.0
 10
61.3526273504
 20
252.3017185917
 30
0.0
 10
61.2560998541
 20
252.1200312822
 30
0.0
 10
61.1481685932
 20
251.8466727058
 30
0.0
 10
61.0488954774
 20
251.4747939608
 30
0.0
 10
60.9633397035
 20
251.0080667556
 30
0.0
 10
60.8987409054
 20
250.5250810454
 30
0.0
 10
60.8502958691
 20
250.032408837
 30
0.0
 10
60.8130739856
 20
249.5335113865
 30
0.0
 10
60.7848039923
 20
249.0303518738
 30
0.0
 10
60.7572112525
 20
248.3540672885
 30
0.0
 10
60.7376779406
 20
247.5038390475
 30
0.0
 10
60.7324271405
 20
246.4794749901
 30
0.0
 10
60.7389089168
 20
245.7949468074
 30
0.0
 10
60.7440131814
 20
245.4520640959
 30
0.0
  0
SPLINE
  5
341
100
AcDbEntity
  8
0
100
AcDbSpline
 62
7
  6
CONTINUOUS
 70
0
 71
3
 72
9
 73
5
 74
0
 42
0.0000001
 43
0.0000001
 44
0.0000000001
 40
0.0
 40
0.0
 40
0.0
 40
0.0
 40
0.1999872172
 40
1.0
 40
1.0
 40
1.0
 40
1.0
 10
74.2542707547
 20
93.8742390941
 30
0.0
 10
74.3354263815
 20
93.9143118562
 30
0.0
 10
74.7346490453
 20
94.1279991952
 30
0.0
 10
75.0992492072
 20
94.4039558311
 30
0.0
 10
75.3690926667
 20
94.6453651213
 30
0.0
  0
SPLINE
  5
342
100
AcDbEntity
  8
0
100
AcDbSpline
 62
7
  6
CONTINUOUS
 70
0
 71
3
 72
12
 73
8
 74
0
 42
0.0000001
 43
0.0000001
 44
0.0000000001
 40
0.0
 40
0.0
 40
0.0
 40
0.0
 40
0.2586759464
 40
0.4358284889
 40
0.6666359291
 40
0.8435731662
 40
1.0
 40
1.0
 40
1.0
 40
1.0
 10
76.0569009925
 20
95.3331776704
 30
0.0
 10
76.2759530221
 20
95.5780335768
 30
0.0
 10
76.6160744668
 20
96.0199045885
 30
0.0
 10
77.0007669826
 20
96.7781100423
 30
0.0
 10
77.2027907079
 20
97.4991912095
 30
0.0
 10
77.2786601013
 20
98.2134922238
 30
0.0
 10
77.275149063
 20
98.6376809505
 30
0.0
 10
77.2645283274
 20
98.8360716767
 30
0.0
  0
SPLINE
  5
343
100
AcDbEntity
  8
0
100
AcDbSpline
 62
7
  6
CONTINUOUS
 70
0
 71
3
 72
13
 73
9
 74
0
 42
0.0000001
 43
0.0000001
 44
0.0000000001
 40
0.0
 40
0.0
 40
0.0
 40
0.0
 40
0.139969752
 40
0.3030655066
 40
0.4087878082
 40
0.5529790326
 40
0.7553118785
 40
1.0
 40
1.0
 40
1.0
 40
1.0
 10
77.2645283274
 20
98.8360716767
 30
0.0
 10
77.257385158
 20
98.9695029781
 30
0.0
 10
77.239136472
 20
99.2582337862
 30
0.0
 10
77.2177944809
 20
99.6479950065
 30
0.0
 10
77.2149111317
 20
100.0423806108
 30
0.0
 10
77.2298879594
 20
100.4739359125
 30
0.0
 10
77.2582887909
 20
101.037593171
 30
0.0
 10
77.2685105925
 20
101.4643643376
 30
0.0
 10
77.2685105925
 20
101.6979562784
 30
0.0
  0
SPLINE
  5
344
100
AcDbEntity
  8
FASEN
100
AcDbSpline
 62
7
  6
CONTINUOUS
 70
0
 71
3
 72
27
 73
23
 74
0
 42
0.0000001
 43
0.0000001
 44
0.0000000001
 40
0.0
 40
0.0
 40
0.0
 40
0.0
 40
0.191741749
 40
0.3769430561
 40
0.5488359094
 40
0.6277683622
 40
0.7009389881
 40
0.767594511
 40
0.827005621
 40
0.8785174599
 40
0.9215299592
 40
0.939682179
 40
0.9555320698
 40
0.96903216
 40
0.9801351479
 40
0.9888039195
 40
0.9922187943
 40
0.9950173781
 40
0.9971972082
 40
0.998755828
 40
0.9996908088
 40
1.0
 40
1.0
 40
1.0
 40
1.0
 10
74.8542707547
 20
85.7362051214
 30
0.0
 10
74.8672527141
 20
85.5376925089
 30
0.0
 10
74.8926641989
 20
85.1474309494
 30
0.0
 10
74.9274557
 20
84.5790631093
 30
0.0
 10
74.9538083189
 20
84.1274429118
 30
0.0
 10
74.97287736
 20
83.791830641
 30
0.0
 10
74.9854903091
 20
83.5652140534
 30
0.0
 10
74.9967674151
 20
83.3588084277
 30
0.0
 10
75.0066511851
 20
83.174831852
 30
0.0
 10
75.0151029661
 20
83.0153437719
 30
0.0
 10
75.0212549844
 20
82.8986015238
 30
0.0
 10
75.0254555627
 20
82.8188068717
 30
0.0
 10
75.0280334139
 20
82.7695911876
 30
0.0
 10
75.0302029859
 20
82.7276718825
 30
0.0
 10
75.031961894
 20
82.6932088966
 30
0.0
 10
75.033126362
 20
82.6691515474
 30
0.0
 10
75.0339042239
 20
82.6537746459
 30
0.0
 10
75.0342685069
 20
82.6449809079
 30
0.0
 10
75.0347540747
 20
82.638454502
 30
0.0
 10
75.0346578342
 20
82.6330510092
 30
0.0
 10
75.0354233427
 20
82.6311307442
 30
0.0
 10
75.034892729
 20
82.6288294314
 30
0.0
 10
75.0351985898
 20
82.6289261655
 30
0.0
  0
SPLINE
  5
345
100
AcDbEntity
  8
FASEN
100
AcDbSpline
 62
7
  6
CONTINUOUS
 70
0
 71
3
 72
27
 73
23
 74
0
 42
0.0000001
 43
0.0000001
 44
0.0000000001
 40
0.0
 40
0.0
 40
0.0
 40
0.0
 40
0.0003091912
 40
0.001244172
 40
0.0028027918
 40
0.0049826219
 40
0.0077812057
 40
0.0111960805
 40
0.0198648521
 40
0.03096784
 40
0.0444679302
 40
0.060317821
 40
0.0784700408
 40
0.1214825401
 40
0.172994379
 40
0.232405489
 40
0.2990610119
 40
0.3722316378
 40
0.4511640906
 40
0.6230569439
 40
0.808258251
 40
1.0
 40
1.0
 40
1.0
 40
1.0
 10
62.9733429197
 20
82.6289261655
 30
0.0
 10
62.9736487805
 20
82.6288294314
 30
0.0
 10
62.9731181667
 20
82.6311307442
 30
0.0
 10
62.9738836752
 20
82.6330510092
 30
0.0
 10
62.9737874348
 20
82.638454502
 30
0.0
 10
62.9742730025
 20
82.6449809079
 30
0.0
 10
62.9746372856
 20
82.6537746459
 30
0.0
 10
62.9754151474
 20
82.6691515474
 30
0.0
 10
62.9765796155
 20
82.6932088966
 30
0.0
 10
62.9783385236
 20
82.7276718825
 30
0.0
 10
62.9805080956
 20
82.7695911876
 30
0.0
 10
62.9830859467
 20
82.8188068717
 30
0.0
 10
62.987286525
 20
82.8986015238
 30
0.0
 10
62.9934385433
 20
83.0153437719
 30
0.0
 10
63.0018903244
 20
83.174831852
 30
0.0
 10
63.0117740943
 20
83.3588084277
 30
0.0
 10
63.0230512004
 20
83.5652140534
 30
0.0
 10
63.0356641495
 20
83.791830641
 30
0.0
 10
63.0547331905
 20
84.1274429118
 30
0.0
 10
63.0810858094
 20
84.5790631093
 30
0.0
 10
63.1158773105
 20
85.1474309494
 30
0.0
 10
63.1412887954
 20
85.5376925089
 30
0.0
 10
63.1542707547
 20
85.7362051214
 30
0.0
  0
SPLINE
  5
346
100
AcDbEntity
  8
0
100
AcDbSpline
 62
7
  6
CONTINUOUS
 70
0
 71
3
 72
13
 73
9
 74
0
 42
0.0000001
 43
0.0000001
 44
0.0000000001
 40
0.0
 40
0.0
 40
0.0
 40
0.0
 40
0.2445316798
 40
0.4467926504
 40
0.5910581129
 40
0.696812258
 40
0.8599726931
 40
1.0
 40
1.0
 40
1.0
 40
1.0
 10
77.2685105925
 20
101.6979562784
 30
0.0
 10
77.2685105925
 20
101.9313988621
 30
0.0
 10
77.2582659513
 20
102.3579511923
 30
0.0
 10
77.229930658
 20
102.9214635923
 30
0.0
 10
77.21489134
 20
103.3530497618
 30
0.0
 10
77.2177929244
 20
103.7475987471
 30
0.0
 10
77.2391427712
 20
104.1375063847
 30
0.0
 10
77.2573826666
 20
104.4263546927
 30
0.0
 10
77.264528328
 20
104.5598408784
 30
0.0
  0
SPLINE
  5
347
100
AcDbEntity
  8
0
100
AcDbSpline
 62
7
  6
CONTINUOUS
 70
0
 71
3
 72
12
 73
8
 74
0
 42
0.0000001
 43
0.0000001
 44
0.0000000001
 40
0.0
 40
0.0
 40
0.0
 40
0.0
 40
0.1564088141
 40
0.3333214552
 40
0.5640724766
 40
0.7411675228
 40
1.0
 40
1.0
 40
1.0
 40
1.0
 10
77.264528328
 20
104.5598408784
 30
0.0
 10
77.2751473305
 20
104.7582116187
 30
0.0
 10
77.2786553219
 20
105.1823521459
 30
0.0
 10
77.202806194
 20
105.8965379747
 30
0.0
 10
77.0008745377
 20
106.6174678645
 30
0.0
 10
76.6162450935
 20
107.3757779471
 30
0.0
 10
76.2760511344
 20
107.8177719685
 30
0.0
 10
76.0568619118
 20
108.0627781904
 30
0.0
  0
SPLINE
  5
348
100
AcDbEntity
  8
0
100
AcDbSpline
 62
7
  6
CONTINUOUS
 70
0
 71
3
 72
12
 73
8
 74
0
 42
0.0000001
 43
0.0000001
 44
0.0000000001
 40
0.0
 40
0.0
 40
0.0
 40
0.0
 40
0.2586724336
 40
0.4358212946
 40
0.6666319023
 40
0.8435712299
 40
1.0
 40
1.0
 40
1.0
 40
1.0
 10
75.3690926667
 20
108.7505474355
 30
0.0
 10
75.1242379556
 20
108.9696011124
 30
0.0
 10
74.6823700724
 20
109.3097244089
 30
0.0
 10
73.9241623156
 20
109.6944272589
 30
0.0
 10
73.2030708646
 20
109.8964619404
 30
0.0
 10
72.4887514123
 20
109.9723398111
 30
0.0
 10
72.0645513915
 20
109.9688342084
 30
0.0
 10
71.8661553547
 20
109.9582138517
 30
0.0
  0
SPLINE
  5
349
100
AcDbEntity
  8
0
100
AcDbSpline
 62
7
  6
CONTINUOUS
 70
0
 71
3
 72
13
 73
9
 74
0
 42
0.0000001
 43
0.0000001
 44
0.0000000001
 40
0.0
 40
0.0
 40
0.0
 40
0.0
 40
0.1399667683
 40
0.3030278775
 40
0.4087063965
 40
0.5529075186
 40
0.7552479458
 40
1.0
 40
1.0
 40
1.0
 40
1.0
 10
71.8661553547
 20
109.9582138517
 30
0.0
 10
71.7327268669
 20
109.9510712789
 30
0.0
 10
71.4440305357
 20
109.9328460081
 30
0.0
 10
71.0543487157
 20
109.9114864796
 30
0.0
 10
70.660028284
 20
109.9085665649
 30
0.0
 10
70.2284991957
 20
109.9235894011
 30
0.0
 10
69.6647620875
 20
109.9519303051
 30
0.0
 10
69.2379237413
 20
109.9621961162
 30
0.0
 10
69.0042707547
 20
109.9621961162
 30
0.0
  0
SPLINE
  5
34A
100
AcDbEntity
  8
0
100
AcDbSpline
 62
7
  6
CONTINUOUS
 70
0
 71
3
 72
13
 73
9
 74
0
 42
0.0000001
 43
0.0000001
 44
0.0000000001
 40
0.0
 40
0.0
 40
0.0
 40
0.0
 40
0.2448922948
 40
0.4472693084
 40
0.5914083729
 40
0.6970507167
 40
0.8600724293
 40
1.0
 40
1.0
 40
1.0
 40
1.0
 10
69.0042707547
 20
109.9621961162
 30
0.0
 10
68.7704838889
 20
109.9621961162
 30
0.0
 10
68.3434758229
 20
109.9519551956
 30
0.0
 10
67.7796314804
 20
109.9235513079
 30
0.0
 10
67.3481596091
 20
109.9085799233
 30
0.0
 10
66.9539710611
 20
109.9114965153
 30
0.0
 10
66.5643979187
 20
109.9328395059
 30
0.0
 10
66.2757772494
 20
109.951072834
 30
0.0
 10
66.142386153
 20
109.9582138511
 30
0.0
  0
SPLINE
  5
34B
100
AcDbEntity
  8
0
100
AcDbSpline
 62
7
  6
CONTINUOUS
 70
0
 71
3
 72
12
 73
8
 74
0
 42
0.0000001
 43
0.0000001
 44
0.0000000001
 40
0.0
 40
0.0
 40
0.0
 40
0.0
 40
0.156426777
 40
0.3333639189
 40
0.5641716562
 40
0.7413271544
 40
1.0
 40
1.0
 40
1.0
 40
1.0
 10
66.142386153
 20
109.9582138511
 30
0.0
 10
65.9439954997
 20
109.9688345828
 30
0.0
 10
65.5198069653
 20
109.9723456429
 30
0.0
 10
64.8055057857
 20
109.8964762598
 30
0.0
 10
64.0844206227
 20
109.6944516406
 30
0.0
 10
63.3262158047
 20
109.309757184
 30
0.0
 10
62.8843451169
 20
108.9696359191
 30
0.0
 10
62.6394921467
 20
108.7505865162
 30
0.0
  0
SPLINE
  5
34C
100
AcDbEntity
  8
0
100
AcDbSpline
 62
7
  6
CONTINUOUS
 70
0
 71
3
 72
12
 73
8
 74
0
 42
0.0000001
 43
0.0000001
 44
0.0000000001
 40
0.0
 40
0.0
 40
0.0
 40
0.0
 40
0.2588438872
 40
0.4359337664
 40
0.666681166
 40
0.8435923083
 40
1.0
 40
1.0
 40
1.0
 40
1.0
 10
61.9516795976
 20
108.0627781904
 30
0.0
 10
61.7324807209
 20
107.8177611773
 30
0.0
 10
61.3922827484
 20
107.3757594618
 30
0.0
 10
61.007659444
 20
106.6174428222
 30
0.0
 10
60.8057334028
 20
105.8965253621
 30
0.0
 10
60.7298861731
 20
105.1823473392
 30
0.0
 10
60.7333942555
 20
104.7582101876
 30
0.0
 10
60.7440131814
 20
104.5598408784
 30
0.0
  0
SPLINE
  5
34D
100
AcDbEntity
  8
BEZUGSACHSEN
100
AcDbSpline
 62
7
  6
CONTINUOUS
 70
0
 71
3
 72
21
 73
17
 74
0
 42
0.0000001
 43
0.0000001
 44
0.0000000001
 40
0.0
 40
0.0
 40
0.0
 40
0.0
 40
0.0530748528
 40
0.0786348999
 40
0.1032072612
 40
0.1271471439
 40
0.1521436464
 40
0.2071938297
 40
0.2681265764
 40
0.3316489184
 40
0.3966126829
 40
0.4624116155
 40
0.5955165366
 40
0.7298121207
 40
0.8647429899
 40
1.0
 40
1.0
 40
1.0
 40
1.0
 10
63.7542707547
 20
91.6291580593
 30
0.0
 10
63.7296169705
 20
91.6512361105
 30
0.0
 10
63.6914140255
 20
91.6825580626
 30
0.0
 10
63.6346433376
 20
91.7132786195
 30
0.0
 10
63.5901135192
 20
91.7274127564
 30
0.0
 10
63.5432588176
 20
91.7262776707
 30
0.0
 10
63.482195424
 20
91.7008619454
 30
0.0
 10
63.4212194295
 20
91.6334249932
 30
0.0
 10
63.3692513146
 20
91.5342788411
 30
0.0
 10
63.3264512578
 20
91.4239177315
 30
0.0
 10
63.2913793484
 20
91.3079079656
 30
0.0
 10
63.2519287368
 20
91.148113187
 30
0.0
 10
63.2144352381
 20
90.9435769737
 30
0.0
 10
63.1832188213
 20
90.6945629954
 30
0.0
 10
63.163119531
 20
90.4430799598
 30
0.0
 10
63.1562122368
 20
90.2747028602
 30
0.0
 10
63.1542707547
 20
90.1903863933
 30
0.0
  0
SPLINE
  5
34E
100
AcDbEntity
  8
0
100
AcDbSpline
 62
7
  6
CONTINUOUS
 70
0
 71
3
 72
13
 73
9
 74
0
 42
0.0000001
 43
0.0000001
 44
0.0000000001
 40
0.0
 40
0.0
 40
0.0
 40
0.0
 40
0.1400274862
 40
0.3031874066
 40
0.4089475524
 40
0.5532188586
 40
0.7554742851
 40
1.0
 40
1.0
 40
1.0
 40
1.0
 10
60.7440131814
 20
104.5598408784
 30
0.0
 10
60.7511588527
 20
104.4263545101
 30
0.0
 10
60.7694000562
 20
104.1375066107
 30
0.0
 10
60.7907561274
 20
103.7475937206
 30
0.0
 10
60.793650359
 20
103.3530337662
 30
0.0
 10
60.7786092737
 20
102.9214417063
 30
0.0
 10
60.7502770025
 20
102.3579345057
 30
0.0
 10
60.740030917
 20
101.9313931881
 30
0.0
 10
60.740030917
 20
101.6979562784
 30
0.0
  0
SPLINE
  5
34F
100
AcDbEntity
  8
0
100
AcDbSpline
 62
7
  6
CONTINUOUS
 70
0
 71
3
 72
13
 73
9
 74
0
 42
0.0000001
 43
0.0000001
 44
0.0000000001
 40
0.0
 40
0.0
 40
0.0
 40
0.0
 40
0.2446380316
 40
0.4469623517
 40
0.5911653551
 40
0.6969023261
 40
0.8600141744
 40
1.0
 40
1.0
 40
1.0
 40
1.0
 10
60.740030917
 20
101.6979562784
 30
0.0
 10
60.740030917
 20
101.4644121544
 30
0.0
 10
60.7502419458
 20
101.037696744
 30
0.0
 10
60.7786460784
 20
100.4740843042
 30
0.0
 10
60.7936286622
 20
100.0425121452
 30
0.0
 10
60.7907512536
 20
99.6480857694
 30
0.0
 10
60.7694003793
 20
99.258280171
 30
0.0
 10
60.7511571718
 20
98.9695183016
 30
0.0
 10
60.744013182
 20
98.8360716767
 30
0.0
  0
SPLINE
  5
350
100
AcDbEntity
  8
0
100
AcDbSpline
 62
7
  6
CONTINUOUS
 70
0
 71
3
 72
12
 73
8
 74
0
 42
0.0000001
 43
0.0000001
 44
0.0000000001
 40
0.0
 40
0.0
 40
0.0
 40
0.0
 40
0.1564267787
 40
0.333363923
 40
0.5641716653
 40
0.7413271581
 40
1.0
 40
1.0
 40
1.0
 40
1.0
 10
60.744013182
 20
98.8360716767
 30
0.0
 10
60.7333924502
 20
98.6376810212
 30
0.0
 10
60.7298813905
 20
98.2134924816
 30
0.0
 10
60.805750776
 20
97.4991912905
 30
0.0
 10
61.0077754018
 20
96.7781061265
 30
0.0
 10
61.3924698588
 20
96.019901315
 30
0.0
 10
61.7325911172
 20
95.5780306371
 30
0.0
 10
61.9516405169
 20
95.3331776704
 30
0.0
  0
SPLINE
  5
351
100
AcDbEntity
  8
0
100
AcDbSpline
 62
7
  6
CONTINUOUS
 70
0
 71
3
 72
9
 73
5
 74
0
 42
0.0000001
 43
0.0000001
 44
0.0000000001
 40
0.0
 40
0.0
 40
0.0
 40
0.0
 40
0.2916924945
 40
1.0
 40
1.0
 40
1.0
 40
1.0
 10
62.6394921467
 20
94.6453260406
 30
0.0
 10
62.7378909681
 20
94.5572968734
 30
0.0
 10
63.0840419781
 20
94.2657134852
 30
0.0
 10
63.4668066488
 20
94.0161783477
 30
0.0
 10
63.7542707547
 20
93.8742320925
 30
0.0
  0
SPLINE
  5
352
100
AcDbEntity
  8
BEZUGSACHSEN
100
AcDbSpline
 62
7
  6
CONTINUOUS
 70
0
 71
3
 72
21
 73
17
 74
0
 42
0.0000001
 43
0.0000001
 44
0.0000000001
 40
0.0
 40
0.0
 40
0.0
 40
0.0
 40
0.1352107874
 40
0.2700974696
 40
0.4043555421
 40
0.5374226721
 40
0.6032348254
 40
0.6681702486
 40
0.7316710472
 40
0.7927778196
 40
0.8478283492
 40
0.8728781977
 40
0.8968057809
 40
0.9213589399
 40
0.9469548187
 40
1.0
 40
1.0
 40
1.0
 40
1.0
 10
74.8542707547
 20
90.1903863933
 30
0.0
 10
74.8523300157
 20
90.2746705888
 30
0.0
 10
74.845427568
 20
90.4429845299
 30
0.0
 10
74.8253389279
 20
90.6943778923
 30
0.0
 10
74.7941532579
 20
90.9433099114
 30
0.0
 10
74.7566575721
 20
91.1477996973
 30
0.0
 10
74.7172821446
 20
91.3075644015
 30
0.0
 10
74.6822367897
 20
91.4235759085
 30
0.0
 10
74.6392330688
 20
91.5338709312
 30
0.0
 10
74.5878983495
 20
91.6335808634
 30
0.0
 10
74.5261593994
 20
91.7004592625
 30
0.0
 10
74.4652479627
 20
91.7260952784
 30
0.0
 10
74.4183642263
 20
91.7275632698
 30
0.0
 10
74.3738316977
 20
91.7133326878
 30
0.0
 10
74.3171740102
 20
91.6824583669
 30
0.0
 10
74.2789097457
 20
91.6512228628
 30
0.0
 10
74.2542707547
 20
91.6291580593
 30
0.0
  0
SPLINE
  5
353
100
AcDbEntity
  8
0
100
AcDbSpline
 62
7
  6
CONTINUOUS
 70
0
 71
3
 72
9
 73
5
 74
0
 42
0.0000001
 43
0.0000001
 44
0.0000000001
 40
0.0
 40
0.0
 40
0.0
 40
0.0
 40
0.4963639511
 40
1.0
 40
1.0
 40
1.0
 40
1.0
 10
141.6024355094
 20
158.4670936382
 30
0.0
 10
140.8509111545
 20
159.4662086629
 30
0.0
 10
139.3655958097
 20
161.5006735854
 30
0.0
 10
137.9103910786
 20
163.5565245402
 30
0.0
 10
137.1822159845
 20
164.5952328705
 30
0.0
  0
SPLINE
  5
354
100
AcDbEntity
  8
BEZUGSACHSEN
100
AcDbSpline
 62
7
  6
CONTINUOUS
 70
0
 71
3
 72
26
 73
22
 74
0
 42
0.0000001
 43
0.0000001
 44
0.0000000001
 40
0.0
 40
0.0
 40
0.0
 40
0.0
 40
0.0025728869
 40
0.006002746
 40
0.0143877976
 40
0.0277474943
 40
0.0452929092
 40
0.0665195247
 40
0.0914002782
 40
0.1198793275
 40
0.1514666471
 40
0.1855633767
 40
0.2216545377
 40
0.298069085
 40
0.3781195296
 40
0.4603301237
 40
0.5435832486
 40
0.6269085778
 40
0.7093611955
 40
0.8667798974
 40
1.0
 40
1.0
 40
1.0
 40
1.0
 10
156.8889311664
 20
168.2213670961
 30
0.0
 10
156.8905277731
 20
168.2266310662
 30
0.0
 10
156.8982440745
 20
168.2478413591
 30
0.0
 10
156.8790578072
 20
168.1965756869
 30
0.0
 10
156.8640729716
 20
168.1626596141
 30
0.0
 10
156.8267930641
 20
168.0776428636
 30
0.0
 10
156.7786404278
 20
167.9810737292
 30
0.0
 10
156.7126846276
 20
167.8605236761
 30
0.0
 10
156.6298963401
 20
167.7246754981
 30
0.0
 10
156.5284658414
 20
167.5737822144
 30
0.0
 10
156.4087952556
 20
167.4118604913
 30
0.0
 10
156.2712749672
 20
167.2431033177
 30
0.0
 10
156.0617857598
 20
167.0098372135
 30
0.0
 10
155.765135915
 20
166.7234277484
 30
0.0
 10
155.3659268354
 20
166.4044353434
 30
0.0
 10
154.9267966104
 20
166.1155189228
 30
0.0
 10
154.4569592831
 20
165.8646137558
 30
0.0
 10
153.9656892301
 20
165.6573494799
 30
0.0
 10
153.3063876262
 20
165.4478455934
 30
0.0
 10
152.5159718829
 20
165.3101142936
 30
0.0
 10
151.8904507083
 20
165.3157261459
 30
0.0
 10
151.6074823484
 20
165.3481650927
 30
0.0
  0
SPLINE
  5
355
100
AcDbEntity
  8
FASEN
100
AcDbSpline
 62
7
  6
CONTINUOUS
 70
0
 71
3
 72
13
 73
9
 74
0
 42
0.0000001
 43
0.0000001
 44
0.0000000001
 40
0.0
 40
0.0
 40
0.0
 40
0.0
 40
0.2902487718
 40
0.5785477621
 40
0.7093139659
 40
0.8251055275
 40
0.9225125486
 40
1.0
 40
1.0
 40
1.0
 40
1.0
 10
145.2484758915
 20
156.3445860325
 30
0.0
 10
145.1658508748
 20
156.0279853297
 30
0.0
 10
145.0442085096
 20
155.3854591348
 30
0.0
 10
144.9794897665
 20
154.5866110934
 30
0.0
 10
144.988539136
 20
153.9833180989
 30
0.0
 10
145.023296412
 20
153.5965779771
 30
0.0
 10
145.0837755335
 20
153.2740946132
 30
0.0
 10
145.1453664847
 20
153.0854601148
 30
0.0
 10
145.1824570104
 20
153.0063719806
 30
0.0
  0
SPLINE
  5
356
100
AcDbEntity
  8
FASEN
100
AcDbSpline
 62
7
  6
CONTINUOUS
 70
0
 71
3
 72
9
 73
5
 74
0
 42
0.0000001
 43
0.0000001
 44
0.0000000001
 40
0.0
 40
0.0
 40
0.0
 40
0.0
 40
0.279807005
 40
1.0
 40
1.0
 40
1.0
 40
1.0
 10
161.1034642776
 20
118.9724009203
 30
0.0
 10
161.1119619925
 20
118.9541929042
 30
0.0
 10
161.1442772156
 20
118.8901689703
 30
0.0
 10
161.1853648702
 20
118.8296823941
 30
0.0
 10
161.2219714021
 20
118.7931484804
 30
0.0
  0
SPLINE
  5
357
100
AcDbEntity
  8
FASEN
100
AcDbSpline
 62
7
  6
CONTINUOUS
 70
0
 71
3
 72
11
 73
7
 74
0
 42
0.0000001
 43
0.0000001
 44
0.0000000001
 40
0.0
 40
0.0
 40
0.0
 40
0.0
 40
0.3317221225
 40
0.6141077996
 40
0.8375718681
 40
1.0
 40
1.0
 40
1.0
 40
1.0
 10
152.2358912986
 20
121.2475667753
 30
0.0
 10
152.1937855954
 20
121.0858371006
 30
0.0
 10
152.1050711059
 20
120.7891350919
 30
0.0
 10
151.9466961446
 20
120.3967033895
 30
0.0
 10
151.7807680839
 20
120.1034175085
 30
0.0
 10
151.6480092166
 20
119.9551474085
 30
0.0
 10
151.5797845329
 20
119.9099623185
 30
0.0
  0
SPLINE
  5
358
100
AcDbEntity
  8
BEZUGSACHSEN
100
AcDbSpline
 62
7
  6
CONTINUOUS
 70
0
 71
3
 72
9
 73
5
 74
0
 42
0.0000001
 43
0.0000001
 44
0.0000000001
 40
0.0
 40
0.0
 40
0.0
 40
0.0
 40
0.6633373316
 40
1.0
 40
1.0
 40
1.0
 40
1.0
 10
134.5227063384
 20
167.3105171357
 30
0.0
 10
134.3897426316
 20
167.3257864814
 30
0.0
 10
134.1903034561
 20
167.3593905073
 30
0.0
 10
133.9950992574
 20
167.4117985047
 30
0.0
 10
133.9308798916
 20
167.4339315
 30
0.0
  0
SPLINE
  5
359
100
AcDbEntity
  8
0
100
AcDbSpline
 62
7
  6
CONTINUOUS
 70
0
 71
3
 72
11
 73
7
 74
0
 42
0.0000001
 43
0.0000001
 44
0.0000000001
 40
0.0
 40
0.0
 40
0.0
 40
0.0
 40
0.2309941508
 40
0.4797162287
 40
0.7378369266
 40
1.0
 40
1.0
 40
1.0
 40
1.0
 10
137.822461569
 20
165.7871074086
 30
0.0
 10
137.7374463537
 20
165.7969318432
 30
0.0
 10
137.5673412204
 20
165.8597661547
 30
0.0
 10
137.3293055129
 20
165.9931157862
 30
0.0
 10
137.0912083973
 20
166.1502973436
 30
0.0
 10
136.9347734869
 20
166.2628746822
 30
0.0
 10
136.856639137
 20
166.3205723422
 30
0.0
  0
SPLINE
  5
35A
100
AcDbEntity
  8
0
100
AcDbSpline
 62
7
  6
CONTINUOUS
 70
0
 71
3
 72
13
 73
9
 74
0
 42
0.0000001
 43
0.0000001
 44
0.0000000001
 40
0.0
 40
0.0
 40
0.0
 40
0.0
 40
0.2999064365
 40
0.5766081488
 40
0.7032216445
 40
0.818768407
 40
0.9198179129
 40
1.0
 40
1.0
 40
1.0
 40
1.0
 10
136.856639137
 20
166.3205723422
 30
0.0
 10
136.7216784691
 20
166.4202329236
 30
0.0
 10
136.461598463
 20
166.6110218513
 30
0.0
 10
136.1386327076
 20
166.8358380599
 30
0.0
 10
135.8949635327
 20
166.9935125098
 30
0.0
 10
135.7292967877
 20
167.0910412951
 30
0.0
 10
135.581510505
 20
167.1659322044
 30
0.0
 10
135.4843123974
 20
167.2000369352
 30
0.0
 10
135.4397535509
 20
167.2051772291
 30
0.0
  0
SPLINE
  5
35B
100
AcDbEntity
  8
0
100
AcDbSpline
 62
7
  6
CONTINUOUS
 70
0
 71
3
 72
9
 73
5
 74
0
 42
0.0000001
 43
0.0000001
 44
0.0000000001
 40
0.0
 40
0.0
 40
0.0
 40
0.0
 40
0.5006697537
 40
1.0
 40
1.0
 40
1.0
 40
1.0
 10
149.968457143
 20
174.9093155776
 30
0.0
 10
149.9497671951
 20
174.7508810195
 30
0.0
 10
149.9081566546
 20
174.4350161211
 30
0.0
 10
149.8496954555
 20
174.121146827
 30
0.0
 10
149.8095674647
 20
173.9671839547
 30
0.0
  0
SPLINE
  5
35C
100
AcDbEntity
  8
0
100
AcDbSpline
 62
7
  6
CONTINUOUS
 70
0
 71
3
 72
9
 73
5
 74
0
 42
0.0000001
 43
0.0000001
 44
0.0000000001
 40
0.0
 40
0.0
 40
0.0
 40
0.0
 40
0.2438726878
 40
1.0
 40
1.0
 40
1.0
 40
1.0
 10
153.8524084754
 20
169.5634927341
 30
0.0
 10
153.813199584
 20
169.7645877786
 30
0.0
 10
153.6490716415
 20
170.5885135278
 30
0.0
 10
153.4714694452
 20
171.4098162191
 30
0.0
 10
153.3265217216
 20
172.0282942111
 30
0.0
  0
SPLINE
  5
35D
100
AcDbEntity
  8
0
100
AcDbSpline
 62
7
  6
CONTINUOUS
 70
0
 71
3
 72
10
 73
6
 74
0
 42
0.0000001
 43
0.0000001
 44
0.0000000001
 40
0.0
 40
0.0
 40
0.0
 40
0.0
 40
0.2974413028
 40
0.547137248
 40
1.0
 40
1.0
 40
1.0
 40
1.0
 10
154.3052721141
 20
165.8051631625
 30
0.0
 10
154.3266782939
 20
166.1806088754
 30
0.0
 10
154.294296115
 20
166.8749974208
 30
0.0
 10
154.1220148158
 20
168.1273099548
 30
0.0
 10
153.9619801743
 20
169.0015200579
 30
0.0
 10
153.8524084754
 20
169.5634927341
 30
0.0
  0
SPLINE
  5
35E
100
AcDbEntity
  8
0
100
AcDbSpline
 62
7
  6
CONTINUOUS
 70
0
 71
3
 72
11
 73
7
 74
0
 42
0.0000001
 43
0.0000001
 44
0.0000000001
 40
0.0
 40
0.0
 40
0.0
 40
0.0
 40
0.3475100084
 40
0.6232819319
 40
0.8301451255
 40
1.0
 40
1.0
 40
1.0
 40
1.0
 10
149.0350003142
 20
164.8811822183
 30
0.0
 10
149.2054783457
 20
164.999679267
 30
0.0
 10
149.5171734204
 20
165.2048550118
 30
0.0
 10
149.9753828986
 20
165.4050270997
 30
0.0
 10
150.3626448555
 20
165.4728538016
 30
0.0
 10
150.5889028845
 20
165.4651709423
 30
0.0
 10
150.6897151742
 20
165.4535680876
 30
0.0
  0
SPLINE
  5
35F
100
AcDbEntity
  8
0
100
AcDbSpline
 62
7
  6
CONTINUOUS
 70
0
 71
3
 72
9
 73
5
 74
0
 42
0.0000001
 43
0.0000001
 44
0.0000000001
 40
0.0
 40
0.0
 40
0.0
 40
0.0
 40
0.4482778503
 40
1.0
 40
1.0
 40
1.0
 40
1.0
 10
147.1486207731
 20
163.4504756313
 30
0.0
 10
147.2785110906
 20
163.6160065081
 30
0.0
 10
147.6113801479
 20
163.9528321032
 30
0.0
 10
148.0037399687
 20
164.2140881814
 30
0.0
 10
148.2241467717
 20
164.3500389901
 30
0.0
  0
SPLINE
  5
360
100
AcDbEntity
  8
0
100
AcDbSpline
 62
7
  6
CONTINUOUS
 70
0
 71
3
 72
9
 73
5
 74
0
 42
0.0000001
 43
0.0000001
 44
0.0000000001
 40
0.0
 40
0.0
 40
0.0
 40
0.0
 40
0.4982871822
 40
1.0
 40
1.0
 40
1.0
 40
1.0
 10
136.1414540222
 20
165.7378195063
 30
0.0
 10
136.3041012568
 20
165.5391608185
 30
0.0
 10
136.6484422358
 20
165.1553324253
 30
0.0
 10
137.0034865859
 20
164.782007288
 30
0.0
 10
137.1822159845
 20
164.5952328705
 30
0.0
  0
SPLINE
  5
361
100
AcDbEntity
  8
0
100
AcDbSpline
 62
7
  6
CONTINUOUS
 70
0
 71
3
 72
10
 73
6
 74
0
 42
0.0000001
 43
0.0000001
 44
0.0000000001
 40
0.0
 40
0.0
 40
0.0
 40
0.0
 40
0.2359165378
 40
0.482437164
 40
1.0
 40
1.0
 40
1.0
 40
1.0
 10
150.2194922688
 20
176.3914555192
 30
0.0
 10
150.1896477951
 20
176.2769918379
 30
0.0
 10
150.1370559743
 20
176.0407236736
 30
0.0
 10
150.0484228179
 20
175.5471381276
 30
0.0
 10
149.998859797
 20
175.1670386643
 30
0.0
 10
149.968457143
 20
174.9093155776
 30
0.0
  0
SPLINE
  5
362
100
AcDbEntity
  8
RUNDUNGEN
100
AcDbSpline
 62
7
  6
CONTINUOUS
 70
0
 71
3
 72
18
 73
14
 74
0
 42
0.0000001
 43
0.0000001
 44
0.0000000001
 40
0.0
 40
0.0
 40
0.0
 40
0.0
 40
0.1298624744
 40
0.2601412773
 40
0.3894583929
 40
0.5166325958
 40
0.6409652059
 40
0.7021308665
 40
0.7626190884
 40
0.8225189613
 40
0.8819508118
 40
0.9410583284
 40
1.0
 40
1.0
 40
1.0
 40
1.0
 10
162.1008876441
 20
118.0595879587
 30
0.0
 10
163.6194081532
 20
118.3188062732
 30
0.0
 10
166.6154089756
 20
119.1598312161
 30
0.0
 10
170.7453427771
 20
121.2973576226
 30
0.0
 10
174.3324103074
 20
124.2116090545
 30
0.0
 10
177.185059522
 20
127.7586147481
 30
0.0
 10
178.8281123331
 20
131.1242855661
 30
0.0
 10
179.6219047983
 20
133.9386042227
 30
0.0
 10
179.949520985
 20
136.0730517046
 30
0.0
 10
180.0046494468
 20
138.2112277033
 30
0.0
 10
179.7843790796
 20
140.3226543024
 30
0.0
 10
179.2903332854
 20
142.3753341949
 30
0.0
 10
178.7817898405
 20
143.6854312539
 30
0.0
 10
178.4855874477
 20
144.3187827328
 30
0.0
  0
SPLINE
  5
363
100
AcDbEntity
  8
RUNDUNGEN
100
AcDbSpline
 62
7
  6
CONTINUOUS
 70
0
 71
3
 72
11
 73
7
 74
0
 42
0.0000001
 43
0.0000001
 44
0.0000000001
 40
0.0
 40
0.0
 40
0.0
 40
0.0
 40
0.2470512018
 40
0.4953433084
 40
0.7460016713
 40
1.0
 40
1.0
 40
1.0
 40
1.0
 10
142.2528046166
 20
127.3722785777
 30
0.0
 10
142.6490289023
 20
126.5249405042
 30
0.0
 10
143.5991068227
 20
124.894063302
 30
0.0
 10
145.442055995
 20
122.7348136314
 30
0.0
 10
147.6523041154
 20
120.9125297102
 30
0.0
 10
149.3194157758
 20
119.9579920724
 30
0.0
 10
150.1896996906
 20
119.5487461303
 30
0.0
  0
SPLINE
  5
364
100
AcDbEntity
  8
RUNDUNGEN
100
AcDbSpline
 62
7
  6
CONTINUOUS
 70
0
 71
3
 72
29
 73
25
 74
0
 42
0.0000001
 43
0.0000001
 44
0.0000000001
 40
0.0
 40
0.0
 40
0.0
 40
0.0
 40
0.0296912275
 40
0.0594479617
 40
0.0893160185
 40
0.1193531224
 40
0.1800334168
 40
0.2418556732
 40
0.273273342
 40
0.3050009201
 40
0.3692411267
 40
0.4343786598
 40
0.5000028774
 40
0.5656268853
 40
0.6307638252
 40
0.695003123
 40
0.7267301575
 40
0.7581472724
 40
0.8199684361
 40
0.8806477608
 40
0.9106844948
 40
0.9405522372
 40
0.9703088472
 40
1.0
 40
1.0
 40
1.0
 40
1.0
 10
162.5641070912
 20
178.3537686466
 30
0.0
 10
162.3161069374
 20
178.8839127927
 30
0.0
 10
161.7591849827
 20
179.9183013304
 30
0.0
 10
160.7543409821
 20
181.3682297466
 30
0.0
 10
159.5899214093
 20
182.7029090871
 30
0.0
 10
157.8377177576
 20
184.3150888639
 30
0.0
 10
155.3052638764
 20
185.9805562193
 30
0.0
 10
152.4631215082
 20
187.1018942639
 30
0.0
 10
150.0618988822
 20
187.6658838287
 30
0.0
 10
147.5707805122
 20
188.0069894326
 30
0.0
 10
144.3760708247
 20
187.9971009541
 30
0.0
 10
140.575692658
 20
187.3048562312
 30
0.0
 10
136.9243416166
 20
185.9626398887
 30
0.0
 10
133.5538791977
 20
184.020012664
 30
0.0
 10
130.586856735
 20
181.5464321992
 30
0.0
 10
128.5318058338
 20
179.1004634453
 30
0.0
 10
127.1970893253
 20
176.9696520639
 30
0.0
 10
126.0910963952
 20
174.7649931092
 30
0.0
 10
125.1303186872
 20
171.8646911541
 30
0.0
 10
124.785699606
 20
168.8533706874
 30
0.0
 10
124.9002302732
 20
166.4751219827
 30
0.0
 10
125.1784584158
 20
164.7259009344
 30
0.0
 10
125.6474275726
 20
163.0253022281
 30
0.0
 10
126.0844997399
 20
161.934852645
 30
0.0
 10
126.3324992704
 20
161.4047098314
 30
0.0
  0
SPLINE
  5
365
100
AcDbEntity
  8
FASEN
100
AcDbSpline
 62
7
  6
CONTINUOUS
 70
0
 71
3
 72
10
 73
6
 74
0
 42
0.0000001
 43
0.0000001
 44
0.0000000001
 40
0.0
 40
0.0
 40
0.0
 40
0.0
 40
0.5319130641
 40
0.7669920728
 40
1.0
 40
1.0
 40
1.0
 40
1.0
 10
161.8665928884
 20
118.1495824943
 30
0.0
 10
161.8991928654
 20
118.1169855401
 30
0.0
 10
161.9546864985
 20
118.0755286528
 30
0.0
 10
162.0397895297
 20
118.0545280104
 30
0.0
 10
162.0809341956
 20
118.0562012151
 30
0.0
 10
162.1008400233
 20
118.0596060537
 30
0.0
  0
SPLINE
  5
366
100
AcDbEntity
  8
FASEN
100
AcDbSpline
 62
7
  6
CONTINUOUS
 70
0
 71
3
 72
10
 73
6
 74
0
 42
0.0000001
 43
0.0000001
 44
0.0000000001
 40
0.0
 40
0.0
 40
0.0
 40
0.0
 40
0.5344089392
 40
0.7683487791
 40
1.0
 40
1.0
 40
1.0
 40
1.0
 10
150.888008787
 20
119.4500144349
 30
0.0
 10
150.8318672894
 20
119.4125647443
 30
0.0
 10
150.7404236852
 20
119.368770113
 30
0.0
 10
150.6125301337
 20
119.3653978005
 30
0.0
 10
150.5550190292
 20
119.3819066633
 30
0.0
 10
150.5282941859
 20
119.3938034977
 30
0.0
  0
SPLINE
  5
367
100
AcDbEntity
  8
BEZUGSACHSEN
100
AcDbSpline
 62
9
  6
CONTINUOUS
 70
0
 71
3
 72
15
 73
11
 74
0
 42
0.0000001
 43
0.0000001
 44
0.0000000001
 40
0.0
 40
0.0
 40
0.0
 40
0.0
 40
0.1144302324
 40
0.230330464
 40
0.3504273612
 40
0.4758535267
 40
0.6059187342
 40
0.7385125003
 40
0.8707782088
 40
1.0
 40
1.0
 40
1.0
 40
1.0
 10
134.4262260026
 20
167.3605268502
 30
0.0
 10
134.2844499609
 20
167.5556475098
 30
0.0
 10
134.0644796289
 20
168.0011121601
 30
0.0
 10
133.9790611893
 20
168.7482932313
 30
0.0
 10
134.1407255943
 20
169.5054868266
 30
0.0
 10
134.5303450152
 20
170.2067823751
 30
0.0
 10
135.1113803479
 20
170.7958647018
 30
0.0
 10
135.8347327005
 20
171.2256553882
 30
0.0
 10
136.6399149382
 20
171.4617573664
 30
0.0
 10
137.1987275066
 20
171.4763316341
 30
0.0
 10
137.46931509
 20
171.4452519914
 30
0.0
  0
SPLINE
  5
368
100
AcDbEntity
  8
BEZUGSACHSEN
100
AcDbSpline
 62
7
  6
CONTINUOUS
 70
0
 71
3
 72
9
 73
5
 74
0
 42
0.0000001
 43
0.0000001
 44
0.0000000001
 40
0.0
 40
0.0
 40
0.0
 40
0.0
 40
0.5073395741
 40
1.0
 40
1.0
 40
1.0
 40
1.0
 10
146.7121210781
 20
160.4802478821
 30
0.0
 10
146.959745641
 20
160.8048691366
 30
0.0
 10
147.3898916199
 20
161.4915114343
 30
0.0
 10
147.6767745355
 20
162.2502491
 30
0.0
 10
147.7767809002
 20
162.6339011386
 30
0.0
  0
SPLINE
  5
369
100
AcDbEntity
  8
BEZUGSACHSEN
100
AcDbSpline
 62
7
  6
CONTINUOUS
 70
0
 71
3
 72
23
 73
19
 74
0
 42
0.0000001
 43
0.0000001
 44
0.0000000001
 40
0.0
 40
0.0
 40
0.0
 40
0.0
 40
0.1485747951
 40
0.2931735328
 40
0.4327745711
 40
0.500168338
 40
0.5655184849
 40
0.6283439129
 40
0.6877191677
 40
0.7421269624
 40
0.7667872133
 40
0.7890723626
 40
0.8081218208
 40
0.8250957335
 40
0.866130358
 40
0.8954246214
 40
0.928527168
 40
1.0
 40
1.0
 40
1.0
 40
1.0
 10
146.7121210781
 20
160.4802478821
 30
0.0
 10
146.7298589913
 20
160.5530264392
 30
0.0
 10
146.763077677
 20
160.6970802489
 30
0.0
 10
146.8060560491
 20
160.9110334318
 30
0.0
 10
146.8349814143
 20
161.0859811396
 30
0.0
 10
146.8525192242
 20
161.2221841576
 30
0.0
 10
146.8622445899
 20
161.3203210906
 30
0.0
 10
146.868137806
 20
161.4147326846
 30
0.0
 10
146.8690718943
 20
161.5038028725
 30
0.0
 10
146.8644234724
 20
161.5736185651
 30
0.0
 10
146.8550411865
 20
161.6239446374
 30
0.0
 10
146.8451983102
 20
161.6557887831
 30
0.0
 10
146.8303225347
 20
161.6818585189
 30
0.0
 10
146.7951422247
 20
161.7033997606
 30
0.0
 10
146.7478329531
 20
161.6848716104
 30
0.0
 10
146.7082917082
 20
161.6525925805
 30
0.0
 10
146.6593265436
 20
161.6054642484
 30
0.0
 10
146.6251274899
 20
161.5654241899
 30
0.0
 10
146.6022069584
 20
161.5376177009
 30
0.0
  0
SPLINE
  5
36A
100
AcDbEntity
  8
BEZUGSACHSEN
100
AcDbSpline
 62
9
  6
CONTINUOUS
 70
0
 71
3
 72
15
 73
11
 74
0
 42
0.0000001
 43
0.0000001
 44
0.0000000001
 40
0.0
 40
0.0
 40
0.0
 40
0.0
 40
0.2231712476
 40
0.4530889976
 40
0.5727369464
 40
0.6987091122
 40
0.7659067054
 40
0.8380045137
 40
0.9171026533
 40
1.0
 40
1.0
 40
1.0
 40
1.0
 10
144.7054977201
 20
176.1852289018
 30
0.0
 10
144.3828523343
 20
176.5153726072
 30
0.0
 10
143.7224073422
 20
177.180370143
 30
0.0
 10
142.8632562594
 20
177.9966676623
 30
0.0
 10
142.1221733054
 20
178.6436702601
 30
0.0
 10
141.6141242224
 20
179.045299118
 30
0.0
 10
141.1615901893
 20
179.356070168
 30
0.0
 10
140.7714798648
 20
179.5849725482
 30
0.0
 10
140.3269447152
 20
179.7811090552
 30
0.0
 10
139.9987682294
 20
179.8603159627
 30
0.0
 10
139.8289534572
 20
179.8840858951
 30
0.0
  0
SPLINE
  5
36B
100
AcDbEntity
  8
BEZUGSACHSEN
100
AcDbSpline
 62
9
  6
CONTINUOUS
 70
0
 71
3
 72
10
 73
6
 74
0
 42
0.0000001
 43
0.0000001
 44
0.0000000001
 40
0.0
 40
0.0
 40
0.0
 40
0.0
 40
0.2621238731
 40
0.5228137278
 40
1.0
 40
1.0
 40
1.0
 40
1.0
 10
135.6941176797
 20
164.0217137339
 30
0.0
 10
135.8075748315
 20
164.0058324958
 30
0.0
 10
136.0321567854
 20
163.9596694636
 30
0.0
 10
136.4463355933
 20
163.81722081
 30
0.0
 10
136.7333491018
 20
163.6662431665
 30
0.0
 10
136.9120100223
 20
163.5586481634
 30
0.0
  0
SPLINE
  5
36C
100
AcDbEntity
  8
BEZUGSACHSEN
100
AcDbSpline
 62
9
  6
CONTINUOUS
 70
0
 71
3
 72
14
 73
10
 74
0
 42
0.0000001
 43
0.0000001
 44
0.0000000001
 40
0.0
 40
0.0
 40
0.0
 40
0.0
 40
0.1574690633
 40
0.3103755983
 40
0.4449711546
 40
0.5652763781
 40
0.6780851331
 40
0.7871372773
 40
1.0
 40
1.0
 40
1.0
 40
1.0
 10
148.3998804258
 20
173.7827017974
 30
0.0
 10
148.1648721931
 20
173.8096948022
 30
0.0
 10
147.7051799175
 20
173.9030451397
 30
0.0
 10
147.0808423781
 20
174.1520522193
 30
0.0
 10
146.557542613
 20
174.4748873071
 30
0.0
 10
146.1237700045
 20
174.8178677585
 30
0.0
 10
145.7409106878
 20
175.1610591673
 30
0.0
 10
145.2691421466
 20
175.6127060727
 30
0.0
 10
144.9289950852
 20
175.9565374297
 30
0.0
 10
144.7054977201
 20
176.1852289018
 30
0.0
  0
SPLINE
  5
36D
100
AcDbEntity
  8
BEZUGSACHSEN
100
AcDbSpline
 62
9
  6
CONTINUOUS
 70
0
 71
3
 72
14
 73
10
 74
0
 42
0.0000001
 43
0.0000001
 44
0.0000000001
 40
0.0
 40
0.0
 40
0.0
 40
0.0
 40
0.2067098118
 40
0.2877511323
 40
0.3573426253
 40
0.4774823192
 40
0.5866430092
 40
0.7948119095
 40
1.0
 40
1.0
 40
1.0
 40
1.0
 10
151.9116372293
 20
178.4962709393
 30
0.0
 10
151.7529478248
 20
178.5104108677
 30
0.0
 10
151.5263390099
 20
178.5100598913
 30
0.0
 10
151.2610466797
 20
178.4304069436
 30
0.0
 10
151.0747691976
 20
178.3340457131
 30
0.0
 10
150.8984541387
 20
178.1808758487
 30
0.0
 10
150.6988162315
 20
177.9072532596
 30
0.0
 10
150.5310246896
 20
177.5377977378
 30
0.0
 10
150.4387503682
 20
177.2325874273
 30
0.0
 10
150.3988597097
 20
177.0795558428
 30
0.0
  0
SPLINE
  5
36E
100
AcDbEntity
  8
BEZUGSACHSEN
100
AcDbSpline
 62
9
  6
CONTINUOUS
 70
0
 71
3
 72
11
 73
7
 74
0
 42
0.0000001
 43
0.0000001
 44
0.0000000001
 40
0.0
 40
0.0
 40
0.0
 40
0.0
 40
0.1885851846
 40
0.4081945216
 40
0.6771922662
 40
1.0
 40
1.0
 40
1.0
 40
1.0
 10
146.8784216769
 20
162.4138917528
 30
0.0
 10
146.9244279675
 20
162.4518860682
 30
0.0
 10
147.0316302959
 20
162.5254975818
 30
0.0
 10
147.2315936621
 20
162.6072861262
 30
0.0
 10
147.487002224
 20
162.6485894127
 30
0.0
 10
147.6750705119
 20
162.6429634552
 30
0.0
 10
147.7768014518
 20
162.6338987781
 30
0.0
  0
SPLINE
  5
36F
100
AcDbEntity
  8
BEZUGSACHSEN
100
AcDbSpline
 62
9
  6
CONTINUOUS
 70
0
 71
3
 72
17
 73
13
 74
0
 42
0.0000001
 43
0.0000001
 44
0.0000000001
 40
0.0
 40
0.0
 40
0.0
 40
0.0
 40
0.1243111895
 40
0.2542624525
 40
0.3871641296
 40
0.5191322856
 40
0.6466558853
 40
0.7680066705
 40
0.8268406224
 40
0.8847611209
 40
0.942291811
 40
1.0
 40
1.0
 40
1.0
 40
1.0
 10
144.7054977201
 20
176.1852289018
 30
0.0
 10
144.7823748118
 20
176.4801506608
 30
0.0
 10
145.0522307052
 20
177.0578990932
 30
0.0
 10
145.7151974432
 20
177.7568877655
 30
0.0
 10
146.5697791795
 20
178.2409134572
 30
0.0
 10
147.5222161394
 20
178.455885328
 30
0.0
 10
148.4681963463
 20
178.3768827709
 30
0.0
 10
149.1728532126
 20
178.0611689863
 30
0.0
 10
149.619863353
 20
177.6807910203
 30
0.0
 10
149.8876274743
 20
177.3441160133
 30
0.0
 10
150.0820215271
 20
176.9636561007
 30
0.0
 10
150.1586013247
 20
176.6894238449
 30
0.0
 10
150.1831883652
 20
176.5500919652
 30
0.0
  0
SPLINE
  5
370
100
AcDbEntity
  8
0
100
AcDbSpline
 62
7
  6
CONTINUOUS
 70
0
 71
3
 72
12
 73
8
 74
0
 42
0.0000001
 43
0.0000001
 44
0.0000000001
 40
0.0
 40
0.0
 40
0.0
 40
0.0
 40
0.2204146885
 40
0.455419629
 40
0.5822056331
 40
0.7184540919
 40
1.0
 40
1.0
 40
1.0
 40
1.0
 10
153.3265217216
 20
172.0282942111
 30
0.0
 10
153.2542893537
 20
172.3365027756
 30
0.0
 10
153.0994262804
 20
172.9720347455
 30
0.0
 10
152.8819416539
 20
173.7795134778
 30
0.0
 10
152.6736509423
 20
174.4640693815
 30
0.0
 10
152.4204966272
 20
175.203480535
 30
0.0
 10
152.1743345759
 20
175.7567315105
 30
0.0
 10
151.9591192008
 20
176.0990565296
 30
0.0
  0
SPLINE
  5
371
100
AcDbEntity
  8
BEZUGSACHSEN
100
AcDbSpline
 62
9
  6
CONTINUOUS
 70
0
 71
3
 72
13
 73
9
 74
0
 42
0.0000001
 43
0.0000001
 44
0.0000000001
 40
0.0
 40
0.0
 40
0.0
 40
0.0
 40
0.2259484868
 40
0.4080234535
 40
0.5476369079
 40
0.6579842208
 40
0.8369234105
 40
1.0
 40
1.0
 40
1.0
 40
1.0
 10
150.8834049823
 20
164.6688747797
 30
0.0
 10
150.9059179165
 20
164.7485989205
 30
0.0
 10
150.9523976472
 20
164.8911481572
 30
0.0
 10
151.0404801449
 20
165.0725956348
 30
0.0
 10
151.1368611873
 20
165.1999361444
 30
0.0
 10
151.2596135336
 20
165.3005425237
 30
0.0
 10
151.42095802
 20
165.3573526387
 30
0.0
 10
151.5479543132
 20
165.3549737392
 30
0.0
 10
151.6073542371
 20
165.3481510743
 30
0.0
  0
SPLINE
  5
372
100
AcDbEntity
  8
BEZUGSACHSEN
100
AcDbSpline
 62
9
  6
CONTINUOUS
 70
0
 71
3
 72
11
 73
7
 74
0
 42
0.0000001
 43
0.0000001
 44
0.0000000001
 40
0.0
 40
0.0
 40
0.0
 40
0.0
 40
0.3198831059
 40
0.5985002569
 40
0.8251290554
 40
1.0
 40
1.0
 40
1.0
 40
1.0
 10
137.7898414408
 20
166.8327196896
 30
0.0
 10
137.7637671998
 20
166.7326916989
 30
0.0
 10
137.7093155486
 20
166.5469084349
 30
0.0
 10
137.611627237
 20
166.2982322467
 30
0.0
 10
137.50541342
 20
166.1049945952
 30
0.0
 10
137.4208922817
 20
166.0045118153
 30
0.0
 10
137.3781096808
 20
165.9675930371
 30
0.0
  0
SPLINE
  5
373
100
AcDbEntity
  8
BEZUGSACHSEN
100
AcDbSpline
 62
9
  6
CONTINUOUS
 70
0
 71
3
 72
13
 73
9
 74
0
 42
0.0000001
 43
0.0000001
 44
0.0000000001
 40
0.0
 40
0.0
 40
0.0
 40
0.0
 40
0.1630765895
 40
0.3420157792
 40
0.4523630921
 40
0.5919765465
 40
0.7740515132
 40
1.0
 40
1.0
 40
1.0
 40
1.0
 10
134.5221120446
 20
167.3105590199
 30
0.0
 10
134.4627121207
 20
167.3173816848
 30
0.0
 10
134.3357158275
 20
167.3197605843
 30
0.0
 10
134.1743713411
 20
167.2629504693
 30
0.0
 10
134.0516189948
 20
167.16234409
 30
0.0
 10
133.9552379523
 20
167.0350035805
 30
0.0
 10
133.8671554547
 20
166.8535561028
 30
0.0
 10
133.820675724
 20
166.7110068661
 30
0.0
 10
133.7981627897
 20
166.6312827253
 30
0.0
  0
SPLINE
  5
374
100
AcDbEntity
  8
0
100
AcDbSpline
 62
7
  6
CONTINUOUS
 70
0
 71
3
 72
15
 73
11
 74
0
 42
0.0000001
 43
0.0000001
 44
0.0000000001
 40
0.0
 40
0.0
 40
0.0
 40
0.0
 40
0.0499548181
 40
0.092753325
 40
0.1389239684
 40
0.2079447671
 40
0.3196507396
 40
0.4895994415
 40
0.7207490429
 40
1.0
 40
1.0
 40
1.0
 40
1.0
 10
135.4397535509
 20
167.2051772291
 30
0.0
 10
135.4242061653
 20
167.2069707703
 30
0.0
 10
135.3949140457
 20
167.2080577434
 30
0.0
 10
135.3518158446
 20
167.1921181059
 30
0.0
 10
135.325662072
 20
167.1461052837
 30
0.0
 10
135.3269945529
 20
167.0733259933
 30
0.0
 10
135.3546889163
 20
166.9667659123
 30
0.0
 10
135.4172118237
 20
166.8182480316
 30
0.0
 10
135.5165366427
 20
166.6295519696
 30
0.0
 10
135.599549104
 20
166.4927541073
 30
0.0
 10
135.6465674578
 20
166.4189752867
 30
0.0
  0
SPLINE
  5
375
100
AcDbEntity
  8
BEZUGSACHSEN
100
AcDbSpline
 62
9
  6
CONTINUOUS
 70
0
 71
3
 72
13
 73
9
 74
0
 42
0.0000001
 43
0.0000001
 44
0.0000000001
 40
0.0
 40
0.0
 40
0.0
 40
0.0
 40
0.2162814318
 40
0.3839532126
 40
0.5643703863
 40
0.664777616
 40
0.774612466
 40
1.0
 40
1.0
 40
1.0
 40
1.0
 10
137.4693150896
 20
171.4452519899
 30
0.0
 10
137.5399189675
 20
171.1162051012
 30
0.0
 10
137.662884181
 20
170.5315114795
 30
0.0
 10
137.8262762895
 20
169.668682734
 30
0.0
 10
137.9272854416
 20
168.9774834179
 30
0.0
 10
137.9670135091
 20
168.3703630477
 30
0.0
 10
137.9574038818
 20
167.6921131052
 30
0.0
 10
137.8783036316
 20
167.1720850884
 30
0.0
 10
137.7898414408
 20
166.8327196896
 30
0.0
  0
SPLINE
  5
376
100
AcDbEntity
  8
BEZUGSACHSEN
100
AcDbSpline
 62
9
  6
CONTINUOUS
 70
0
 71
3
 72
9
 73
5
 74
0
 42
0.0000001
 43
0.0000001
 44
0.0000000001
 40
0.0
 40
0.0
 40
0.0
 40
0.0
 40
0.5338842515
 40
1.0
 40
1.0
 40
1.0
 40
1.0
 10
155.047392045
 20
166.1991006761
 30
0.0
 10
155.052935401
 20
166.79064528
 30
0.0
 10
154.890370981
 20
167.8955400326
 30
0.0
 10
154.6629124714
 20
168.9778584972
 30
0.0
 10
154.5545572821
 20
169.4828440443
 30
0.0
  0
SPLINE
  5
377
100
AcDbEntity
  8
BEZUGSACHSEN
100
AcDbSpline
 62
9
  6
CONTINUOUS
 70
0
 71
3
 72
15
 73
11
 74
0
 42
0.0000001
 43
0.0000001
 44
0.0000000001
 40
0.0
 40
0.0
 40
0.0
 40
0.0
 40
0.078403899
 40
0.1561329738
 40
0.2281702692
 40
0.2957324698
 40
0.4227545328
 40
0.5434655188
 40
0.7752668174
 40
1.0
 40
1.0
 40
1.0
 40
1.0
 10
136.722318771
 20
177.8491527759
 30
0.0
 10
136.6827372072
 20
177.6843500057
 30
0.0
 10
136.6291929428
 20
177.3497383377
 30
0.0
 10
136.6115047382
 20
176.8560895486
 30
0.0
 10
136.6301211465
 20
176.3863940431
 30
0.0
 10
136.6795012134
 20
175.8120271144
 30
0.0
 10
136.767245867
 20
175.1358572181
 30
0.0
 10
136.9327890091
 20
174.1124663913
 30
0.0
 10
137.165371377
 20
172.886286534
 30
0.0
 10
137.3673929479
 20
171.9202565456
 30
0.0
 10
137.4693150896
 20
171.4452519899
 30
0.0
  0
SPLINE
  5
378
100
AcDbEntity
  8
BEZUGSACHSEN
100
AcDbSpline
 62
9
  6
CONTINUOUS
 70
0
 71
3
 72
15
 73
11
 74
0
 42
0.0000001
 43
0.0000001
 44
0.0000000001
 40
0.0
 40
0.0
 40
0.0
 40
0.0
 40
0.2247331826
 40
0.4565344812
 40
0.5772454672
 40
0.7042675302
 40
0.7718297308
 40
0.8438670262
 40
0.921596101
 40
1.0
 40
1.0
 40
1.0
 40
1.0
 10
154.5545572821
 20
169.4828440443
 30
0.0
 10
154.4526351404
 20
169.9578486
 30
0.0
 10
154.2506135695
 20
170.9238785884
 30
0.0
 10
154.0180312016
 20
172.1500584457
 30
0.0
 10
153.8524880595
 20
173.1734492725
 30
0.0
 10
153.7647434059
 20
173.8496191688
 30
0.0
 10
153.715363339
 20
174.4239860975
 30
0.0
 10
153.6967469307
 20
174.893681603
 30
0.0
 10
153.7144351353
 20
175.3873303921
 30
0.0
 10
153.7679793997
 20
175.7219420601
 30
0.0
 10
153.8075609635
 20
175.8867448303
 30
0.0
  0
SPLINE
  5
379
100
AcDbEntity
  8
FASEN
100
AcDbSpline
 62
7
  6
CONTINUOUS
 70
0
 71
3
 72
9
 73
5
 74
0
 42
0.0000001
 43
0.0000001
 44
0.0000000001
 40
0.0
 40
0.0
 40
0.0
 40
0.0
 40
0.2845575318
 40
1.0
 40
1.0
 40
1.0
 40
1.0
 10
161.7133421891
 20
118.3833160988
 30
0.0
 10
161.7245686271
 20
118.3592263679
 30
0.0
 10
161.7665041561
 20
118.2759325109
 30
0.0
 10
161.8193410031
 20
118.1968299981
 30
0.0
 10
161.8665928884
 20
118.1495824943
 30
0.0
  0
SPLINE
  5
37A
100
AcDbEntity
  8
FASEN
100
AcDbSpline
 62
9
  6
CONTINUOUS
 70
0
 71
3
 72
18
 73
14
 74
0
 42
0.0000001
 43
0.0000001
 44
0.0000000001
 40
0.0
 40
0.0
 40
0.0
 40
0.0
 40
0.1318404453
 40
0.2643002262
 40
0.3955254468
 40
0.5238733017
 40
0.648245546
 40
0.7089244069
 40
0.7685787948
 40
0.8273213694
 40
0.8853214005
 40
0.9427965886
 40
1.0
 40
1.0
 40
1.0
 40
1.0
 10
161.7133421891
 20
118.3833160988
 30
0.0
 10
163.2517720873
 20
118.6387895354
 30
0.0
 10
166.2907747318
 20
119.4761130628
 30
0.0
 10
170.4864612725
 20
121.613626516
 30
0.0
 10
174.1353747041
 20
124.5293126636
 30
0.0
 10
177.0370542472
 20
128.0671804445
 30
0.0
 10
178.7142403164
 20
131.4138078153
 30
0.0
 10
179.5280606333
 20
134.1980211992
 30
0.0
 10
179.8685526686
 20
136.2945377037
 30
0.0
 10
179.9381275715
 20
138.3857120387
 30
0.0
 10
179.7354700752
 20
140.4426967958
 30
0.0
 10
179.2632746915
 20
142.4360423811
 30
0.0
 10
178.7722366255
 20
143.7059114403
 30
0.0
 10
178.4855524293
 20
144.3188181245
 30
0.0
  0
SPLINE
  5
37B
100
AcDbEntity
  8
BEZUGSACHSEN
100
AcDbSpline
 62
7
  6
CONTINUOUS
 70
0
 71
3
 72
23
 73
19
 74
0
 42
0.0000001
 43
0.0000001
 44
0.0000000001
 40
0.0
 40
0.0
 40
0.0
 40
0.0
 40
0.0631987874
 40
0.1245864309
 40
0.1842969382
 40
0.2427416027
 40
0.3005562123
 40
0.3584936386
 40
0.4172836345
 40
0.4774993422
 40
0.539466415
 40
0.6032288219
 40
0.6685644495
 40
0.7350347121
 40
0.8020535845
 40
0.8689662125
 40
0.9351307954
 40
1.0
 40
1.0
 40
1.0
 40
1.0
 10
153.8071426777
 20
175.8867928745
 30
0.0
 10
154.1965650089
 20
175.8420638933
 30
0.0
 10
154.958413391
 20
175.6833205649
 30
0.0
 10
156.0175396705
 20
175.2338633231
 30
0.0
 10
156.9378788886
 20
174.5918013072
 30
0.0
 10
157.6819551997
 20
173.7809151051
 30
0.0
 10
158.2192499069
 20
172.8326604541
 30
0.0
 10
158.5276963349
 20
171.785162244
 30
0.0
 10
158.5955601518
 20
170.6808283212
 30
0.0
 10
158.4216396312
 20
169.5635467758
 30
0.0
 10
158.0144088589
 20
168.4764697827
 30
0.0
 10
157.3908818726
 20
167.4606097436
 30
0.0
 10
156.5756551689
 20
166.5538054716
 30
0.0
 10
155.5999991065
 20
165.7897086864
 30
0.0
 10
154.500900357
 20
165.196726665
 30
0.0
 10
153.3195720295
 20
164.797082776
 30
0.0
 10
152.1009245336
 20
164.6059136676
 30
0.0
 10
151.2831201975
 20
164.6229635596
 30
0.0
 10
150.8834049823
 20
164.6688747797
 30
0.0
  0
SPLINE
  5
37C
100
AcDbEntity
  8
0
100
AcDbSpline
 62
7
  6
CONTINUOUS
 70
0
 71
3
 72
13
 73
9
 74
0
 42
0.0000001
 43
0.0000001
 44
0.0000000001
 40
0.0
 40
0.0
 40
0.0
 40
0.0
 40
0.3944498181
 40
0.5518144498
 40
0.6784466247
 40
0.7779754415
 40
0.8588479849
 40
1.0
 40
1.0
 40
1.0
 40
1.0
 10
138.4882103612
 20
166.752505157
 30
0.0
 10
138.4460530437
 20
166.5907780421
 30
0.0
 10
138.3815366286
 20
166.3652964657
 30
0.0
 10
138.2686403518
 20
166.1004381661
 30
0.0
 10
138.1859988254
 20
165.9597449986
 30
0.0
 10
138.098430664
 20
165.8618460054
 30
0.0
 10
137.9811101172
 20
165.7883925324
 30
0.0
 10
137.881873363
 20
165.7802417284
 30
0.0
 10
137.822461569
 20
165.7871074086
 30
0.0
  0
SPLINE
  5
37D
100
AcDbEntity
  8
0
100
AcDbSpline
 62
7
  6
CONTINUOUS
 70
0
 71
3
 72
13
 73
9
 74
0
 42
0.0000001
 43
0.0000001
 44
0.0000000001
 40
0.0
 40
0.0
 40
0.0
 40
0.0
 40
0.2173038399
 40
0.3287120206
 40
0.4438143306
 40
0.5660241127
 40
0.7013030953
 40
1.0
 40
1.0
 40
1.0
 40
1.0
 10
138.1714638963
 20
171.3646033001
 30
0.0
 10
138.2487114836
 20
171.0345909267
 30
0.0
 10
138.3654123113
 20
170.5353323409
 30
0.0
 10
138.5109968201
 20
169.8585531518
 30
0.0
 10
138.6118301122
 20
169.3239842619
 30
0.0
 10
138.689918623
 20
168.7475970187
 30
0.0
 10
138.7211626085
 20
167.8787148361
 30
0.0
 10
138.6057249325
 20
167.203323512
 30
0.0
 10
138.4882103612
 20
166.752505157
 30
0.0
  0
SPLINE
  5
37E
100
AcDbEntity
  8
0
100
AcDbSpline
 62
7
  6
CONTINUOUS
 70
0
 71
3
 72
17
 73
13
 74
0
 42
0.0000001
 43
0.0000001
 44
0.0000000001
 40
0.0
 40
0.0
 40
0.0
 40
0.0
 40
0.0806500857
 40
0.1582380189
 40
0.2298317548
 40
0.2965399716
 40
0.3601043093
 40
0.4216870653
 40
0.5411119236
 40
0.6577301027
 40
0.7727342414
 40
1.0
 40
1.0
 40
1.0
 40
1.0
 10
138.5707605337
 20
177.6368410767
 30
0.0
 10
138.4292056439
 20
177.5294793081
 30
0.0
 10
138.1704641238
 20
177.2904591437
 30
0.0
 10
137.8941586479
 20
176.8597662756
 30
0.0
 10
137.7337119426
 20
176.4090118382
 30
0.0
 10
137.6497477144
 20
175.9712524073
 30
0.0
 10
137.6129238838
 20
175.5497356279
 30
0.0
 10
137.6031958456
 20
175.0107573817
 30
0.0
 10
137.6426530142
 20
174.3554688723
 30
0.0
 10
137.7355592293
 20
173.5875183927
 30
0.0
 10
137.8995489767
 20
172.5897964706
 30
0.0
 10
138.0573603896
 20
171.8520692575
 30
0.0
 10
138.1714638963
 20
171.3646033001
 30
0.0
  0
SPLINE
  5
37F
100
AcDbEntity
  8
0
100
AcDbSpline
 62
7
  6
CONTINUOUS
 70
0
 71
3
 72
20
 73
16
 74
0
 42
0.0000001
 43
0.0000001
 44
0.0000000001
 40
0.0
 40
0.0
 40
0.0
 40
0.0
 40
0.1147746642
 40
0.1722313171
 40
0.2297609386
 40
0.3162717336
 40
0.4031785008
 40
0.4908170257
 40
0.5796751366
 40
0.6709730084
 40
0.7673415132
 40
0.8194491458
 40
0.8757135995
 40
0.936441754
 40
1.0
 40
1.0
 40
1.0
 40
1.0
 10
144.5355691948
 20
175.5333361415
 30
0.0
 10
144.3722471153
 20
175.7061596679
 30
0.0
 10
144.1247310649
 20
175.9632449832
 30
0.0
 10
143.7869486807
 20
176.2986616882
 30
0.0
 10
143.4862202335
 20
176.5882227302
 30
0.0
 10
143.1339734152
 20
176.9121292125
 30
0.0
 10
142.7241986257
 20
177.265332857
 30
0.0
 10
142.2947515268
 20
177.6023687286
 30
0.0
 10
141.8384740056
 20
177.9190027169
 30
0.0
 10
141.3383139627
 20
178.2001992532
 30
0.0
 10
140.869850979
 20
178.377458297
 30
0.0
 10
140.4491210176
 20
178.4442757392
 30
0.0
 10
140.0964069961
 20
178.4338921
 30
0.0
 10
139.7307996325
 20
178.3425523367
 30
0.0
 10
139.4964840984
 20
178.2323583264
 30
0.0
 10
139.3816171147
 20
178.1679801227
 30
0.0
  0
SPLINE
  5
380
100
AcDbEntity
  8
0
100
AcDbSpline
 62
7
  6
CONTINUOUS
 70
0
 71
3
 72
14
 73
10
 74
0
 42
0.0000001
 43
0.0000001
 44
0.0000000001
 40
0.0
 40
0.0
 40
0.0
 40
0.0
 40
0.157400964
 40
0.3092911715
 40
0.4426797358
 40
0.5626483168
 40
0.6758552035
 40
0.7856327797
 40
1.0
 40
1.0
 40
1.0
 40
1.0
 10
148.230866679
 20
173.1343183799
 30
0.0
 10
147.9950921156
 20
173.1613994053
 30
0.0
 10
147.5342744789
 20
173.2436088838
 30
0.0
 10
146.9012602035
 20
173.4677758408
 30
0.0
 10
146.3730039358
 20
173.7810389611
 30
0.0
 10
145.9408025758
 20
174.126946114
 30
0.0
 10
145.561329918
 20
174.4784908474
 30
0.0
 10
145.0942865587
 20
174.9441132856
 30
0.0
 10
144.7575692174
 20
175.2984210163
 30
0.0
 10
144.5355691948
 20
175.5333361415
 30
0.0
  0
SPLINE
  5
381
100
AcDbEntity
  8
BEZUGSACHSEN
100
AcDbSpline
 62
9
  6
CONTINUOUS
 70
0
 71
3
 72
11
 73
7
 74
0
 42
0.0000001
 43
0.0000001
 44
0.0000000001
 40
0.0
 40
0.0
 40
0.0
 40
0.0
 40
0.2416584395
 40
0.4855771766
 40
0.7373993715
 40
1.0
 40
1.0
 40
1.0
 40
1.0
 10
156.6388454631
 20
167.7352236181
 30
0.0
 10
156.5878987097
 20
167.962704817
 30
0.0
 10
156.408808906
 20
168.4065247265
 30
0.0
 10
155.9330315797
 20
168.9517711405
 30
0.0
 10
155.2949753733
 20
169.3317654545
 30
0.0
 10
154.8062210104
 20
169.4539379938
 30
0.0
 10
154.5545572825
 20
169.4828440458
 30
0.0
  0
SPLINE
  5
382
100
AcDbEntity
  8
0
100
AcDbSpline
 62
7
  6
CONTINUOUS
 70
0
 71
3
 72
18
 73
14
 74
0
 42
0.0000001
 43
0.0000001
 44
0.0000000001
 40
0.0
 40
0.0
 40
0.0
 40
0.0
 40
0.1264451028
 40
0.2359299673
 40
0.3241098747
 40
0.3921632611
 40
0.4461045349
 40
0.4928161543
 40
0.5814677047
 40
0.6756833777
 40
0.7775226938
 40
0.8860419394
 40
1.0
 40
1.0
 40
1.0
 40
1.0
 10
151.4642919094
 20
176.7801307273
 30
0.0
 10
151.4120351424
 20
176.8423967737
 30
0.0
 10
151.3104037428
 20
176.9552663081
 30
0.0
 10
151.1556167485
 20
177.0955011729
 30
0.0
 10
151.0127322413
 20
177.1907294779
 30
0.0
 10
150.8854822569
 20
177.2404024022
 30
0.0
 10
150.7756274687
 20
177.2492346345
 30
0.0
 10
150.6554813012
 20
177.2198485491
 30
0.0
 10
150.5350434341
 20
177.1258547958
 30
0.0
 10
150.4308058315
 20
176.9742527246
 30
0.0
 10
150.3471311783
 20
176.7965821573
 30
0.0
 10
150.2774407705
 20
176.5999032494
 30
0.0
 10
150.2379758778
 20
176.4623464299
 30
0.0
 10
150.2194922688
 20
176.3914555192
 30
0.0
  0
SPLINE
  5
383
100
AcDbEntity
  8
FASEN
100
AcDbSpline
 62
7
  6
CONTINUOUS
 70
0
 71
3
 72
13
 73
9
 74
0
 42
0.0000001
 43
0.0000001
 44
0.0000000001
 40
0.0
 40
0.0
 40
0.0
 40
0.0
 40
0.2752504856
 40
0.5591883678
 40
0.6922894028
 40
0.8128635387
 40
0.9165338292
 40
1.0
 40
1.0
 40
1.0
 40
1.0
 10
145.6889372957
 20
156.5550322705
 30
0.0
 10
145.6177823047
 20
156.1779623671
 30
0.0
 10
145.5186750656
 20
155.4032165739
 30
0.0
 10
145.4833027312
 20
154.4370876669
 30
0.0
 10
145.5184638229
 20
153.6880441834
 30
0.0
 10
145.5749359791
 20
153.1925018732
 30
0.0
 10
145.6603123576
 20
152.7717057662
 30
0.0
 10
145.7428650521
 20
152.5226044562
 30
0.0
 10
145.7923340005
 20
152.4172840663
 30
0.0
  0
SPLINE
  5
384
100
AcDbEntity
  8
FASEN
100
AcDbSpline
 62
9
  6
CONTINUOUS
 70
0
 71
3
 72
24
 73
20
 74
0
 42
0.0000001
 43
0.0000001
 44
0.0000000001
 40
0.0
 40
0.0
 40
0.0
 40
0.0
 40
0.0667429866
 40
0.133720351
 40
0.2002620058
 40
0.2332015511
 40
0.2658087679
 40
0.3297486975
 40
0.3918838793
 40
0.4522229226
 40
0.5110689787
 40
0.5689901774
 40
0.6267289673
 40
0.6850630248
 40
0.7446559696
 40
0.8059410994
 40
0.8690632454
 40
0.9338791134
 40
1.0
 40
1.0
 40
1.0
 40
1.0
 10
145.6889397434
 20
156.5550416606
 30
0.0
 10
146.789123981
 20
156.7828290113
 30
0.0
 10
148.9577870033
 20
157.4341590719
 30
0.0
 10
151.9874399247
 20
158.9469356428
 30
0.0
 10
154.2562414436
 20
160.6178130911
 30
0.0
 10
155.858498761
 20
162.1632342059
 30
0.0
 10
157.287265027
 20
163.8126242197
 30
0.0
 10
158.754040102
 20
166.0653670789
 30
0.0
 10
159.936269477
 20
168.9942407389
 30
0.0
 10
160.4811006874
 20
172.0208266728
 30
0.0
 10
160.3614595755
 20
175.0245960158
 30
0.0
 10
159.5778302792
 20
177.8828627832
 30
0.0
 10
158.1605929517
 20
180.476272089
 30
0.0
 10
156.169635574
 20
182.6971386509
 30
0.0
 10
153.6896312067
 20
184.4563854274
 30
0.0
 10
150.8235560226
 20
185.6870011874
 30
0.0
 10
147.6864380385
 20
186.3445965374
 30
0.0
 10
144.4028887759
 20
186.4074527304
 30
0.0
 10
142.2135958747
 20
186.0546364479
 30
0.0
 10
141.134006872
 20
185.7837887789
 30
0.0
  0
SPLINE
  5
385
100
AcDbEntity
  8
FASEN
100
AcDbSpline
 62
7
  6
CONTINUOUS
 70
0
 71
3
 72
13
 73
9
 74
0
 42
0.0000001
 43
0.0000001
 44
0.0000000001
 40
0.0
 40
0.0
 40
0.0
 40
0.0
 40
0.0830846185
 40
0.1857564314
 40
0.3052339997
 40
0.4374762703
 40
0.7213058362
 40
1.0
 40
1.0
 40
1.0
 40
1.0
 10
134.3434603664
 20
153.7322997
 30
0.0
 10
134.2946245145
 20
153.836963701
 30
0.0
 10
134.2166974162
 20
154.0852542832
 30
0.0
 10
134.1499364207
 20
154.5049679016
 30
0.0
 10
134.1229133802
 20
154.9976460371
 30
0.0
 10
134.1424782143
 20
155.7424449339
 30
0.0
 10
134.2675411615
 20
156.7028451718
 30
0.0
 10
134.4608614426
 20
157.463115228
 30
0.0
 10
134.5835298706
 20
157.8305974351
 30
0.0
  0
SPLINE
  5
386
100
AcDbEntity
  8
FASEN
100
AcDbSpline
 62
9
  6
CONTINUOUS
 70
0
 71
3
 72
11
 73
7
 74
0
 42
0.0000001
 43
0.0000001
 44
0.0000000001
 40
0.0
 40
0.0
 40
0.0
 40
0.0
 40
0.2566006344
 40
0.5077907326
 40
0.7549687659
 40
1.0
 40
1.0
 40
1.0
 40
1.0
 10
134.3434603664
 20
153.7322997
 30
0.0
 10
133.4579444736
 20
154.1240067349
 30
0.0
 10
131.7654194915
 20
155.045213432
 30
0.0
 10
129.5257106596
 20
156.8293768354
 30
0.0
 10
127.6716987358
 20
158.9548147131
 30
0.0
 10
126.7242704848
 20
160.5671842945
 30
0.0
 10
126.3325112719
 20
161.4047154453
 30
0.0
  0
SPLINE
  5
387
100
AcDbEntity
  8
BEZUGSACHSEN
100
AcDbSpline
 62
7
  6
CONTINUOUS
 70
0
 71
3
 72
23
 73
19
 74
0
 42
0.0000001
 43
0.0000001
 44
0.0000000001
 40
0.0
 40
0.0
 40
0.0
 40
0.0
 40
0.0619669769
 40
0.125729659
 40
0.191065602
 40
0.257536086
 40
0.324555095
 40
0.3914677341
 40
0.4576323446
 40
0.522501947
 40
0.5857005737
 40
0.6470873802
 40
0.7067971142
 40
0.7652413016
 40
0.8230558058
 40
0.8809935518
 40
0.9397841325
 40
1.0
 40
1.0
 40
1.0
 40
1.0
 10
139.8289534572
 20
179.8840858951
 30
0.0
 10
139.9259001443
 20
180.2560001655
 30
0.0
 10
140.2015050426
 20
180.9919913578
 30
0.0
 10
140.8249717003
 20
182.0074372868
 30
0.0
 10
141.640255079
 20
182.9143301504
 30
0.0
 10
142.6159214947
 20
183.6783713224
 30
0.0
 10
143.7150653269
 20
184.271327568
 30
0.0
 10
144.8963093751
 20
184.6709483925
 30
0.0
 10
146.1153118468
 20
184.8620370927
 30
0.0
 10
147.3262914284
 20
184.8368885601
 30
0.0
 10
148.4835599587
 20
184.5955623632
 30
0.0
 10
149.5429415076
 20
184.1459453849
 30
0.0
 10
150.4631141125
 20
183.503798408
 30
0.0
 10
151.2071052212
 20
182.6928186642
 30
0.0
 10
151.744280683
 20
181.7445255526
 30
0.0
 10
152.0525797111
 20
180.6968912503
 30
0.0
 10
152.1203882792
 20
179.5929036326
 30
0.0
 10
152.0057430414
 20
178.8572868286
 30
0.0
 10
151.9115359467
 20
178.4958823914
 30
0.0
  0
SPLINE
  5
388
100
AcDbEntity
  8
0
100
AcDbSpline
 62
7
  6
CONTINUOUS
 70
0
 71
3
 72
10
 73
6
 74
0
 42
0.0000001
 43
0.0000001
 44
0.0000000001
 40
0.0
 40
0.0
 40
0.0
 40
0.0
 40
0.2416031937
 40
0.4901655138
 40
1.0
 40
1.0
 40
1.0
 40
1.0
 10
144.9869291311
 20
154.3005624985
 30
0.0
 10
144.6918827405
 20
154.6167445209
 30
0.0
 10
144.113046012
 20
155.2766251244
 30
0.0
 10
142.9780517685
 20
156.6608789166
 30
0.0
 10
142.1510097341
 20
157.7377909264
 30
0.0
 10
141.6024355094
 20
158.4670936382
 30
0.0
  0
SPLINE
  5
389
100
AcDbEntity
  8
FASEN
100
AcDbSpline
 62
9
  6
CONTINUOUS
 70
0
 71
3
 72
11
 73
7
 74
0
 42
0.0000001
 43
0.0000001
 44
0.0000000001
 40
0.0
 40
0.0
 40
0.0
 40
0.0
 40
0.2449635032
 40
0.492331992
 40
0.743640336
 40
1.0
 40
1.0
 40
1.0
 40
1.0
 10
142.6380894987
 20
126.6067809796
 30
0.0
 10
143.0442807234
 20
125.8546651308
 30
0.0
 10
143.9935577593
 20
124.4108045482
 30
0.0
 10
145.7750307352
 20
122.5077766623
 30
0.0
 10
147.8776883505
 20
120.9013931221
 30
0.0
 10
149.4463755521
 20
120.060214322
 30
0.0
 10
150.2644685549
 20
119.6983317324
 30
0.0
  0
SPLINE
  5
38A
100
AcDbEntity
  8
BEZUGSACHSEN
100
AcDbSpline
 62
7
  6
CONTINUOUS
 70
0
 71
3
 72
23
 73
19
 74
0
 42
0.0000001
 43
0.0000001
 44
0.0000000001
 40
0.0
 40
0.0
 40
0.0
 40
0.0
 40
0.0631983705
 40
0.1245853303
 40
0.1842952676
 40
0.2427395501
 40
0.3005540329
 40
0.358491604
 40
0.4172819824
 40
0.477498235
 40
0.5394659176
 40
0.6032288996
 40
0.6685649804
 40
0.735035509
 40
0.8020544229
 40
0.868966854
 40
0.9351310387
 40
1.0
 40
1.0
 40
1.0
 40
1.0
 10
133.7981627897
 20
166.6312827253
 30
0.0
 10
133.4087427944
 20
166.6760114382
 30
0.0
 10
132.6469034897
 20
166.834785553
 30
0.0
 10
131.5878211052
 20
167.2843225434
 30
0.0
 10
130.6675373814
 20
167.9264471457
 30
0.0
 10
129.9235296839
 20
168.737388674
 30
0.0
 10
129.3863127947
 20
169.6856855149
 30
0.0
 10
129.077950327
 20
170.7332116419
 30
0.0
 10
129.010172719
 20
171.8375579598
 30
0.0
 10
129.1841781013
 20
172.9548363636
 30
0.0
 10
129.5914891522
 20
174.041895203
 30
0.0
 10
130.2150889812
 20
175.0577230488
 30
0.0
 10
131.0303785712
 20
175.9644823181
 30
0.0
 10
132.0060853065
 20
176.7285232282
 30
0.0
 10
133.1052208781
 20
177.3214395676
 30
0.0
 10
134.2865703037
 20
177.721013865
 30
0.0
 10
135.5052265559
 20
177.9120997257
 30
0.0
 10
136.3230233182
 20
177.8950157821
 30
0.0
 10
136.722737273
 20
177.8491047068
 30
0.0
  0
SPLINE
  5
38B
100
AcDbEntity
  8
FASEN
100
AcDbSpline
 62
9
  6
CONTINUOUS
 70
0
 71
3
 72
18
 73
14
 74
0
 42
0.0000001
 43
0.0000001
 44
0.0000000001
 40
0.0
 40
0.0
 40
0.0
 40
0.0
 40
0.057203508
 40
0.114678671
 40
0.1726785855
 40
0.2314209859
 40
0.2910751757
 40
0.3517538453
 40
0.4761258025
 40
0.6044736075
 40
0.7356990211
 40
0.8681591589
 40
1.0
 40
1.0
 40
1.0
 40
1.0
 10
162.5640886483
 20
178.3537600186
 30
0.0
 10
162.850826345
 20
177.740854582
 30
0.0
 10
163.341968926
 20
176.4709806549
 30
0.0
 10
163.8143082271
 20
174.4776057547
 30
0.0
 10
164.0170937328
 20
172.4205742375
 30
0.0
 10
163.947628959
 20
170.3293384155
 30
0.0
 10
163.6072278293
 20
168.2327485333
 30
0.0
 10
162.7935024391
 20
165.448424058
 30
0.0
 10
161.116380856
 20
162.1016416691
 30
0.0
 10
158.2147006781
 20
158.5635947782
 30
0.0
 10
154.5657199893
 20
155.6477539061
 30
0.0
 10
150.3699165508
 20
153.5101280125
 30
0.0
 10
147.3308148906
 20
152.6727659708
 30
0.0
 10
145.7923340005
 20
152.4172840663
 30
0.0
  0
SPLINE
  5
38C
100
AcDbEntity
  8
BEZUGSACHSEN
100
AcDbSpline
 62
7
  6
CONTINUOUS
 70
0
 71
3
 72
9
 73
5
 74
0
 42
0.0000001
 43
0.0000001
 44
0.0000000001
 40
0.0
 40
0.0
 40
0.0
 40
0.0
 40
0.5061155767
 40
1.0
 40
1.0
 40
1.0
 40
1.0
 10
135.6941176797
 20
164.0217137339
 30
0.0
 10
135.5970237175
 20
163.6492344757
 30
0.0
 10
135.4810991443
 20
162.8908582479
 30
0.0
 10
135.536280086
 20
162.1247740362
 30
0.0
 10
135.6067136529
 20
161.7558130467
 30
0.0
  0
SPLINE
  5
38D
100
AcDbEntity
  8
BEZUGSACHSEN
100
AcDbSpline
 62
7
  6
CONTINUOUS
 70
0
 71
3
 72
9
 73
5
 74
0
 42
0.0000001
 43
0.0000001
 44
0.0000000001
 40
0.0
 40
0.0
 40
0.0
 40
0.0
 40
0.263429077
 40
1.0
 40
1.0
 40
1.0
 40
1.0
 10
136.9120100223
 20
163.5586481634
 30
0.0
 10
136.891654565
 20
163.4805590066
 30
0.0
 10
136.8106559784
 20
163.1850986595
 30
0.0
 10
136.7140144274
 20
162.8940122838
 30
0.0
 10
136.6358156794
 20
162.6823556692
 30
0.0
  0
SPLINE
  5
38E
100
AcDbEntity
  8
BEZUGSACHSEN
100
AcDbSpline
 62
9
  6
CONTINUOUS
 70
0
 71
3
 72
9
 73
5
 74
0
 42
0.0000001
 43
0.0000001
 44
0.0000000001
 40
0.0
 40
0.0
 40
0.0
 40
0.0
 40
0.2474766179
 40
1.0
 40
1.0
 40
1.0
 40
1.0
 10
149.8918390242
 20
174.3616120985
 30
0.0
 10
149.8855194841
 20
174.3469083865
 30
0.0
 10
149.8590007208
 20
174.2879328124
 30
0.0
 10
149.8281999344
 20
174.2307876766
 30
0.0
 10
149.8019485457
 20
174.1898097259
 30
0.0
  0
SPLINE
  5
38F
100
AcDbEntity
  8
BEZUGSACHSEN
100
AcDbSpline
 62
9
  6
CONTINUOUS
 70
0
 71
3
 72
12
 73
8
 74
0
 42
0.0000001
 43
0.0000001
 44
0.0000000001
 40
0.0
 40
0.0
 40
0.0
 40
0.0
 40
0.1716116981
 40
0.3812372456
 40
0.5109835928
 40
0.659093094
 40
1.0
 40
1.0
 40
1.0
 40
1.0
 10
149.8019485457
 20
174.1898097259
 30
0.0
 10
149.7544805155
 20
174.1157129752
 30
0.0
 10
149.6243318353
 20
173.9642881629
 30
0.0
 10
149.3851007311
 20
173.842488887
 30
0.0
 10
149.1418343748
 20
173.7831571269
 30
0.0
 10
148.8256006217
 20
173.7486708056
 30
0.0
 10
148.5735455882
 20
173.7627546471
 30
0.0
 10
148.3998804258
 20
173.7827017974
 30
0.0
  0
SPLINE
  5
390
100
AcDbEntity
  8
FASEN
100
AcDbSpline
 62
7
  6
CONTINUOUS
 70
0
 71
3
 72
10
 73
6
 74
0
 42
0.0000001
 43
0.0000001
 44
0.0000000001
 40
0.0
 40
0.0
 40
0.0
 40
0.0
 40
0.2096750268
 40
0.5684639183
 40
1.0
 40
1.0
 40
1.0
 40
1.0
 10
150.5282941859
 20
119.3938034977
 30
0.0
 10
150.5020924926
 20
119.4054674465
 30
0.0
 10
150.4352000344
 20
119.4468505848
 30
0.0
 10
150.3424237325
 20
119.5498875204
 30
0.0
 10
150.2895293208
 20
119.6448876466
 30
0.0
 10
150.2644685549
 20
119.6983317324
 30
0.0
  0
SPLINE
  5
391
100
AcDbEntity
  8
0
100
AcDbSpline
 62
7
  6
CONTINUOUS
 70
0
 71
3
 72
15
 73
11
 74
0
 42
0.0000001
 43
0.0000001
 44
0.0000000001
 40
0.0
 40
0.0
 40
0.0
 40
0.0
 40
0.0927843218
 40
0.1852295249
 40
0.2784371303
 40
0.3763563379
 40
0.4885932623
 40
0.6280863373
 40
0.8007317987
 40
1.0
 40
1.0
 40
1.0
 40
1.0
 10
149.8095674647
 20
173.9671839547
 30
0.0
 10
149.7937667733
 20
173.9065599422
 30
0.0
 10
149.7589876374
 20
173.7863010543
 30
0.0
 10
149.6900763907
 20
173.6109595872
 30
0.0
 10
149.5945577973
 20
173.4438464167
 30
0.0
 10
149.4532214648
 20
173.2919339376
 30
0.0
 10
149.2435342298
 20
173.1752883542
 30
0.0
 10
148.961461589
 20
173.1111770694
 30
0.0
 10
148.615238143
 20
173.0987136859
 30
0.0
 10
148.3645365319
 20
173.1189650839
 30
0.0
 10
148.230866679
 20
173.1343183799
 30
0.0
  0
SPLINE
  5
392
100
AcDbEntity
  8
FASEN
100
AcDbSpline
 62
7
  6
CONTINUOUS
 70
0
 71
3
 72
13
 73
9
 74
0
 42
0.0000001
 43
0.0000001
 44
0.0000000001
 40
0.0
 40
0.0
 40
0.0
 40
0.0
 40
0.0774874514
 40
0.1748944725
 40
0.2906860341
 40
0.4214522379
 40
0.7097512282
 40
1.0
 40
1.0
 40
1.0
 40
1.0
 10
135.2160657314
 20
154.1511099489
 30
0.0
 10
135.1789752058
 20
154.2301980831
 30
0.0
 10
135.1173842545
 20
154.4188325814
 30
0.0
 10
135.0569051331
 20
154.7413159454
 30
0.0
 10
135.022147857
 20
155.1280560671
 30
0.0
 10
135.0130984875
 20
155.7313490616
 30
0.0
 10
135.0778172306
 20
156.5301971031
 30
0.0
 10
135.1994595959
 20
157.172723298
 30
0.0
 10
135.2820846125
 20
157.4893240008
 30
0.0
  0
SPLINE
  5
393
100
AcDbEntity
  8
BEZUGSACHSEN
100
AcDbSpline
 62
7
  6
CONTINUOUS
 70
0
 71
3
 72
22
 73
18
 74
0
 42
0.0000001
 43
0.0000001
 44
0.0000000001
 40
0.0
 40
0.0
 40
0.0
 40
0.0
 40
0.0700843382
 40
0.1048857754
 40
0.1388420958
 40
0.1712113133
 40
0.2022488504
 40
0.2320530069
 40
0.2612111351
 40
0.3194745375
 40
0.3784330677
 40
0.4382280882
 40
0.4987121333
 40
0.6213974224
 40
0.7460423521
 40
0.8723081151
 40
1.0
 40
1.0
 40
1.0
 40
1.0
 10
136.6358156794
 20
162.6823556692
 30
0.0
 10
136.6117701858
 20
162.7164220444
 30
0.0
 10
136.57387407
 20
162.7663004507
 30
0.0
 10
136.5154558185
 20
162.8248896357
 30
0.0
 10
136.4676998185
 20
162.8619435212
 30
0.0
 10
136.4148489002
 20
162.887143347
 30
0.0
 10
136.3595596649
 20
162.8968320842
 30
0.0
 10
136.30558438
 20
162.8920614665
 30
0.0
 10
136.2394799274
 20
162.8681728798
 30
0.0
 10
136.1665296532
 20
162.8187925295
 30
0.0
 10
136.0908828705
 20
162.7451955345
 30
0.0
 10
136.0230766871
 20
162.662666406
 30
0.0
 10
135.9402974149
 20
162.5440421084
 30
0.0
 10
135.84941426
 20
162.384625639
 30
0.0
 10
135.755878317
 20
162.182798364
 30
0.0
 10
135.674729929
 20
161.9725225736
 30
0.0
 10
135.6282421463
 20
161.8286711961
 30
0.0
 10
135.6067136529
 20
161.7558130467
 30
0.0
  0
SPLINE
  5
394
100
AcDbEntity
  8
FASEN
100
AcDbSpline
 62
7
  6
CONTINUOUS
 70
0
 71
3
 72
12
 73
8
 74
0
 42
0.0000001
 43
0.0000001
 44
0.0000000001
 40
0.0
 40
0.0
 40
0.0
 40
0.0
 40
0.2390548932
 40
0.3448623672
 40
0.4512501466
 40
0.692404003
 40
1.0
 40
1.0
 40
1.0
 40
1.0
 10
151.5797845329
 20
119.9099623185
 30
0.0
 10
151.5418673352
 20
119.8848498242
 30
0.0
 10
151.47904048
 20
119.8563294972
 30
0.0
 10
151.3919748003
 20
119.8579279236
 30
0.0
 10
151.3089947904
 20
119.8857651345
 30
0.0
 10
151.2136305173
 20
119.972572291
 30
0.0
 10
151.1618212682
 20
120.0641108811
 30
0.0
 10
151.1370729986
 20
120.1171388886
 30
0.0
  0
SPLINE
  5
395
100
AcDbEntity
  8
FASEN
100
AcDbSpline
 62
9
  6
CONTINUOUS
 70
0
 71
3
 72
23
 73
19
 74
0
 42
0.0000001
 43
0.0000001
 44
0.0000000001
 40
0.0
 40
0.0
 40
0.0
 40
0.0
 40
0.067413586
 40
0.1350140825
 40
0.2024144865
 40
0.2692422533
 40
0.335166853
 40
0.3999260693
 40
0.4633497849
 40
0.5253793784
 40
0.5860800893
 40
0.6456430709
 40
0.7043740582
 40
0.7626666223
 40
0.820962958
 40
0.8797026857
 40
0.9392824596
 40
1.0
 40
1.0
 40
1.0
 40
1.0
 10
141.134006872
 20
185.7837887789
 30
0.0
 10
140.3155481003
 20
185.5784535542
 30
0.0
 10
138.7013597271
 20
185.0594477408
 30
0.0
 10
136.4027989354
 20
183.9779578022
 30
0.0
 10
134.2676892402
 20
182.6142688188
 30
0.0
 10
132.3436710789
 20
180.9984065671
 30
0.0
 10
130.6731768422
 20
179.1656688712
 30
0.0
 10
129.2934398624
 20
177.156110457
 30
0.0
 10
128.235504623
 20
175.0136846646
 30
0.0
 10
127.5236431318
 20
172.7854309804
 30
0.0
 10
127.1747699745
 20
170.5206318356
 30
0.0
 10
127.1978935801
 20
168.2699290324
 30
0.0
 10
127.5936036303
 20
166.0843154466
 30
0.0
 10
128.3536311222
 20
164.0138410586
 30
0.0
 10
129.4607889826
 20
162.1062169437
 30
0.0
 10
130.8895037862
 20
160.4049355508
 30
0.0
 10
132.6059677888
 20
158.9487888846
 30
0.0
 10
133.9036047457
 20
158.170180869
 30
0.0
 10
134.5835323168
 20
157.8306068193
 30
0.0
  0
ENDSEC
  0
SECTION
  2
OBJECTS
  0
DICTIONARY
  5
C
100
AcDbDictionary
280
0
281
1
  3
ACAD_GROUP
350
D
  3
ACAD_MLINESTYLE
350
17
  3
ACAD_LAYOUT
350
1A
  3
ACAD_PLOTSETTINGS
350
19
  3
ACAD_PLOTSTYLENAME
350
E
  3
ACAD_TABLESTYLE
350
       396
  0
DICTIONARY
  5
D
102
{ACAD_REACTORS
330
C
102
}
100
AcDbDictionary
280
0
281
1
  0
ACDBDICTIONARYWDFLT
  5
E
102
{ACAD_REACTORS
330
C
102
}
100
AcDbDictionary
281
1
  3
Normal
350
F
100
AcDbDictionaryWithDefault
340
F
  0
DICTIONARY
  5
17
102
{ACAD_REACTORS
330
C
102
}
100
AcDbDictionary
280
0
281
1
  3
Standard
350
18
  0
DICTIONARY
  5
396
330
C
100
AcDbDictionary
281
1
  3
Standard
350
       399
  3
Standard1
350
       39A
  0
DICTIONARY
  5
19
102
{ACAD_REACTORS
330
C
102
}
100
AcDbDictionary
281
1
  0
DICTIONARY
  5
1A
102
{ACAD_REACTORS
330
C
102
}
100
AcDbDictionary
281
1
  3
Model
350
397
  3
Layout1
350
398
  0
ACDBPLACEHOLDER
  5
F
102
{ACAD_REACTORS
330
E
102
}
  0
MLINESTYLE
  5
18
102
{ACAD_REACTORS
330
17
102
}
100
AcDbMlineStyle
  2
STANDARD
 70
0
  3

 62
256
 51
90.0
 52
90.0
 71
2
 49
0.5
 62
256
  6
BYLAYER
 49
-0.5
 62
256
  6
BYLAYER
  0
LAYOUT
  5
397
102
{ACAD_REACTORS
330
1A
102
}
100
AcDbPlotSettings
  1

  2
none_device
  4

  6

 40
0.0
 41
0.0
 42
0.0
 43
0.0
 44
210.0
 45
297.0
 46
0.0
 47
0.0
 48
0.0
 49
0.0
140
0.0
141
0.0
142
1.0
143
1.0
 70
1024
 72
1
 73
0
 74
0
  7

 75
0
147
1.0
148
0.0
149
0.0
100
AcDbLayout
  1
Model
 70
0
 71
0
 10
0.0
 20
0.0
 11
210.0
 21
297.0
 12
0.0
 22
0.0
 32
0.0
 14
0.0
 24
0.0
 34
0.0
 15
0.0
 25
0.0
 35
0.0
146
0.0
 13
0.0
 23
0.0
 33
0.0
 16
1.0
 26
0.0
 36
0.0
 17
0.0
 27
1.0
 37
0.0
 76
0
330
20C
345
0
346
0
  0
LAYOUT
  5
398
102
{ACAD_REACTORS
330
1A
102
}
100
AcDbPlotSettings
  1

  2
none_device
  4

  6

 40
0.0
 41
0.0
 42
0.0
 43
0.0
 44
210.0
 45
297.0
 46
0.0
 47
0.0
 48
0.0
 49
0.0
140
0.0
141
0.0
142
1.0
143
1.0
 70
0
 72
1
 73
0
 74
0
  7

 75
0
147
1.0
148
0.0
149
0.0
100
AcDbLayout
  1
Layout1
 70
0
 71
1
 10
0.0
 20
0.0
 11
210.0
 21
297.0
 12
0.0
 22
0.0
 32
0.0
 14
0.0
 24
0.0
 34
0.0
 15
0.0
 25
0.0
 35
0.0
146
0.0
 13
0.0
 23
0.0
 33
0.0
 16
1.0
 26
0.0
 36
0.0
 17
0.0
 27
1.0
 37
0.0
 76
0
330
20D
345
0
346
0
  0
TABLESTYLE
  5
399
102
{ACAD_REACTORS
330
396
330
2A6
102
}
330
396
100
AcDbTableStyle
  3
Standard
 70
0
 71
0
 40
0.06
 41
0.06
280
1
281
1
  7
Standard
140
0.18
170
1
 62
0
 63
7
283
0
  7
Standard
140
0.18
170
1
 62
0
 63
7
283
0
  7
Standard
140
0.18
170
1
 62
0
 63
7
283
0
  0
TABLESTYLE
  5
39A
102
{ACAD_REACTORS
330
396
102
}
330
396
100
AcDbTableStyle
  3
Standard1
 70
1
 71
0
 40
0.06
 41
0.06
280
1
281
1
  7
Standard
140
0.18
170
1
 62
0
 63
7
283
0
  7
Standard
140
0.18
170
1
 62
0
 63
7
283
0
  7
Standard
140
0.18
170
1
 62
0
 63
7
283
0
  0
ENDSEC
  0
EOF
